Tags
Language
Tags

Jerusalem - Jerusalem (1972) [Reissue 2008]

Posted By: Andi_Deris
Jerusalem - Jerusalem (1972) [Reissue 2008]

Jerusalem - Jerusalem (1972) [Reissue 2008]
EAC Rip | FLAC: Tracks+Cue+Log | MP3 CBR 320 kbps | Scans
432 Mb | 164 Mb | 36 Mb | Time: 01:10:05
Rockadrome | ROCK014-V-2
Classic Rock, Hard Rock, Heavy Psych

The first official reissue of this infamous metallic heavy rock album from 1972 produced by Deep Purple’s legendary frontman, Ian Gillan. The music is a menacing combination of over-the-top vocals and screaming lead guitars that could easily pass for something from the early 80s New Wave of British Heavy Metal scene, it’s that far ahead of it’s time. Originally released on the UK Deram/Decca label, and now a favorite among vinyl collectors, the album is presented here from the original master tapes and also features pre-album demos, alternate mixes and a non-lp single track. The 20-page color booklet contains liner notes written by bassist Paul Dean, lyrics, press clippings and rare photos! A must-have for fans of 70s hard rock and also the early 80s NWOBHM sound.

Jerusalem - Jerusalem (1972) [Reissue 2008]




Jerusalem - Jerusalem (1972) [Reissue 2008]


Track Listing

01. Frustration (05:18)
02. Hooded Eagle (04:49)
03. I See The Light (03:55)
04. Murderer's Lament (03:40)
05. When The Wolf Sits (04:57)
06. Midnight Steamer (04:42)
07. Primitive Man (05:55)
08. Beyond The Grave (06:09)
09. She Came Like A Bat From Hell (05:35)

Bonus tracks
10. Kamakazi Moth (Non-Lp Single Track) (02:46)
11. Primitive Man (Demo Version) [Phil Goddard - lead vocals] (06:56)
12. Beyond The Grave (Demo Version) [Phil Goddard - lead vocals] (07:15)
13. Hooded Eagle (Single Version) (04:04)
14. I See The Light (Mono Version) (03:58)

Produced by Ian Gillan

The Band

• Lynden Williams - vocals
• Bob Cooke - lead guitar
• Bill Hinde - 2nd guitar
• Paul Dean - bass
• Ray Sparrow - drums and percussion

Exact Audio Copy V0.99 prebeta 4 from 23. January 2008

EAC extraction logfile from 31. October 2010, 12:26

Jerusalem / Jerusalem

Used drive : HL-DT-STDVD-RAM GSA-H58N Adapter: 0 ID: 0

Read mode : Secure
Utilize accurate stream : Yes
Defeat audio cache : Yes
Make use of C2 pointers : No

Read offset correction : 102
Overread into Lead-In and Lead-Out : No
Fill up missing offset samples with silence : Yes
Delete leading and trailing silent blocks : No
Null samples used in CRC calculations : Yes
Used interface : Installed external ASPI interface
Gap handling : Appended to previous track

Used output format : User Defined Encoder
Selected bitrate : 1024 kBit/s
Quality : High
Add ID3 tag : No
Command line compressor : C:\Arquivos de programas\Exact Audio Copy\Flac\flac.exe
Additional command line options : -8 -A tukey(0.25) -A gauss(0.1875) -b 4096 -V -T "artist=%a" -T "title=%t" -T "album=%g" -T "date=%y" -T "tracknumber=%n" -T "genre=%m" %s –sector-align


TOC of the extracted CD

Track | Start | Length | Start sector | End sector
––––––––––––––––––––––––––––-
1 | 0:00.00 | 5:18.19 | 0 | 23868
2 | 5:18.19 | 4:49.63 | 23869 | 45606
3 | 10:08.07 | 3:55.01 | 45607 | 63232
4 | 14:03.08 | 3:40.50 | 63233 | 79782
5 | 17:43.58 | 4:57.63 | 79783 | 102120
6 | 22:41.46 | 4:42.03 | 102121 | 123273
7 | 27:23.49 | 5:55.29 | 123274 | 149927
8 | 33:19.03 | 6:09.19 | 149928 | 177621
9 | 39:28.22 | 5:35.63 | 177622 | 202809
10 | 45:04.10 | 2:46.05 | 202810 | 215264
11 | 47:50.15 | 6:56.10 | 215265 | 246474
12 | 54:46.25 | 7:15.17 | 246475 | 279116
13 | 62:01.42 | 4:04.42 | 279117 | 297458
14 | 66:06.09 | 3:58.06 | 297459 | 315314


Track 1

Filename C:\Documents and Settings\Nelson\Meus documentos\My Music\01 - Jerusalem - Frustration.wav

Pre-gap length 0:00:02.00

Peak level 98.2 %
Track quality 100.0 %
Test CRC 04858940
Copy CRC 04858940
Copy OK

Track 2

Filename C:\Documents and Settings\Nelson\Meus documentos\My Music\02 - Jerusalem - Hooded Eagle.wav

Pre-gap length 0:00:02.00

Peak level 98.2 %
Track quality 100.0 %
Test CRC CA4A82EB
Copy CRC CA4A82EB
Copy OK

Track 3

Filename C:\Documents and Settings\Nelson\Meus documentos\My Music\03 - Jerusalem - I See the Light.wav

Peak level 98.2 %
Track quality 100.0 %
Test CRC 1D7FCE47
Copy CRC 1D7FCE47
Copy OK

Track 4

Filename C:\Documents and Settings\Nelson\Meus documentos\My Music\04 - Jerusalem - Murderer's Lament.wav

Pre-gap length 0:00:02.00

Peak level 87.7 %
Track quality 100.0 %
Test CRC 2F7371D9
Copy CRC 2F7371D9
Copy OK

Track 5

Filename C:\Documents and Settings\Nelson\Meus documentos\My Music\05 - Jerusalem - When the Wolf Sits.wav

Pre-gap length 0:00:02.00

Peak level 97.3 %
Track quality 99.9 %
Test CRC 996403CB
Copy CRC 996403CB
Copy OK

Track 6

Filename C:\Documents and Settings\Nelson\Meus documentos\My Music\06 - Jerusalem - Midnight Steamer.wav

Pre-gap length 0:00:02.00

Peak level 98.1 %
Track quality 100.0 %
Test CRC E3344AD3
Copy CRC E3344AD3
Copy OK

Track 7

Filename C:\Documents and Settings\Nelson\Meus documentos\My Music\07 - Jerusalem - Primitive Man.wav

Pre-gap length 0:00:02.00

Peak level 98.1 %
Track quality 100.0 %
Test CRC 8A3A626F
Copy CRC 8A3A626F
Copy OK

Track 8

Filename C:\Documents and Settings\Nelson\Meus documentos\My Music\08 - Jerusalem - Beyond the Grave.wav

Pre-gap length 0:00:02.00

Peak level 98.0 %
Track quality 99.9 %
Test CRC 0F0A9422
Copy CRC 0F0A9422
Copy OK

Track 9

Filename C:\Documents and Settings\Nelson\Meus documentos\My Music\09 - Jerusalem - She Came Like a Bat From Hell.wav

Pre-gap length 0:00:02.00

Peak level 98.1 %
Track quality 100.0 %
Test CRC 5AD86474
Copy CRC 5AD86474
Copy OK

Track 10

Filename C:\Documents and Settings\Nelson\Meus documentos\My Music\10 - Jerusalem - Kamakazi Moth (non-lp single track).wav

Pre-gap length 0:00:02.00

Peak level 83.4 %
Track quality 100.0 %
Test CRC 13D5792D
Copy CRC 13D5792D
Copy OK

Track 11

Filename C:\Documents and Settings\Nelson\Meus documentos\My Music\11 - Jerusalem - Primitive Man (demo version).wav

Pre-gap length 0:00:02.00

Peak level 98.2 %
Track quality 100.0 %
Test CRC 37DEB767
Copy CRC 37DEB767
Copy OK

Track 12

Filename C:\Documents and Settings\Nelson\Meus documentos\My Music\12 - Jerusalem - Beyond the Grave (demo version).wav

Pre-gap length 0:00:02.00

Peak level 98.1 %
Track quality 100.0 %
Test CRC F844D996
Copy CRC F844D996
Copy OK

Track 13

Filename C:\Documents and Settings\Nelson\Meus documentos\My Music\13 - Jerusalem - Hooded Eagle (single version).wav

Pre-gap length 0:00:02.00

Peak level 92.3 %
Track quality 100.0 %
Test CRC 2DC6C2E1
Copy CRC 2DC6C2E1
Copy OK

Track 14

Filename C:\Documents and Settings\Nelson\Meus documentos\My Music\14 - Jerusalem - I See the Light (mono version).wav

Pre-gap length 0:00:02.00

Peak level 98.0 %
Track quality 99.9 %
Test CRC 1C47C3FA
Copy CRC 1C47C3FA
Copy OK

No errors occurred

End of status report


Many thanks to the original uploader: nelwizard

SEE also:
Deckchair Poets 2013 Who Needs Pyjamas?

Jerusalem 2014 Black Horses



Password: pass