Tags
Language
Tags

Jerusalem - Black Horses (2014)

Posted By: Andi_Deris
Jerusalem - Black Horses (2014)

Jerusalem - Black Horses (2014)
EAC Rip | FLAC: Image+Cue+Log | MP3 CBR 320 kbps | Scans
366 Mb | 122 Mb | Time: 47:42
Angel Air Records | SJPCD447
Classic Rock, Hard Rock, Heavy Psych

JERUSALEM was formed in the early 70’s and released in 1972 a self-titled album on the infamous Deram label which was produced by Ian Gillan. They gigged all over Europe supporting Black Sabbath, Deep Purple, Uriah Heep and Status Quo before disbanding due to “musical differences”. The band reformed again in 2008 releasing their second album “Escalator” to much acclaim. BLACK HORSES is indeed a very fine release, and even if you've never heard their heavy rocking 1972 debut, chances are if you like modern prog and '70s styled hard rock you'll get a lot of mileage out of this one.

Jerusalem - Black Horses (2014)




Jerusalem - Black Horses (2014)


Track Listing

01. Puppet King (05:02)
02. Let Me (04:46)
03. Black Horses (05:00)
04. Leopard Skin Pie (03:59)
05. Shades Of Blue (04:40)
06. The Albatross (05:36)
07. It's All Over Now (03:30)
08. Surfing From Sydney To Marrakech (04:52)
09. Smokestack Ammunition (04:41)
10. Eternity (05:31)

Produced by Rob Aubrey and Lynden Williams

The Band

• Lynden Williams - vocals, additional percussion
• Ollie Hannifan - guitars
Nick D'Virgilio (Spocks Beard) - drums, percussion
• Ashley Cutler - bass, backing vocals
Geoff Downes (Asia, Yes, Buggles) - keyboards
• Rachel Hawnt - backing vocals
• Ray Drury - keyboards (1,2,3), accordion (track 7)
• Rachel Hall - violin
• Will 'Harmonica' Wilde - blues harp
• Henk Leerink - fretless bass guitar on track 10
• Rob Aubrey - additional percussion

Jerusalem - Black Horses (2014)


Bio

Often confused with the Christian rock band from Sweden that emerged a few years later, the British Jerusalem is best remembered for a lone, 1972 album characterized by unselfconsciously raw hard rock and metal, produced by none other than Deep Purple singer Ian Gillan. The roots of Jerusalem reach back to 1966, when school pals Paul Dean and Ray Sparrow attended a life-altering show in their native Salisbury by U.K. Blues boom stars, John Mayall's Bluesbreakers, and immediately took up the bass guitar and drums, respectively. Pretty soon, the fledgling musicians were penning their first originals and playing local shows with a rotating cast of bandmates, but it took a few more years for a stable lineup to coalesce with the addition of vocalist Phil Goddard, lead guitarist Bob Cook, and rhythm guitarist Bill Hinde, at which point they officially adopted the name of Jerusalem. Fortuitously, just as the band was gathering momentum, Dean's elder sister, Zoe, was making headway in London as a presenter for TV music show A Whole Scene Going and by moonlighting for several record labels. She was also beginning a romantic relationship with the aforementioned Ian Gillan, who was coming into stardom thanks to success of Deep Purple's breakthrough album, In Rock. One thing led to another, and after becoming impressed with the demos Jerusalem had recently recorded at Pye Studios, Gillan decided to co-manage the band with Zoe. Their first order of business was auditioning a replacement for the recently departed Goddard, eventually selecting natural born showman Lynden Williams, before entering London's Kingsway Recorders Studios (also recently purchased by budding millionaire, Gillan) to record an eponymous debut album. Released through Deram in 1972, this preceded several short tours and German festival appearances for Jerusalem, almost always in conjunction with their mentors, Deep Purple, and a bizarrely named single, "Kamikaze Moth," was also released before year's end, but had no impact on the charts. In fact, neither had their album, and even though the group's internal dynamic was never anything less than friendly, original founders Dean and Sparrow were ready to try their hands at something fresh. Together with guitarist Cook, they formed a new power trio with progressive rock aspirations (Dean handled vocals, as well as bass) and suggestively named it Pussy, but despite continued support from Gillan, and the release of a debut single, "Feline Woman," through Deram, the project never really got off the ground. An unreleased album from the period finally emerged in 2008 through Rockadrome Records, and is likely to join Jerusalem's only album in the annals of cult heavy rock obscurities sought out by avid collectors. The band reformed again in 2008 releasing their second album “Escalator” to much acclaim.Now for their third album with original members LYNDEN WILLIAMS and BOB COOKE they are joined by the cream of the Prog Rock crop GEOFF DOWNES (ASIA,YES) and NICK D’VIRGILIO (TEARS FOR FEARS, SPOCKS BEARD) and they have produced a stunning brand new Prog Rock album. What a band! What an album!!

Exact Audio Copy V1.0 beta 3 from 29. August 2011

EAC extraction logfile from 21. November 2014, 18:10

Jerusalem / Black Horses

Used drive : PLEXTOR BD-R PX-B940SA Adapter: 5 ID: 0

Read mode : Secure
Utilize accurate stream : Yes
Defeat audio cache : Yes
Make use of C2 pointers : No

Read offset correction : 667
Overread into Lead-In and Lead-Out : No
Fill up missing offset samples with silence : Yes
Delete leading and trailing silent blocks : No
Null samples used in CRC calculations : Yes
Used interface : Installed external ASPI interface

Used output format : User Defined Encoder
Selected bitrate : 128 kBit/s
Quality : High
Add ID3 tag : Yes
Command line compressor : G:\Program Files (x86)\Exact Audio Copy\Flac\flac.exe
Additional command line options : -V -8 -T "Date=%year%" -T "Genre=%genre%" %source%


TOC of the extracted CD

Track | Start | Length | Start sector | End sector
––––––––––––––––––––––––––––-
1 | 0:00.00 | 5:02.09 | 0 | 22658
2 | 5:02.09 | 4:46.64 | 22659 | 44172
3 | 9:48.73 | 5:00.59 | 44173 | 66731
4 | 14:49.57 | 3:59.60 | 66732 | 84716
5 | 18:49.42 | 4:40.31 | 84717 | 105747
6 | 23:29.73 | 5:36.23 | 105748 | 130970
7 | 29:06.21 | 3:30.03 | 130971 | 146723
8 | 32:36.24 | 4:52.58 | 146724 | 168681
9 | 37:29.07 | 4:41.03 | 168682 | 189759
10 | 42:10.10 | 5:31.34 | 189760 | 214618


Range status and errors

Selected range

Filename D:\MUSIC\Jerusalem - Black Horses.wav

Peak level 99.9 %
Extraction speed 4.7 X
Range quality 100.0 %
Test CRC 9B83B8A4
Copy CRC 9B83B8A4
Copy OK

No errors occurred


AccurateRip summary

Track 1 not present in database
Track 2 not present in database
Track 3 not present in database
Track 4 not present in database
Track 5 not present in database
Track 6 not present in database
Track 7 not present in database
Track 8 not present in database
Track 9 not present in database
Track 10 not present in database

None of the tracks are present in the AccurateRip database

End of status report

==== Log checksum 801D119FD6CB7F451426AA66448C0AAFA43E6B5F37876E8B31EBEF6E21BBE700 ====


Many thanks to the original uploader: rd

SEE also:
Deckchair Poets 2013 Who Needs Pyjamas?

Jerusalem 1972 Jerusalem [Reissue 2008]



Password: pass