Subcategories

Jessye Norman, Kurt Masur - R. Strauss: Vier letzte Lieder, Orchestral Lieder (1992)

Posted By: tirexiss
Jessye Norman, Kurt Masur - R. Strauss: Vier letzte Lieder, Orchestral Lieder (1992)

Jessye Norman, Kurt Masur - R. Strauss: Vier letzte Lieder, Orchestral Lieder (1992)
EAC | FLAC (image+.cue, log) | Covers Included | 46:00 | 217 MB
Genre: Classical | Label: Philips | Catalog: 411 052-2

Lovers of the Four Last Songs have come to take good recordings of the set for granted. Jessye Norman's early digital account with Kurt Masur and the Leipzigers is one of the best–powerful, sensuous, and very well recorded. Strauss may have conceived the songs with an ideal voice in mind, but he made a point of asking that Kirsten Flagstad give the first performance of the set. Since then, no comparably endowed soprano, in possession of both the tonal richness and the extraordinary amplitude that were Flagstad's, has recorded the Four Last Songs, save for Norman. The tessitura of the cycle is perfect for her–not too high, with almost every phrase lying in the warm, lustrous middle part of the voice–and Norman shapes the words with consummate skill and sensitivity. To hear her soar out over the orchestra, carrying the most demanding phrases with long-breathed splendor, is to enjoy, for a moment, the return of a golden age. – Ted Libbey

Jessye Norman, Kurt Masur - R. Strauss: Vier letzte Lieder, Orchestral Lieder (1992)

Track List:

01. Vier letzte lieder - I. Frhling (Hesse) [0:03:49.05]
02. II. September (Hesse) [0:05:30.22]
03. III. Beim Schlafengehen (Hesse) [0:06:10.50]
04. IV. Im Abendrot (Eichendorff) [0:10:00.18]
05. Orchesterlieder - I. Ccilie, Op. 27 No. 2 (Hart) [0:02:17.00]
06. II. Morgen, Op. 27 No. 4 (Mackay) [0:04:00.30]
07. III. Wiegenlied, Op. 41 No. 1 (Dehmel) [0:05:16.02]
08. IV. Ruhe, meine Seele, Op. 27 No. 1 (Henckell) [0:04:30.68]
09. V. Meinem Kinde, Op. 37 No. 3 (Falke) [0:02:42.00]
10. VI. Zueignung, Op. 10 No. 1 (Von Gilm) [0:01:46.30]

Performers:
Jessye Norman - soprano
Gewandhausorchester
Kurt Masur - conductor

Exact Audio Copy V1.0 beta 3 from 29. August 2011

EAC extraction logfile from 4. January 2013, 17:12

Jessye Norman / R.Strauss - Vier letzte Lieder; Orchesterlieder - Norman, Masur

Used drive : TSSTcorpCDDVDW TS-L633M Adapter: 1 ID: 0

Read mode : Secure
Utilize accurate stream : Yes
Defeat audio cache : Yes
Make use of C2 pointers : No

Read offset correction : 6
Overread into Lead-In and Lead-Out : No
Fill up missing offset samples with silence : Yes
Delete leading and trailing silent blocks : No
Null samples used in CRC calculations : Yes
Used interface : Native Win32 interface for Win NT & 2000

Used output format : User Defined Encoder
Selected bitrate : 320 kBit/s
Quality : High
Add ID3 tag : No
Command line compressor : C:\Program Files\Exact Audio Copy\Flac\flac.exe
Additional command line options : -8 -V -T "TITLE=%title%" -T "ARTIST=%artist%" -T "ALBUMARTIST=%albumartist%" -T "ALBUM=%albumtitle%" -T "DATE=%year%" -T "TRACKNUMBER=%tracknr%" -T "TRACKTOTAL=%numtracks%" -T "GENRE=%genre%" -T "COMMENT=%comment%" -T "PERFORMER=%albuminterpret%" -T "COMPOSER=%composer%" %source% -o %dest%


TOC of the extracted CD

Track | Start | Length | Start sector | End sector
––––––––––––––––––––––––––––-
1 | 0:00.33 | 3:49.05 | 33 | 17212
2 | 3:49.38 | 5:30.22 | 17213 | 41984
3 | 9:19.60 | 6:10.50 | 41985 | 69784
4 | 15:30.35 | 10:00.18 | 69785 | 114802
5 | 25:30.53 | 2:17.00 | 114803 | 125077
6 | 27:47.53 | 4:00.30 | 125078 | 143107
7 | 31:48.08 | 5:16.02 | 143108 | 166809
8 | 37:04.10 | 4:30.68 | 166810 | 187127
9 | 41:35.03 | 2:42.00 | 187128 | 199277
10 | 44:17.03 | 1:46.30 | 199278 | 207257


Range status and errors

Selected range

Filename C:\Users\JS\Desktop\R.Strauss\R.Strauss - Vier letzte Lieder; Orchesterlieder - Norman, Masur.wav

Peak level 90.6 %
Extraction speed 1.8 X
Range quality 100.0 %
Test CRC 31DE9D4C
Copy CRC 31DE9D4C
Copy OK

No errors occurred


AccurateRip summary

Track 1 accurately ripped (confidence 4) [3576EB46] (AR v2)
Track 2 accurately ripped (confidence 4) [3C28B520] (AR v2)
Track 3 accurately ripped (confidence 3) [543C7281] (AR v2)
Track 4 accurately ripped (confidence 4) [9B73A595] (AR v2)
Track 5 accurately ripped (confidence 4) [CEACE9D1] (AR v2)
Track 6 accurately ripped (confidence 3) [341E6DCF] (AR v2)
Track 7 accurately ripped (confidence 3) [25548969] (AR v2)
Track 8 accurately ripped (confidence 4) [D771E976] (AR v2)
Track 9 accurately ripped (confidence 4) [DD820AF6] (AR v2)
Track 10 accurately ripped (confidence 4) [D5E78754] (AR v2)

All tracks accurately ripped

End of status report

Thanks to the Original ripper (unknown)!

Welcome to my blog!

Download: