Tags
Language
Tags

Jesus Lopez-Cobos, Munchener Opernorchester, Diana Damrau - Donizetti: Lucia di Lammermoor (2014)

Posted By: ArlegZ
Jesus Lopez-Cobos, Munchener Opernorchester, Diana Damrau - Donizetti: Lucia di Lammermoor (2014)

Jesús López-Cobos, Münchener Opernorchester, Diana Damrau - Donizetti: Lucia di Lammermoor (2014)
EAC | FLAC | Image (Cue & Log) ~ 633 Mb | Total time: 65:23+71:34 | Digital booklet
Classical | Label: Erato | # 0825646219018 | Recorded: 2013

Diana Damrau gave her first performance as Donizetti's Lucia di Lammermoor at the Metropolitan Opera in October 2008, to much critical acclaim. This recording with the Munich Opera followed almost five years later, in July 2013, showing that she has staying power in the ultimate coloratura role. The Munich performance was conducted by Jesús López-Cobos, and Damrau was joined by an exceptional cast, which included Joseph Calleja as Edgardo, Ludovic Tézier as Enrico, and Nicolas Testé as Raimondo. The role of Lucia is one of the great bel canto roles, and Damrau's singing strikes a fine balance between the customary runs and embellishments characteristic of the style and the needs of the drama, which, in the case of Lucia, put her at the extreme poles of virtuosity and lyrical simplicity. High points of this recording are the arias, "Regnava nel silenzio," “Quando, rapito in estasi,” and the famous mad scene, "Spargi d'amaro pianto," which Damrau delivers with impressive control of line, crystalline ornamentation, and poignant expression.
–Blair Sanderson

Performer:
Lord Enrico Ashton - Ludovic Tézier
Miss Lucia - Diana Damrau
Sir Edgardo di Ravenswood - Joseph Calleja
Raimondo Bidebent - Nicolas Testé
Alisa - Marie McLaughlin
Lord Arturo Bucklaw - David Lee
Normanno - Andrew Lepri Meyer
Münchener Opernchor
Münchener Opernorchester
Conductor - Jesús López-Cobos

Track List:
CD1:
01. Atto I. Preludio - "Percorrete le spiagge vicine" (Normanno, Chorus)
02. "Tu sei turbato!" (Normanno, Enrico, Raimondo)
03. "Cruda, funesta smania" (Enrico, Normanno, Raimondo)
04. "Il tuo dubbio è omai certezza" (Chorus, Normanno, Enrico, Raimondo)
05. "La pietade in suo favore" (Enrico, Raimondo, Chorus)
06. "Ancor non giunse?" (Lucia, Alisa)
07. "Regnava nel silenzio" (Lucia, Alisa)
08. "Quando rapito in estasi" (Lucia, Alisa)
09. "Egli s'avanza" (Alisa, Edgardo, Lucia)
10. "Sulla tomba che rinserra" (Edgardo, Lucia)
11. "Qui di sposa eterna fede… Verranno A Te Sull'Aure" (Edgardo, Lucia)
12. Atto II. "Lucia fra poco a te verrà" (Normanno, Enrico)
13. "Appressati, Lucia… Il pallor funesto, orrendo" (Enrico, Lucia)
14. "Soffriva nel pianto" (Lucia, Enrico)
15. "Che fia?" (Lucia, Enrico)
16. "Se tradirmi tu potrai" (Enrico, Lucia)
17. "Ebben? Di tua speranza" (Lucia, Raimondo)
18. "Ah! Cedi, cedi" (Raimondo, Lucia)
19. "Al ben de' tuoi qual vittima" (Raimondo, Lucia)
CD2:
01. "Per te d'immenso giubilo" (Chorus, Arturo)
02. "Dov'e Lucia?" (Arturo, Enrico, Chorus, Lucia, Raimondo, Edgardo)
03. "Chi mi frena in tal momento?" (Edgardo, Enrico, Lucia, Raimondo, Alisa, Arturo, Chorus)
04. "T'allontana, sciagurato" (Enrico, Arturo, Coro, Edgardo, Raimondo, Lucia)
05. Atto III. "Orrida è questa notte" (Edgardo, Enrico)
06. "Qui del padre ancor respira… O sole più rapido" (Edgardo, Enrico)
07. "D'immenso giubilo" (Chorus)
08. "Ah! Cessate quel contento… Dalle Stanze Ove Lucia" (Raimondo, Chorus)
09. "Oh! Qual funesto avvenimento!" (Chorus, Raimondo)
10. "Eccola! Oh Giusto Cielo!… Il Dolce Suono" (Raimondo, Chorus, Lucia)
11. "Ohimè! sorge il tremendo fantasma… Ardon gli incensi" (Lucia, Normanno, Raimondo, Chorus)
12. ''S'Avanza Enrico!" (Raimondo, Enrico, Lucia, Chorus)
13. "Spargi d'amaro pianto" (Lucia, Chorus, Enrico)
14. "Tombe degli avi miei" (Edgardo)
15. "Fra poco a me ricovero" (Edgardo)
16. "Oh, meschina! Oh, fato orrendo!" (Chorus, Edgardo, Raimondo)
17. "Tu che a Dio spiegasti l'ali" (Edgardo, Raimondo, Chorus)


Exact Audio Copy V1.3 from 2. September 2016

EAC extraction logfile from 29. June 2019, 13:56

Jesús López-Cobos / Donizetti - Lucia di Lammermoor CD1

Used drive : HL-DT-STDVDRAM GP65NW60 Adapter: 1 ID: 0

Read mode : Secure
Utilize accurate stream : Yes
Defeat audio cache : Yes
Make use of C2 pointers : No

Read offset correction : 6
Overread into Lead-In and Lead-Out : No
Fill up missing offset samples with silence : Yes
Delete leading and trailing silent blocks : No
Null samples used in CRC calculations : Yes
Used interface : Native Win32 interface for Win NT & 2000

Used output format : User Defined Encoder
Selected bitrate : 1024 kBit/s
Quality : High
Add ID3 tag : No
Command line compressor : C:\Program Files (x86)\Exact Audio Copy\FLAC\FLAC.EXE
Additional command line options : -6 -V -T "ARTIST=%artist%" -T "TITLE=%title%" -T "ALBUM=%albumtitle%" -T "DATE=%year%" -T "TRACKNUMBER=%tracknr%" -T "GENRE=%genre%" -T "COMMENT=%comment%" -T "BAND=%albuminterpret%" -T "ALBUMARTIST=%albuminterpret%" -T "COMPOSER=%composer%" %haslyrics%–tag-from-file=LYRICS="%lyricsfile%"%haslyrics% -T "DISCNUMBER=%cdnumber%" -T "TOTALDISCS=%totalcds%" -T "TOTALTRACKS=%numtracks%" %hascover%–picture="%coverfile%"%hascover% %source% -o %dest%


TOC of the extracted CD

Track | Start | Length | Start sector | End sector
––––––––––––––––––––––––––––-
1 | 0:00.00 | 4:25.16 | 0 | 19890
2 | 4:25.16 | 2:41.43 | 19891 | 32008
3 | 7:06.59 | 1:53.28 | 32009 | 40511
4 | 9:00.12 | 2:00.43 | 40512 | 49554
5 | 11:00.55 | 2:24.34 | 49555 | 60388
6 | 13:25.14 | 4:26.38 | 60389 | 80376
7 | 17:51.52 | 4:51.48 | 80377 | 102249
8 | 22:43.25 | 4:49.59 | 102250 | 123983
9 | 27:33.09 | 2:37.68 | 123984 | 135826
10 | 30:11.02 | 3:09.52 | 135827 | 150053
11 | 33:20.54 | 7:15.71 | 150054 | 182749
12 | 40:36.50 | 2:46.43 | 182750 | 195242
13 | 43:23.18 | 5:44.13 | 195243 | 221055
14 | 49:07.31 | 3:46.49 | 221056 | 238054
15 | 52:54.05 | 1:21.45 | 238055 | 244174
16 | 54:15.50 | 2:44.36 | 244175 | 256510
17 | 57:00.11 | 2:09.72 | 256511 | 266257
18 | 59:10.08 | 2:26.28 | 266258 | 277235
19 | 61:36.36 | 3:44.56 | 277236 | 294091


Range status and errors

Selected range

Filename C:\Users\Grant\Desktop\Jesús López-Cobos - Donizetti - Lucia di Lammermoor CD1.wav

Peak level 99.8 %
Extraction speed 5.0 X
Range quality 99.9 %
Test CRC F961EFB4
Copy CRC F961EFB4
Copy OK

No errors occurred


AccurateRip summary

Track 1 accurately ripped (confidence 11) [73F41274] (AR v2)
Track 2 accurately ripped (confidence 12) [7A9D8EB4] (AR v2)
Track 3 accurately ripped (confidence 12) [8B998663] (AR v2)
Track 4 accurately ripped (confidence 12) [7E04218F] (AR v2)
Track 5 accurately ripped (confidence 12) [6FC839E6] (AR v2)
Track 6 accurately ripped (confidence 11) [F981925D] (AR v2)
Track 7 accurately ripped (confidence 12) [28D2B48C] (AR v2)
Track 8 accurately ripped (confidence 12) [D12CF71C] (AR v2)
Track 9 accurately ripped (confidence 12) [0F42B3A7] (AR v2)
Track 10 accurately ripped (confidence 12) [1AC16B59] (AR v2)
Track 11 accurately ripped (confidence 11) [89C0A865] (AR v2)
Track 12 accurately ripped (confidence 12) [223D02FE] (AR v2)
Track 13 accurately ripped (confidence 11) [4E99B5CC] (AR v2)
Track 14 accurately ripped (confidence 12) [0E3AD676] (AR v2)
Track 15 accurately ripped (confidence 12) [C3C16E41] (AR v2)
Track 16 accurately ripped (confidence 12) [12FBFB53] (AR v2)
Track 17 accurately ripped (confidence 12) [D95CC846] (AR v2)
Track 18 accurately ripped (confidence 12) [1A1A980C] (AR v2)
Track 19 accurately ripped (confidence 11) [E6D679BD] (AR v2)

All tracks accurately ripped

End of status report

–– CUETools DB Plugin V2.1.6

[CTDB TOCID: 12QhvkUS.1YvZrFykFkKfWa4.PQ-] found
Submit result: 12QhvkUS.1YvZrFykFkKfWa4.PQ- has been confirmed
Track | CTDB Status
1 | (52/52) Accurately ripped
2 | (52/52) Accurately ripped
3 | (52/52) Accurately ripped
4 | (52/52) Accurately ripped
5 | (52/52) Accurately ripped
6 | (52/52) Accurately ripped
7 | (52/52) Accurately ripped
8 | (52/52) Accurately ripped
9 | (52/52) Accurately ripped
10 | (52/52) Accurately ripped
11 | (52/52) Accurately ripped
12 | (52/52) Accurately ripped
13 | (52/52) Accurately ripped
14 | (52/52) Accurately ripped
15 | (52/52) Accurately ripped
16 | (52/52) Accurately ripped
17 | (52/52) Accurately ripped
18 | (52/52) Accurately ripped
19 | (52/52) Accurately ripped


==== Log checksum B39118132E54C904A3B2FFC3AFA617AF5314688EADA1295A46655224B583979E ====


Exact Audio Copy V1.3 from 2. September 2016

EAC extraction logfile from 29. June 2019, 15:04

Jesús López-Cobos / Donizetti - Lucia di Lammermoor CD2

Used drive : HL-DT-STDVDRAM GP65NW60 Adapter: 1 ID: 0

Read mode : Secure
Utilize accurate stream : Yes
Defeat audio cache : Yes
Make use of C2 pointers : No

Read offset correction : 6
Overread into Lead-In and Lead-Out : No
Fill up missing offset samples with silence : Yes
Delete leading and trailing silent blocks : No
Null samples used in CRC calculations : Yes
Used interface : Native Win32 interface for Win NT & 2000

Used output format : User Defined Encoder
Selected bitrate : 1024 kBit/s
Quality : High
Add ID3 tag : No
Command line compressor : C:\Program Files (x86)\Exact Audio Copy\FLAC\FLAC.EXE
Additional command line options : -6 -V -T "ARTIST=%artist%" -T "TITLE=%title%" -T "ALBUM=%albumtitle%" -T "DATE=%year%" -T "TRACKNUMBER=%tracknr%" -T "GENRE=%genre%" -T "COMMENT=%comment%" -T "BAND=%albuminterpret%" -T "ALBUMARTIST=%albuminterpret%" -T "COMPOSER=%composer%" %haslyrics%–tag-from-file=LYRICS="%lyricsfile%"%haslyrics% -T "DISCNUMBER=%cdnumber%" -T "TOTALDISCS=%totalcds%" -T "TOTALTRACKS=%numtracks%" %hascover%–picture="%coverfile%"%hascover% %source% -o %dest%


TOC of the extracted CD

Track | Start | Length | Start sector | End sector
––––––––––––––––––––––––––––-
1 | 0:00.17 | 3:30.32 | 17 | 15798
2 | 3:30.49 | 3:56.70 | 15799 | 33568
3 | 7:27.44 | 3:32.63 | 33569 | 49531
4 | 11:00.32 | 5:40.50 | 49532 | 75081
5 | 16:41.07 | 2:41.36 | 75082 | 87192
6 | 19:22.43 | 7:25.17 | 87193 | 120584
7 | 26:47.60 | 1:40.21 | 120585 | 128105
8 | 28:28.06 | 2:54.32 | 128106 | 141187
9 | 31:22.38 | 2:21.01 | 141188 | 151763
10 | 33:43.39 | 3:59.71 | 151764 | 169759
11 | 37:43.35 | 10:05.37 | 169760 | 215171
12 | 47:48.72 | 2:59.61 | 215172 | 228657
13 | 50:48.58 | 4:50.19 | 228658 | 250426
14 | 55:39.02 | 4:01.19 | 250427 | 268520
15 | 59:40.21 | 3:02.59 | 268521 | 282229
16 | 62:43.05 | 3:48.40 | 282230 | 299369
17 | 66:31.45 | 5:00.56 | 299370 | 321925


Range status and errors

Selected range

Filename C:\Users\Grant\Desktop\Jesús López-Cobos - Donizetti - Lucia di Lammermoor CD2.wav

Peak level 98.2 %
Extraction speed 2.2 X
Range quality 100.0 %
Test CRC DB02BD68
Copy CRC DB02BD68
Copy OK

No errors occurred


AccurateRip summary

Track 1 accurately ripped (confidence 16) [A93D6D3C] (AR v2)
Track 2 accurately ripped (confidence 16) [4FCC506A] (AR v2)
Track 3 accurately ripped (confidence 16) [83D61569] (AR v2)
Track 4 accurately ripped (confidence 16) [51363203] (AR v2)
Track 5 accurately ripped (confidence 16) [D4C82467] (AR v2)
Track 6 accurately ripped (confidence 16) [1366C44E] (AR v2)
Track 7 accurately ripped (confidence 16) [3F4704C9] (AR v2)
Track 8 accurately ripped (confidence 16) [8C7A9843] (AR v2)
Track 9 accurately ripped (confidence 16) [7A6AD49C] (AR v2)
Track 10 accurately ripped (confidence 16) [A90A99AB] (AR v2)
Track 11 accurately ripped (confidence 16) [01FB7395] (AR v2)
Track 12 accurately ripped (confidence 16) [E9612A5E] (AR v2)
Track 13 accurately ripped (confidence 16) [8D9613BA] (AR v2)
Track 14 accurately ripped (confidence 16) [CEF191A4] (AR v2)
Track 15 accurately ripped (confidence 16) [D2F3E3B4] (AR v2)
Track 16 accurately ripped (confidence 16) [439628B5] (AR v2)
Track 17 accurately ripped (confidence 16) [519FEF5C] (AR v2)

All tracks accurately ripped

End of status report

–– CUETools DB Plugin V2.1.6

[CTDB TOCID: p9W5FeZ.8XK.jq0nauo79wusPf8-] found
Submit result: p9W5FeZ.8XK.jq0nauo79wusPf8- has been confirmed
Track | CTDB Status
1 | (44/44) Accurately ripped
2 | (44/44) Accurately ripped
3 | (44/44) Accurately ripped
4 | (44/44) Accurately ripped
5 | (44/44) Accurately ripped
6 | (44/44) Accurately ripped
7 | (44/44) Accurately ripped
8 | (44/44) Accurately ripped
9 | (44/44) Accurately ripped
10 | (44/44) Accurately ripped
11 | (44/44) Accurately ripped
12 | (44/44) Accurately ripped
13 | (44/44) Accurately ripped
14 | (44/44) Accurately ripped
15 | (44/44) Accurately ripped
16 | (44/44) Accurately ripped
17 | (44/44) Accurately ripped


==== Log checksum E73962E2F0A3E81D564EA49F3B4A0E8BC1258F72D5A319A2BC0F57D8A774D120 ====

Jesus Lopez-Cobos, Munchener Opernorchester, Diana Damrau - Donizetti: Lucia di Lammermoor (2014)

Thanks to the original releaser