Subcategories

Jethro Tull - ''M.U.'' - The Best Of Jethro Tull (1976)

Posted By: v3122
Jethro Tull - ''M.U.'' - The Best Of Jethro Tull (1976)

Jethro Tull - ''M.U.'' - The Best Of Jethro Tull (1976)
EAC | Flac(Image) + Cue + Log & MP3 CBR 320Kbps
1985 | Chrysalis VK 4107 | Canada | ~ 243 or 105 Mb | Scans(jpg) -> 24 Mb
Progressive Rock

M.U. falls into the classic example of a compilation that is bound to irritate the dedicated yet will satisfy the needs of less devoted listeners. Since Jethro Tull is a prog rock band that made cohesive concept albums, there will always be an audience that will believe it is impossible to assemble a coherent anthology, but the fact of the matter is, the group had a lot of songs that were staples on album rock radio and M.U. simply compiles those tracks for listeners who don't want to invest in a series of concept records. Besides, the resulting compilation is an entertaining listen, thanks to such genre classics as "Aqualung," "Thick as a Brick," "Bungle in the Jungle," "Locomotive Breath," "Living in the Past," and "A Passion Play." These are the songs that define Tull for both hardcore and casual fans, and that's the reason why M.U. remains a popular and useful compilation, even if it isn't definitive.

by Stephen Thomas Erlewine, allmusic
Jethro Tull - ''M.U.'' - The Best Of Jethro Tull (1976)


Jethro Tull - ''M.U.'' - The Best Of Jethro Tull (1976):

Jethro Tull - ''M.U.'' - The Best Of Jethro Tull (1976)

Tracklist:

01. Teacher 3:53
02. Aqualung 6:38
03. Thick As A Brick 3:00
04. Bungle In The Jungle 3:40
05. Locomotive Breath 4:37
06. Fat Man 2:53
07. Living In The Past 3:25
08. A Passion Play Edit #8 3:30
09. Skating Away (On The Thin Ice Of A New Day) 4:00
10. Rainbow Blues 3:39
11. Nothing Is Easy 4:24

Exact Audio Copy V1.3 from 2. September 2016

EAC extraction logfile from 17. August 2017, 20:54

Jethro Tull / "M.U." - The Best Of Jethro Tull (VK 41078)

Used drive : PLEXTOR DVDR PX-891SA Adapter: 1 ID: 0

Read mode : Secure
Utilize accurate stream : Yes
Defeat audio cache : Yes
Make use of C2 pointers : No

Read offset correction : 6
Overread into Lead-In and Lead-Out : No
Fill up missing offset samples with silence : Yes
Delete leading and trailing silent blocks : No
Null samples used in CRC calculations : Yes
Used interface : Native Win32 interface for Win NT & 2000

Used output format : User Defined Encoder
Selected bitrate : 128 kBit/s
Quality : High
Add ID3 tag : No
Command line compressor : C:\Program Files (x86)\Exact Audio Copy\Flac\flac.exe
Additional command line options : -V -8 -T "Genre=%genre%" -T "Artist=%artist%" -T "Title=%title%" -T "Album=%albumtitle%" -T "Date=%year%" -T "Tracknumber=%tracknr%" -T "Comment=%comment%" %source%


TOC of the extracted CD

Track | Start | Length | Start sector | End sector
––––––––––––––––––––––––––––-
1 | 0:00.00 | 3:53.10 | 0 | 17484
2 | 3:53.10 | 6:37.65 | 17485 | 47324
3 | 10:31.00 | 3:00.37 | 47325 | 60861
4 | 13:31.37 | 3:39.65 | 60862 | 77351
5 | 17:11.27 | 4:37.23 | 77352 | 98149
6 | 21:48.50 | 2:52.70 | 98150 | 111119
7 | 24:41.45 | 3:25.15 | 111120 | 126509
8 | 28:06.60 | 3:29.57 | 126510 | 142241
9 | 31:36.42 | 4:00.28 | 142242 | 160269
10 | 35:36.70 | 3:39.05 | 160270 | 176699
11 | 39:16.00 | 4:23.62 | 176700 | 196486


Range status and errors

Selected range

Filename H:\dafnaplus\M.U. - The Best Of Jethro Tull\Jethro Tull - ''M.U.'' - The Best Of Jethro Tull (VK 41078).wav

Peak level 96.0 %
Extraction speed 4.8 X
Range quality 99.9 %
Test CRC 648AA27E
Copy CRC 648AA27E
Copy OK

No errors occurred


AccurateRip summary

Track 1 accurately ripped (confidence 2) [A4227221] (AR v2)
Track 2 accurately ripped (confidence 2) [7908B707] (AR v2)
Track 3 accurately ripped (confidence 2) [B64D26EE] (AR v2)
Track 4 accurately ripped (confidence 2) [6EE4A5BC] (AR v2)
Track 5 accurately ripped (confidence 2) [2FC97701] (AR v2)
Track 6 accurately ripped (confidence 2) [FE99DF2E] (AR v2)
Track 7 accurately ripped (confidence 2) [298B362D] (AR v2)
Track 8 accurately ripped (confidence 2) [F89348DF] (AR v2)
Track 9 accurately ripped (confidence 2) [2F43723C] (AR v2)
Track 10 accurately ripped (confidence 2) [F97A68C2] (AR v2)
Track 11 accurately ripped (confidence 2) [1429D81D] (AR v2)

All tracks accurately ripped

End of status report

–– CUETools DB Plugin V2.1.6

[CTDB TOCID: cvNCYxCn3XhNJQZ2IUsCOVxQ7_A-] found
Submit result: cvNCYxCn3XhNJQZ2IUsCOVxQ7_A- has been confirmed
Track | CTDB Status
1 | (16/16) Accurately ripped
2 | (16/16) Accurately ripped
3 | (16/16) Accurately ripped
4 | (16/16) Accurately ripped
5 | (16/16) Accurately ripped
6 | (16/16) Accurately ripped
7 | (16/16) Accurately ripped
8 | (16/16) Accurately ripped
9 | (16/16) Accurately ripped
10 | (16/16) Accurately ripped
11 | (16/16) Accurately ripped


==== Log checksum 002CC2C2EC2D5783EC440CEDA5F54A7602C8CF016213EE0A563907CA37F48B1C ====


[CUETools log; Date: 21.10.2017 18:02:07; Version: 2.1.5]
[AccurateRip ID: 00128827-009e3d5c-910a3b0b] found.
Track [ CRC | V2 ] Status
01 [e85cdb2c|a4227221] (02+03/17) Accurately ripped
02 [0c814f61|7908b707] (02+03/16) Accurately ripped
03 [8c262d4d|b64d26ee] (02+03/17) Accurately ripped
04 [ce83965d|6ee4a5bc] (02+02/16) Accurately ripped
05 [af865698|2fc97701] (02+03/17) Accurately ripped
06 [5e5a1b7d|fe99df2e] (02+02/16) Accurately ripped
07 [75e1766d|298b362d] (03+02/17) Accurately ripped
08 [09ba3a95|f89348df] (02+02/16) Accurately ripped
09 [12d5c07e|2f43723c] (02+02/16) Accurately ripped
10 [88b49c5a|f97a68c2] (02+02/16) Accurately ripped
11 [257279ee|1429d81d] (02+02/16) Accurately ripped
Offsetted by -41:
01 [2b6e8e52] (03/17) Accurately ripped
02 [6f63fc98] (02/16) Accurately ripped
03 [cee3001a] (03/17) Accurately ripped
04 [63028c79] (03/16) Accurately ripped
05 [f90a0087] (03/17) Accurately ripped
06 [72e5ee27] (03/16) Accurately ripped
07 [d9d25538] (03/17) Accurately ripped
08 [39abe56a] (03/16) Accurately ripped
09 [fccbecad] (03/16) Accurately ripped
10 [ce9f14ff] (03/16) Accurately ripped
11 [5e22fcfc] (03/16) Accurately ripped
Offsetted by 234:
01 [5ef3014e] (02/17) Accurately ripped
02 [9037f700] (02/16) Accurately ripped
03 [00494a06] (02/17) Accurately ripped
04 [52253e80] (02/16) Accurately ripped
05 [a0b8a6f3] (02/17) Accurately ripped
06 [e176c6f4] (02/16) Accurately ripped
07 [7c9c13af] (02/17) Accurately ripped
08 [5595f832] (02/16) Accurately ripped
09 [5dc5b3bf] (02/16) Accurately ripped
10 [6b5e2a51] (02/16) Accurately ripped
11 [3895b58c] (02/16) Accurately ripped
Offsetted by 238:
01 [d2d714a6] (02/17) Accurately ripped
02 [a0b4c6bc] (02/16) Accurately ripped
03 [3a59862a] (02/17) Accurately ripped
04 [30b6a7e4] (02/16) Accurately ripped
05 [3bd78f0a] (02/17) Accurately ripped
06 [e2a34500] (02/16) Accurately ripped
07 [bc95a844] (02/17) Accurately ripped
08 [7ab2573e] (02/16) Accurately ripped
09 [c997a63e] (02/16) Accurately ripped
10 [bb18f1ed] (02/16) Accurately ripped
11 [46e5425d] (02/16) Accurately ripped

Track Peak [ CRC32 ] [W/O NULL] [ LOG ]
– 96,0 [648AA27E] [12EB9635] CRC32
01 72,0 [EA24BD1B] [B77D53E8]
02 70,1 [09357CEF] [92E6EF81]
03 64,9 [571F102F] [2ECC06E1]
04 79,1 [89E2B879] [8DC97116]
05 90,7 [30EB67F1] [273342E0]
06 96,0 [42FD5D66] [5D37F50E]
07 71,4 [A5FD2095] [992D9F70]
08 83,6 [73E212B9] [88C046B9]
09 80,0 [7139F576] [F6483777]
10 85,5 [5AFCA6F5] [A0800253]
11 63,1 [E2E77936] [A86B41DF]


Jethro Tull - ''M.U.'' - The Best Of Jethro Tull (1976)

All thanks go to dafnaplus

Jethro Tull or Jethro Tull in my Blog

Download Jethro Tull - ''M.U.'' - The Best Of Jethro Tull (1976):