Subcategories
Tags
Language
Tags

Jimmy Buffett - Living And Dying In 3/4 Time (1974) [Re-Up]

Posted By: Designol
Jimmy Buffett - Living And Dying In 3/4 Time (1974) [Re-Up]

Jimmy Buffett - Living And Dying In 3/4 Time (1974)
EAC | FLAC | Image (Cue&Log) ~ 211 Mb | Mp3 (CBR320) ~ 96 Mb | Scans included
Country Rock, Pop/Rock | Label: MCA | # MCAD-31059 | Time: 00:39:10

Living & Dying in ¾ Time is the fourth album by American popular music singer-songwriter Jimmy Buffett and the second major label album in Buffett's Don Gant-produced "Key West phase." It was initially released in February 1974 as Dunhill DS-50132 and later rereleased on Dunhill's successor labels ABC and MCA. It contains the song "Come Monday," his first Top 40 hit single.

With his second album, 1973's A White Sport Coat and a Pink Crustacean, Jimmy Buffett broke into the country LPs chart, courtesy of a minor hit single, "The Great Filing Station Holdup." That would seem to mark him as a promising up-and-coming country artist, with his third album, Living and Dying in ¾ Time, the next step. But Buffett exhibits an ambivalent attitude toward his career and the music business in general in the LP's songs, most of which he wrote. In fact, the best of them is "Come Monday," a melancholy ballad about being on the road and missing a loved one. "I spent four lonely days/In a brown L.A. haze/And I just want you back by my side," he sings plaintively. That theme has been explored so much by songwriters that it's hard to find a new way to go at it, and Buffett's success is indicative of his writing talent. He devotes that talent largely to talking about how much he dislikes Nashville, notably in such songs as "Brand New Country Star" (co-written by Vernon Arnold) and "Saxophones." In the former, he castigates a product of Nashville equally capable of going country or pop (which is odd, since he himself is hardly a traditional country musician), while in the latter he complains that he can't get radio play in his hometown of Mobile, AL. It may be that Buffett is determined to make it only on his own terms, and that those terms are more those of Texas singer/songwriters like Jerry Jeff Walker and Willis Alan Ramsey (whose "Ballad of Spider John" he covers here), or Gulf Coast blues artists like those he praises in "Saxophones," than of conventional country musicians. That's fair enough, but it makes it hard to complain that you're facing resistance.

Review by William Ruhlmann, Allmusic.com

Jimmy Buffett - Living And Dying In 3/4 Time (1974) [Re-Up]



Tracklist:

01. Pencil Thin Mustache (2:54)
02. Come Monday (3:12)
03. Ringling, Ringling (2:36)
04. Brahma Fear (4:11)
05. Brand New Country Star (2:46)
06. Livingston's Gone To Texas (3:31)
07. The Wino And I Know (3:05)
08. West Nashville Grand Ballroom Gown (2:40)
09. Saxophones (3:22)
10. Ballard Of Spider John (4:31)
11. God's Own Drunk (6:22)


Exact Audio Copy V0.99 prebeta 4 from 23. January 2008

Отчёт EAC об извлечении, выполненном 21. марта 2011, 19:58

Jimmy Buffett / Living And Dying In 3/4 Time

Дисковод: HL-DT-STDVDRAM GH20LS10 Adapter: 1 ID: 1

Режим чтения : Достоверность
Использование точного потока : Да
Отключение кэша аудио : Да
Использование указателей C2 : Нет

Коррекция смещения при чтении : 667
Способность читать области Lead-in и Lead-out : Нет
Заполнение пропущенных сэмплов тишиной : Да
Удаление блоков с тишиной в начале и конце : Нет
При вычислениях CRC использовались нулевые сэмплы : Да
Интерфейс : Встроенный Win32-интерфейс для Win NT/2000

Выходной формат : Внутренние WAV-операции
Формат сэмплов : 44.100 Гц; 16 бит; стерео


TOC извлечённого CD

Трек | Старт | Длительность | Начальный сектор | Конечный сектор
––––––––––––––––––––––––––––––––––-
1 | 0:00.00 | 2:53.42 | 0 | 13016
2 | 2:53.42 | 3:11.55 | 13017 | 27396
3 | 6:05.22 | 2:36.00 | 27397 | 39096
4 | 8:41.22 | 4:10.73 | 39097 | 57919
5 | 12:52.20 | 2:46.17 | 57920 | 70386
6 | 15:38.37 | 3:31.13 | 70387 | 86224
7 | 19:09.50 | 3:05.10 | 86225 | 100109
8 | 22:14.60 | 2:40.20 | 100110 | 112129
9 | 24:55.05 | 3:22.22 | 112130 | 127301
10 | 28:17.27 | 4:31.08 | 127302 | 147634
11 | 32:48.35 | 6:21.72 | 147635 | 176281


Характеристики диапазона извлечения и сообщения об ошибках

Выбранный диапазон

Имя файла D:\Lossless\Jimmy Buffett - Living and Dying in3\Jimmy Buffett - Living And Dying In 3 4 Time.wav

Пиковый уровень 98.8 %
Качество диапазона 100.0 %
CRC копии E5E05C7E
Копирование… OK

Ошибок не произошло


AccurateRip: сводка

Трек 1 точное извлечение (доверие 10) [BAE34CFB]
Трек 2 точное извлечение (доверие 11) [7FB6EA49]
Трек 3 точное извлечение (доверие 10) [9CCCAFE0]
Трек 4 точное извлечение (доверие 11) [60C6AF70]
Трек 5 точное извлечение (доверие 10) [605E3C4E]
Трек 6 точное извлечение (доверие 10) [5AFABA25]
Трек 7 точное извлечение (доверие 11) [5E8F8922]
Трек 8 точное извлечение (доверие 10) [5C70E455]
Трек 9 точное извлечение (доверие 10) [7E008644]
Трек 10 точное извлечение (доверие 10) [E94BD541]
Трек 11 точное извлечение (доверие 10) [0C3BCB56]

Все треки извлечены точно

Конец отчёта

[CUETools log; Date: 06.04.2017 16:50:30; Version: 2.1.4]
[CTDB TOCID: I8f6vSo6v7mewh95fvY2SwsbFl4-] found.
Track | CTDB Status
1 | (29/29) Accurately ripped
2 | (29/29) Accurately ripped
3 | (29/29) Accurately ripped
4 | (29/29) Accurately ripped
5 | (29/29) Accurately ripped
6 | (29/29) Accurately ripped
7 | (28/29) Accurately ripped
8 | (29/29) Accurately ripped
9 | (29/29) Accurately ripped
10 | (29/29) Accurately ripped
11 | (28/29) Accurately ripped
[AccurateRip ID: 000e9c3e-00803676-9c092e0b] found.
Track [ CRC | V2 ] Status
01 [bae34cfb|bb1b97d6] (13+09/47) Accurately ripped
02 [7fb6ea49|71e55e19] (14+09/48) Accurately ripped
03 [9cccafe0|2ab2bfb9] (13+09/48) Accurately ripped
04 [60c6af70|9c7ba48d] (14+09/48) Accurately ripped
05 [605e3c4e|97044c0e] (13+09/48) Accurately ripped
06 [5afaba25|bda1244d] (13+09/48) Accurately ripped
07 [5e8f8922|b8fc7cad] (14+09/49) Accurately ripped
08 [5c70e455|0027dfb8] (13+09/48) Accurately ripped
09 [7e008644|a000ef26] (13+09/48) Accurately ripped
10 [e94bd541|a935f897] (13+09/48) Accurately ripped
11 [0c3bcb56|f28c86a7] (13+09/47) Accurately ripped
Offsetted by 10:
01 [48b3d3f3] (15/47) Accurately ripped
02 [9e5a6838] (16/48) Accurately ripped
03 [2e3534c8] (16/48) Accurately ripped
04 [d458f389] (15/48) Accurately ripped
05 [b8c30f45] (16/48) Accurately ripped
06 [6b4348e1] (16/48) Accurately ripped
07 [c6b70535] (16/49) Accurately ripped
08 [bfca336c] (16/48) Accurately ripped
09 [95b0777d] (16/48) Accurately ripped
10 [64ee0db1] (16/48) Accurately ripped
11 [d1490a54] (15/47) Accurately ripped

Track Peak [ CRC32 ] [W/O NULL] [ LOG ]
– 98,8 [E5E05C7E] [CC9760CE] CRC32
01 85,8 [FE1DB9CF] [30784041]
02 80,3 [913871FC] [3FC5DA01]
03 78,8 [DB99C193] [35F2A368]
04 93,3 [62B3AFBD] [48CD93FC]
05 81,7 [A8490E08] [29032DEF]
06 79,8 [83AEA588] [7BA6C9A2]
07 84,1 [02599E4E] [6E29B918]
08 85,5 [6D1A45B9] [F15557E2]
09 79,1 [3FFDD433] [F190C088]
10 98,8 [257B658E] [1C0D2AC7]
11 87,9 [187C012D] [699C06E6]

foobar2000 1.2 / Dynamic Range Meter 1.1.1
log date: 2017-04-06 17:43:50

––––––––––––––––––––––––––––––––––––––––
Analyzed: Jimmy Buffett / Living And Dying In 3/4 Time
––––––––––––––––––––––––––––––––––––––––

DR Peak RMS Duration Track
––––––––––––––––––––––––––––––––––––––––
DR14 -1.33 dB -18.59 dB 2:54 01-Pencil Thin Mustache
DR12 -1.90 dB -16.72 dB 3:12 02-Come Monday
DR12 -2.07 dB -16.17 dB 2:36 03-Ringling, Ringling
DR13 -0.60 dB -17.28 dB 4:11 04-Brahma Fear
DR13 -1.75 dB -18.05 dB 2:46 05-Brand New Country Star
DR13 -1.96 dB -18.27 dB 3:31 06-Livingston's Gone To Texas
DR13 -1.50 dB -17.37 dB 3:05 07-The Wino And I Know
DR14 -1.35 dB -19.36 dB 2:40 08-West Nashville Grand Ballroom Gown
DR13 -2.03 dB -16.74 dB 3:22 09-Saxophones
DR15 -0.10 dB -19.73 dB 4:31 10-Ballard Of Spider John
DR16 -1.11 dB -20.33 dB 6:22 11-God's Own Drunk
––––––––––––––––––––––––––––––––––––––––

Number of tracks: 11
Official DR value: DR13

Samplerate: 44100 Hz
Channels: 2
Bits per sample: 16
================================================================================

Jimmy Buffett - Living And Dying In 3/4 Time (1974) [Re-Up]

Jimmy Buffett - Living And Dying In 3/4 Time (1974) [Re-Up]

All thanks to original releaser - SerBlues

More interesting music in My Blog