Tags
Language
Tags

Jimmy Smith - A New Sound... A New Star... (1956) [Reissue 1997]

Posted By: gribovar
Jimmy Smith - A New Sound... A New Star... (1956) [Reissue 1997]

Jimmy Smith - A New Sound… A New Star… (1956) [Reissue 1997]
EAC Rip | FLAC (tracks+.cue+log) - 642 MB | MP3 CBR 320 kbps (LAME 3.93) - 340 MB | Covers - 26 MB
Genre: Soul Jazz, Bop | RAR 3% Rec. | Label: Blue Note (7243 8 57191 2 7)

A New Sound… A New Star… (subtitled Jimmy Smith at the Organ Vol. 1) is the debut album by Jimmy Smith featuring performances recorded in 1956 and released on the Blue Note label. The album was rereleased on CD combined with Smith's following two LP's A New Sound A New Star: Jimmy Smith at the Organ Volume 2 and The Incredible Jimmy Smith at the Organ.
With less of an emphasis of low-key blues numbers than subsequent albums, the work here is informed by the energy and harmonic sophistication of bebop, and Smith is incandescent throughout.
Innovative, frantically paced attacks on standards like "The Way You Look Tonight" and "But Not For Me" are interspersed with sensitively painted mood pieces like "Tenderly" and "Willow Weep For Me", and treatments of compositions by other jazz greats (Monk, Lionel Hampton and Dizzy Gillespie). Thereare also a fair number of Smith originals, including the Latin-tinged starts and stops of "Judo Mambo", and "Fiddlin' The Minors", a mini-epic of blinding riffs.
CD 1 Tracklist:

A New Sound… A New Star… (Jimmy Smith at the Organ Vol. 1):
01. The Way You Look Tonight
02. You Get 'Cha
03. Midnight Sun
04. Lady Be Good
05. The High And The Mighty
06. But Not For Me
07. The Preacher
08. Tenderly
09. Joy

A New Sound… A New Star… (Jimmy Smith at the Organ Vol. 2):
10. The Champ
11. Bayou
12. Deep Purple
13. Moonlight In Vermont
14. Ready 'N Able

Total time: 01:12:06

CD 2 Tracklist:

A New Sound… A New Star… (Jimmy Smith at the Organ Vol. 2):
01. Turquoise
02. Bubbis


03. Gone With The Wind (Previously unissued)
04. Jamey (Previously unissued)
05. My Funny Valentine (Previously unissued)
06. Slightly Monkish (Previously unissued)
07. I Can't Give You Anything But Love

The Incredible Jimmy Smith (Jimmy Smith at the Organ Vol. 3):
08. Judo Mambo
09. Willow Weep for Me
10. Lover Come Back to Me
11. Well You Needn't
12. Fiddlin the Minors
13. Autumn Leaves
14. I Cover The Waterfront

Total time: 01:12:09

Exact Audio Copy V0.99 prebeta 4 from 23. January 2008

EAC extraction logfile from 2. October 2009, 1:12

Jimmy Smith / A New Sound … A New Star (Disk 1)

Used drive : HL-DT-STDVD-RAM GH22NP20 Adapter: 0 ID: 1

Read mode : Secure
Utilize accurate stream : Yes
Defeat audio cache : Yes
Make use of C2 pointers : No

Read offset correction : 102
Overread into Lead-In and Lead-Out : No
Fill up missing offset samples with silence : Yes
Delete leading and trailing silent blocks : No
Null samples used in CRC calculations : Yes
Used interface : Native Win32 interface for Win NT & 2000
Gap handling : Appended to previous track

Used output format : User Defined Encoder
Selected bitrate : 128 kBit/s
Quality : High
Add ID3 tag : No
Command line compressor : C:\Program Files\FLAC\flac.exe
Additional command line options : -8 -V -T "ARTIST=%a" -T "TITLE=%t" -T "ALBUM=%g" -T "DATE=%y" -T "TRACKNUMBER=%n" -T "GENRE=%m" -T "COMMENT=EAC FLAC -8" %s


TOC of the extracted CD

Track | Start | Length | Start sector | End sector
––––––––––––––––––––––––––––-
1 | 0:00.00 | 5:03.30 | 0 | 22754
2 | 5:03.30 | 4:24.27 | 22755 | 42581
3 | 9:27.57 | 4:25.73 | 42582 | 62529
4 | 13:53.55 | 5:47.12 | 62530 | 88566
5 | 19:40.67 | 4:21.50 | 88567 | 108191
6 | 24:02.42 | 4:29.70 | 108192 | 128436
7 | 28:32.37 | 4:34.68 | 128437 | 149054
8 | 33:07.30 | 3:55.62 | 149055 | 166741
9 | 37:03.17 | 3:16.38 | 166742 | 181479
10 | 40:19.55 | 8:36.17 | 181480 | 220196
11 | 48:55.72 | 4:52.68 | 220197 | 242164
12 | 53:48.65 | 7:15.02 | 242165 | 274791
13 | 61:03.67 | 4:33.25 | 274792 | 295291
14 | 65:37.17 | 6:29.08 | 295292 | 324474


Track 1

Filename D:\tests\Jimmy Smith - At The Organ vols 1-3\cd1\01 - The Way You Look Tonight.wav

Pre-gap length 0:00:02.00

Peak level 96.7 %
Track quality 100.0 %
Test CRC F31A21EC
Copy CRC F31A21EC
Cannot be verified as accurate (confidence 2) [8E1D1468], AccurateRip returned [EFD6C0EB]
Copy OK

Track 2

Filename D:\tests\Jimmy Smith - At The Organ vols 1-3\cd1\02 - You Get 'Cha.wav

Pre-gap length 0:00:02.64

Peak level 93.3 %
Track quality 100.0 %
Test CRC 687BD8E1
Copy CRC 687BD8E1
Cannot be verified as accurate (confidence 2) [3C0E817B], AccurateRip returned [B52B4138]
Copy OK

Track 3

Filename D:\tests\Jimmy Smith - At The Organ vols 1-3\cd1\03 - Midnight Sun.wav

Pre-gap length 0:00:03.49

Peak level 89.7 %
Track quality 99.9 %
Test CRC 9A52D67D
Copy CRC 9A52D67D
Cannot be verified as accurate (confidence 2) [5E26AA93], AccurateRip returned [4A7FCFE5]
Copy OK

Track 4

Filename D:\tests\Jimmy Smith - At The Organ vols 1-3\cd1\04 - Lady Be Good.wav

Pre-gap length 0:00:02.53

Peak level 96.7 %
Track quality 100.0 %
Test CRC 05208216
Copy CRC 05208216
Cannot be verified as accurate (confidence 2) [3CE637D9], AccurateRip returned [C4D86C12]
Copy OK

Track 5

Filename D:\tests\Jimmy Smith - At The Organ vols 1-3\cd1\05 - The High And The Mighty.wav

Pre-gap length 0:00:02.69

Peak level 95.5 %
Track quality 99.9 %
Test CRC 5F81DB14
Copy CRC 5F81DB14
Cannot be verified as accurate (confidence 2) [8893F42C], AccurateRip returned [4C2DFFD0]
Copy OK

Track 6

Filename D:\tests\Jimmy Smith - At The Organ vols 1-3\cd1\06 - But Not For Me.wav

Pre-gap length 0:00:02.56

Peak level 92.4 %
Track quality 100.0 %
Test CRC 0FD16EA4
Copy CRC 0FD16EA4
Cannot be verified as accurate (confidence 2) [D167123D], AccurateRip returned [AD3C1F88]
Copy OK

Track 7

Filename D:\tests\Jimmy Smith - At The Organ vols 1-3\cd1\07 - The Preacher.wav

Pre-gap length 0:00:01.96

Peak level 94.0 %
Track quality 100.0 %
Test CRC 278BD907
Copy CRC 278BD907
Cannot be verified as accurate (confidence 2) [C713FA93], AccurateRip returned [9DC979FB]
Copy OK

Track 8

Filename D:\tests\Jimmy Smith - At The Organ vols 1-3\cd1\08 - Tenderly.wav

Pre-gap length 0:00:02.57

Peak level 96.7 %
Track quality 100.0 %
Test CRC 73ED080C
Copy CRC 73ED080C
Cannot be verified as accurate (confidence 2) [99433E00], AccurateRip returned [9BC6BCCB]
Copy OK

Track 9

Filename D:\tests\Jimmy Smith - At The Organ vols 1-3\cd1\09 - Joy.wav

Pre-gap length 0:00:02.16

Peak level 89.4 %
Track quality 100.0 %
Test CRC 72010A20
Copy CRC 72010A20
Cannot be verified as accurate (confidence 2) [77CC736F], AccurateRip returned [D7917E94]
Copy OK

Track 10

Filename D:\tests\Jimmy Smith - At The Organ vols 1-3\cd1\10 - The Champ.wav

Pre-gap length 0:00:02.73

Peak level 96.1 %
Track quality 100.0 %
Test CRC 4FF99824
Copy CRC 4FF99824
Cannot be verified as accurate (confidence 2) [3CE19D76], AccurateRip returned [3DD18221]
Copy OK

Track 11

Filename D:\tests\Jimmy Smith - At The Organ vols 1-3\cd1\11 - Bayou.wav

Pre-gap length 0:00:02.62

Peak level 93.1 %
Track quality 100.0 %
Test CRC 33DA3C2E
Copy CRC 33DA3C2E
Cannot be verified as accurate (confidence 2) [4B1782A7], AccurateRip returned [F11506BA]
Copy OK

Track 12

Filename D:\tests\Jimmy Smith - At The Organ vols 1-3\cd1\12 - Deep Purple.wav

Pre-gap length 0:00:02.20

Peak level 96.9 %
Track quality 100.0 %
Test CRC 455B60A8
Copy CRC 455B60A8
Cannot be verified as accurate (confidence 2) [708C32FA], AccurateRip returned [8CA96C88]
Copy OK

Track 13

Filename D:\tests\Jimmy Smith - At The Organ vols 1-3\cd1\13 - Moonlight In Vermont.wav

Pre-gap length 0:00:02.42

Peak level 93.5 %
Track quality 100.0 %
Test CRC 28147B4D
Copy CRC 28147B4D
Cannot be verified as accurate (confidence 2) [962A7DC6], AccurateRip returned [31EBC872]
Copy OK

Track 14

Filename D:\tests\Jimmy Smith - At The Organ vols 1-3\cd1\14 - Ready 'N Able.wav

Pre-gap length 0:00:02.80

Peak level 94.0 %
Track quality 100.0 %
Test CRC A81F4692
Copy CRC A81F4692
Cannot be verified as accurate (confidence 2) [7A30A637], AccurateRip returned [3971CE49]
Copy OK


No tracks could be verified as accurate
You may have a different pressing from the one(s) in the database

No errors occurred

End of status report

[CUETools log; Date: 10.07.2020 12:34:41; Version: 2.1.4]
[CTDB TOCID: zZsjRr_ZX1fH48G8mKFwZxhzyOo-] found.
Track | CTDB Status
1 | (30/30) Accurately ripped
2 | (30/30) Accurately ripped
3 | (30/30) Accurately ripped
4 | (29/30) Accurately ripped
5 | (29/30) Accurately ripped
6 | (29/30) Accurately ripped
7 | (29/30) Accurately ripped
8 | (29/30) Accurately ripped
9 | (29/30) Accurately ripped
10 | (29/30) Accurately ripped
11 | (29/30) Accurately ripped
12 | (29/30) Accurately ripped
13 | (29/30) Accurately ripped
14 | (29/30) Accurately ripped
[AccurateRip ID: 002334bd-017ac8bd-cc10e60e] found.
Track [ CRC | V2 ] Status
01 [8e1d1468|729e1621] (00+08/20) Accurately ripped
02 [3c0e817b|18f650d3] (00+08/20) Accurately ripped
03 [5e26aa93|184034ae] (00+08/20) Accurately ripped
04 [3ce637d9|6bf3f2b3] (00+08/20) Accurately ripped
05 [8893f42c|070440f8] (00+08/20) Accurately ripped
06 [d167123d|b9d0aec5] (00+08/20) Accurately ripped
07 [c713fa93|96cae0c4] (00+08/20) Accurately ripped
08 [99433e00|31c209fd] (00+08/20) Accurately ripped
09 [77cc736f|da25dd3d] (00+08/20) Accurately ripped
10 [3ce19d76|99d1e1d7] (00+08/20) Accurately ripped
11 [4b1782a7|5ff85bfc] (00+08/20) Accurately ripped
12 [708c32fa|89474f32] (00+08/20) Accurately ripped
13 [962a7dc6|f26e31b3] (00+08/20) Accurately ripped
14 [7a30a637|411859c0] (00+08/20) Accurately ripped
Offsetted by -603:
01 [efd6c0eb] (04/20) Accurately ripped
02 [b52b4138] (04/20) Accurately ripped
03 [4a7fcfe5] (04/20) Accurately ripped
04 [c4d86c12] (04/20) Accurately ripped
05 [4c2dffd0] (04/20) Accurately ripped
06 [ad3c1f88] (04/20) Accurately ripped
07 [9dc979fb] (04/20) Accurately ripped
08 [9bc6bccb] (04/20) Accurately ripped
09 [d7917e94] (04/20) Accurately ripped
10 [3dd18221] (04/20) Accurately ripped
11 [f11506ba] (04/20) Accurately ripped
12 [8ca96c88] (04/20) Accurately ripped
13 [31ebc872] (04/20) Accurately ripped
14 [3971ce49] (04/20) Accurately ripped

Track Peak [ CRC32 ] [W/O NULL] [ LOG ]
– 96,9 [E875312B] [D092DB45]
01 96,7 [F31A21EC] [E6C1B4B7] CRC32
02 93,3 [687BD8E1] [74947962] CRC32
03 89,7 [9A52D67D] [EB1A8F1E] CRC32
04 96,7 [05208216] [3D32282F] CRC32
05 95,5 [5F81DB14] [F7BA1E23] CRC32
06 92,4 [0FD16EA4] [C9886C43] CRC32
07 94,0 [278BD907] [1E2671AC] CRC32
08 96,7 [73ED080C] [3504CE0A] CRC32
09 89,4 [72010A20] [A3E247D9] CRC32
10 96,1 [4FF99824] [6A88B4A2] CRC32
11 93,1 [33DA3C2E] [31702627] CRC32
12 96,9 [455B60A8] [0A51FB07] CRC32
13 93,5 [28147B4D] [1C98C8A5] CRC32
14 94,0 [A81F4692] [AE69D68B] CRC32

Exact Audio Copy V0.99 prebeta 4 from 23. January 2008

EAC extraction logfile from 2. October 2009, 7:53

Jimmy Smith / A New Sound … A New Star (Disk 2)

Used drive : HL-DT-STDVD-RAM GH22NP20 Adapter: 0 ID: 1

Read mode : Secure
Utilize accurate stream : Yes
Defeat audio cache : Yes
Make use of C2 pointers : No

Read offset correction : 102
Overread into Lead-In and Lead-Out : No
Fill up missing offset samples with silence : Yes
Delete leading and trailing silent blocks : No
Null samples used in CRC calculations : Yes
Used interface : Native Win32 interface for Win NT & 2000
Gap handling : Appended to previous track

Used output format : User Defined Encoder
Selected bitrate : 128 kBit/s
Quality : High
Add ID3 tag : No
Command line compressor : C:\Program Files\FLAC\flac.exe
Additional command line options : -8 -V -T "ARTIST=%a" -T "TITLE=%t" -T "ALBUM=%g" -T "DATE=%y" -T "TRACKNUMBER=%n" -T "GENRE=%m" -T "COMMENT=EAC FLAC -8" %s


TOC of the extracted CD

Track | Start | Length | Start sector | End sector
––––––––––––––––––––––––––––-
1 | 0:00.00 | 4:12.70 | 0 | 18969
2 | 4:12.70 | 4:32.47 | 18970 | 39416
3 | 8:45.42 | 2:56.63 | 39417 | 52679
4 | 11:42.30 | 6:00.40 | 52680 | 79719
5 | 17:42.70 | 6:20.37 | 79720 | 108256
6 | 24:03.32 | 5:28.10 | 108257 | 132866
7 | 29:31.42 | 4:47.68 | 132867 | 154459
8 | 34:19.35 | 5:32.17 | 154460 | 179376
9 | 39:51.52 | 5:42.45 | 179377 | 205071
10 | 45:34.22 | 6:41.73 | 205072 | 235219
11 | 52:16.20 | 6:21.20 | 235220 | 263814
12 | 58:37.40 | 5:09.55 | 263815 | 287044
13 | 63:47.20 | 4:44.30 | 287045 | 308374
14 | 68:31.50 | 3:37.50 | 308375 | 324699


Track 1

Filename D:\tests\Jimmy Smith - At The Organ vols 1-3\cd2\01 - Turquoise.wav

Pre-gap length 0:00:02.00

Peak level 94.1 %
Track quality 100.0 %
Test CRC EEA3707E
Copy CRC EEA3707E
Cannot be verified as accurate (confidence 2) [E3D17AF7], AccurateRip returned [EBF60477]
Copy OK

Track 2

Filename D:\tests\Jimmy Smith - At The Organ vols 1-3\cd2\02 - Bubbis.wav

Pre-gap length 0:00:02.13

Peak level 96.7 %
Track quality 99.9 %
Test CRC 752B5A96
Copy CRC 752B5A96
Cannot be verified as accurate (confidence 2) [D5EC99B2], AccurateRip returned [D8354D72]
Copy OK

Track 3

Filename D:\tests\Jimmy Smith - At The Organ vols 1-3\cd2\03 - Gone With The Wind.wav

Pre-gap length 0:00:02.49

Peak level 96.7 %
Track quality 100.0 %
Test CRC 5B1CE4EE
Copy CRC 5B1CE4EE
Cannot be verified as accurate (confidence 2) [05F1D132], AccurateRip returned [DCE92032]
Copy OK

Track 4

Filename D:\tests\Jimmy Smith - At The Organ vols 1-3\cd2\04 - Jamey.wav

Pre-gap length 0:00:02.13

Peak level 93.7 %
Track quality 100.0 %
Test CRC 9CD531B1
Copy CRC 9CD531B1
Cannot be verified as accurate (confidence 2) [C4A84AF7], AccurateRip returned [4BE264F7]
Copy OK

Track 5

Filename D:\tests\Jimmy Smith - At The Organ vols 1-3\cd2\05 - My Funny Valentine.wav

Pre-gap length 0:00:02.66

Peak level 96.7 %
Track quality 100.0 %
Test CRC 09B702B1
Copy CRC 09B702B1
Cannot be verified as accurate (confidence 2) [9CADD837], AccurateRip returned [187E9D57]
Copy OK

Track 6

Filename D:\tests\Jimmy Smith - At The Organ vols 1-3\cd2\06 - Slightly Monkish.wav

Pre-gap length 0:00:02.40

Peak level 91.7 %
Track quality 100.0 %
Test CRC FAF38D54
Copy CRC FAF38D54
Cannot be verified as accurate (confidence 2) [DD4C095C], AccurateRip returned [E5188F1C]
Copy OK

Track 7

Filename D:\tests\Jimmy Smith - At The Organ vols 1-3\cd2\07 - I Can't Give You Anything But Love.wav

Pre-gap length 0:00:03.09

Peak level 95.2 %
Track quality 99.9 %
Test CRC D2AF3F1E
Copy CRC D2AF3F1E
Cannot be verified as accurate (confidence 2) [80D0D253], AccurateRip returned [33A84813]
Copy OK

Track 8

Filename D:\tests\Jimmy Smith - At The Organ vols 1-3\cd2\08 - Judo Mambo.wav

Pre-gap length 0:00:02.50

Peak level 93.5 %
Track quality 100.0 %
Test CRC B8B64B4F
Copy CRC B8B64B4F
Cannot be verified as accurate (confidence 2) [3309DE9B], AccurateRip returned [F69AAFFB]
Copy OK

Track 9

Filename D:\tests\Jimmy Smith - At The Organ vols 1-3\cd2\09 - Willow Weep for Me.wav

Pre-gap length 0:00:02.46

Peak level 96.5 %
Track quality 100.0 %
Test CRC FB190186
Copy CRC FB190186
Cannot be verified as accurate (confidence 2) [EA64B4D6], AccurateRip returned [6A762536]
Copy OK

Track 10

Filename D:\tests\Jimmy Smith - At The Organ vols 1-3\cd2\10 - Lover Come Back to Me.wav

Pre-gap length 0:00:02.26

Peak level 94.2 %
Track quality 100.0 %
Test CRC 702A78A0
Copy CRC 702A78A0
Cannot be verified as accurate (confidence 2) [7AB1A1DE], AccurateRip returned [009060DE]
Copy OK

Track 11

Filename D:\tests\Jimmy Smith - At The Organ vols 1-3\cd2\11 - Well You Needn't.wav

Pre-gap length 0:00:02.13

Peak level 95.5 %
Track quality 100.0 %
Test CRC 3F895AB1
Copy CRC 3F895AB1
Cannot be verified as accurate (confidence 2) [F676A315], AccurateRip returned [2F117BB5]
Copy OK

Track 12

Filename D:\tests\Jimmy Smith - At The Organ vols 1-3\cd2\12 - Fiddlin the Minors.wav

Pre-gap length 0:00:01.46

Peak level 92.5 %
Track quality 100.0 %
Test CRC F0641474
Copy CRC F0641474
Cannot be verified as accurate (confidence 2) [F7BF33F6], AccurateRip returned [F97C77D6]
Copy OK

Track 13

Filename D:\tests\Jimmy Smith - At The Organ vols 1-3\cd2\13 - Autumn Leaves.wav

Pre-gap length 0:00:02.46

Peak level 91.8 %
Track quality 100.0 %
Test CRC CEDF8703
Copy CRC CEDF8703
Cannot be verified as accurate (confidence 2) [EB0EA7E3], AccurateRip returned [99603383]
Copy OK

Track 14

Filename D:\tests\Jimmy Smith - At The Organ vols 1-3\cd2\14 - I Cover The Waterfront.wav

Pre-gap length 0:00:03.20

Peak level 95.0 %
Track quality 100.0 %
Test CRC 09A6AB4A
Copy CRC 09A6AB4A
Cannot be verified as accurate (confidence 2) [1D2AB8C3], AccurateRip returned [A91CB7A3]
Copy OK


No tracks could be verified as accurate
You may have a different pressing from the one(s) in the database

No errors occurred

End of status report

[CUETools log; Date: 10.07.2020 12:35:12; Version: 2.1.4]
[CTDB TOCID: fYaNzgDHlRCFbRfdPJQqg0AxRCc-] found.
Track | CTDB Status
1 | (29/30) Accurately ripped
2 | (30/30) Accurately ripped
3 | (30/30) Accurately ripped
4 | (30/30) Accurately ripped
5 | (30/30) Accurately ripped
6 | (30/30) Accurately ripped
7 | (30/30) Accurately ripped
8 | (30/30) Accurately ripped
9 | (30/30) Accurately ripped
10 | (30/30) Accurately ripped
11 | (30/30) Accurately ripped
12 | (30/30) Accurately ripped
13 | (30/30) Accurately ripped
14 | (30/30) Accurately ripped
[AccurateRip ID: 002477d7-018b7bf3-bd10e90e] found.
Track [ CRC | V2 ] Status
01 [e3d17af7|76c89219] (00+09/21) Accurately ripped
02 [d5ec99b2|23fa728c] (00+09/21) Accurately ripped
03 [05f1d132|8492cfda] (00+09/21) Accurately ripped
04 [c4a84af7|44dec6d0] (00+09/21) Accurately ripped
05 [9cadd837|dc80c82f] (00+09/21) Accurately ripped
06 [dd4c095c|b1981f9f] (00+09/21) Accurately ripped
07 [80d0d253|ed20c019] (00+09/21) Accurately ripped
08 [3309de9b|b6bec995] (00+09/21) Accurately ripped
09 [ea64b4d6|57d4022e] (00+09/21) Accurately ripped
10 [7ab1a1de|708ec26a] (00+09/21) Accurately ripped
11 [f676a315|720f709d] (00+09/21) Accurately ripped
12 [f7bf33f6|4b5b9fa0] (00+09/21) Accurately ripped
13 [eb0ea7e3|109fb8be] (00+09/21) Accurately ripped
14 [1d2ab8c3|34d582db] (00+09/20) Accurately ripped
Offsetted by -608:
01 [ebf60477] (04/21) Accurately ripped
02 [d8354d72] (04/21) Accurately ripped
03 [dce92032] (04/21) Accurately ripped
04 [4be264f7] (04/21) Accurately ripped
05 [187e9d57] (04/21) Accurately ripped
06 [e5188f1c] (04/21) Accurately ripped
07 [33a84813] (04/21) Accurately ripped
08 [f69aaffb] (04/21) Accurately ripped
09 [6a762536] (04/21) Accurately ripped
10 [009060de] (04/21) Accurately ripped
11 [2f117bb5] (04/21) Accurately ripped
12 [f97c77d6] (04/21) Accurately ripped
13 [99603383] (04/21) Accurately ripped
14 [a91cb7a3] (04/20) Accurately ripped

Track Peak [ CRC32 ] [W/O NULL] [ LOG ]
– 96,7 [EDEE4052] [253B9B8D]
01 94,1 [EEA3707E] [24671CC1] CRC32
02 96,7 [752B5A96] [B990C557] CRC32
03 96,7 [5B1CE4EE] [6541DB1C] CRC32
04 93,7 [9CD531B1] [334F3B9E] CRC32
05 96,7 [09B702B1] [50834204] CRC32
06 91,7 [FAF38D54] [2AA6A1BB] CRC32
07 95,2 [D2AF3F1E] [870504D4] CRC32
08 93,5 [B8B64B4F] [AF9B787B] CRC32
09 96,5 [FB190186] [2EC4F09F] CRC32
10 94,2 [702A78A0] [D20DEF14] CRC32
11 95,5 [3F895AB1] [D3E7C142] CRC32
12 92,5 [F0641474] [6412DFC5] CRC32
13 91,8 [CEDF8703] [728114AF] CRC32
14 95,0 [09A6AB4A] [434D8227] CRC32

Thanks to the original releaser

See also:
Jimmy Smith - The Champ (1956) [Reissue 2005]
Jimmy Smith - Live At The Club...l. 1 (1956) [RVG Edition 2008]
Jimmy Smith - Live At The Club...l. 2 (1956) [RVG Edition 2008]
Jimmy Smith - The Incredible J... Vol. 3 (1956) [Reissue 2005]
Jimmy Smith - Jimmy Smith At The Organ Volume 1 (1957) [Reissue 2005]
Jimmy Smith - House Party (1958) [Reissue 2000]
Jimmy Smith - Groovin' at Smalls' Paradise (1958) [Reissue 1999]
Jimmy Smith - Groovin' at Smal...(1958) [Japanese Edition 2019]
Jimmy Smith - The Sermon! (1959) [Reissue 2000]
Jimmy Smith - Home Cookin' (1961) [Reissue 1996]
Jimmy Smith - Midnight Special (1961) [Reissue 2007]
Jimmy Smith - Plays Fats Waller (1962) [Reissue 2008]
Jimmy Smith - Back at the Chicken Shack (1963) [Reissue 2007]
Jimmy Smith Trio - Live At The Village Gate (1963) [Reissue 2008]
Jimmy Smith - The Cat (1964)
Jimmy Smith - Who's Afraid Of Virginia Woolf? (1964) [Reissue 2007]
Jimmy Smith with Stanley Turre... Meetin' (1964) [Reissue 2004]
Jimmy Smith - Softly As A Summer Breeze (1965) [RVG Edition 2006]
Jimmy Smith - Organ Grinder Swing (1965) [Reissue 2000]
Jimmy Smith & Wes Montgome...amic Duo (1966) [Reissue 1997]
Jimmy Smith - The Boss (1968) [Reissue 2004]
Jimmy Smith and Wes Montgomery... and Wes (1968) [Reissue 1993]
Jimmy Smith - Bluesmith (1972) [Reissue 2006]
Jimmy Smith - Cool Blues (1980) [Reissue 2002]
Jimmy Smith - Fourmost (1991)
Jimmy Smith & Eddie Harris...ay Live [Recorded 1981] (1996)
Jimmy Smith - Music For Lovers [Recorded 1957-1960] (2006)
Jimmy Smith - Plays Red Hot Blues [Recorded 1963-2000] (2009)