Tags
Language
Tags

Jimmy Smith - Live At The Club Baby Grand, Vol. 1 (1956) [RVG Edition 2008]

Posted By: gribovar
Jimmy Smith - Live At The Club Baby Grand, Vol. 1 (1956) [RVG Edition 2008]

Jimmy Smith - Live At The Club Baby Grand, Vol. 1 (1956) [RVG Edition 2008]
EAC Rip | FLAC (tracks+.cue+log) - 204 MB | MP3 CBR 320 kbps (LAME 3.93) - 106 MB | Covers (8 MB) included
Genre: Hard Bop, Soul Jazz | RAR 3% Rec. | Label: Blue Note (0946 3 92785 2 7)

Playing piano-style single-note lines on his Hammond B-3 organ, Jimmy Smith revolutionized the use of the instrument in a jazz combo setting in the mid-'50s and early '60s, and he was still the next big thing on the block when he recorded two LP volumes live over the course of two afternoon sets and three evening sets on August 4, 1956, at Club Baby Grand in Wilmington, DE. Smith had already tracked three successful studio LPs for Blue Note Records at sessions held earlier in the year in February, March, and June, and the time seemed right to present him in a concert setting where the full whirlwind force of his speedy playing could be best appreciated. Working with guitarist Thornel Schwartz and his longtime drummer Donald Bailey (who worked with Smith throughout his Blue Note years), Smith is 90 percent of the show here, bursting out with amazing rapid runs on the B-3, filling the air from one end of the room to the other as only he could. This first volume is drawn from the three evening sets, opening with what was actually the last selection of the night, a zippy, headlong version of "Sweet Georgia Brown" and highlighted by a nearly 12-minute version of Horace Silver's "The Preacher," a piece Smith has already made his own. It's all Jimmy Smith in full flight, bubbling over with cascading notes and breathless detours, and if his studio work is generally more structured and considered (but only a little more so), this set shows him in what was his natural habitat, astounding an audience in a small club. Bailey keeps up with things and Schwartz gets a word in now and then, but this is Smith's show all the way.
Tracklist:
01. Introduction by Mitch Thomas
02. Sweet Georgia Brown
03. Where Or When
04. The Preacher
05. Rosetta

Total time: 41:44

EAC extraction logfile from 13. June 2008, 12:30 for CD
Jimmy Smith / The Incredible Jimmy Smith at Club Baby Grand Vol.1

Used drive : HL-DT-STDVDRAM GSA-4167B Adapter: 1 ID: 1
Read mode : Secure with NO C2, accurate stream, disable cache
Read offset correction : 667
Overread into Lead-In and Lead-Out : No

Used output format : Internal WAV Routines
44.100 Hz; 16 Bit; Stereo

Other options :
Fill up missing offset samples with silence : Yes
Delete leading and trailing silent blocks : No
Installed external ASPI interface


Track 1
Filename D:\Jimmy Smith - Live At The CLub Baby Grand, Vol 1 (1956)[FLAC]{RVG}\01 - Introduction by Mitch Thomas.wav

Pre-gap length 0:00:02.00

Peak level 82.9 %
Track quality 100.0 %
Test CRC 98C865C0
Copy CRC 98C865C0
Copy OK

Track 2
Filename D:\Jimmy Smith - Live At The CLub Baby Grand, Vol 1 (1956)[FLAC]{RVG}\02 - Sweet Georgia Brown.wav

Peak level 95.6 %
Track quality 100.0 %
Test CRC EC25D4BD
Copy CRC EC25D4BD
Copy OK

Track 3
Filename D:\Jimmy Smith - Live At The CLub Baby Grand, Vol 1 (1956)[FLAC]{RVG}\03 - Where or When.wav

Peak level 78.5 %
Track quality 100.0 %
Test CRC B98D183D
Copy CRC B98D183D
Copy OK

Track 4
Filename D:\Jimmy Smith - Live At The CLub Baby Grand, Vol 1 (1956)[FLAC]{RVG}\04 - The Preacher.wav

Peak level 97.6 %
Track quality 99.9 %
Test CRC 749D0307
Copy CRC 749D0307
Copy OK

Track 5
Filename D:\Jimmy Smith - Live At The CLub Baby Grand, Vol 1 (1956)[FLAC]{RVG}\05 - Rosetta.wav

Peak level 97.9 %
Track quality 100.0 %
Test CRC C02A9972
Copy CRC C02A9972
Copy OK

No errors occured


End of status report

[CUETools log; Date: 24.05.2020 17:24:57; Version: 2.1.4]
[CTDB TOCID: qkbCdAYRhKJ1HAK1xGbCTHcli.M-] found.
Track | CTDB Status
1 | (48/48) Accurately ripped
2 | (48/48) Accurately ripped
3 | (48/48) Accurately ripped
4 | (48/48) Accurately ripped
5 | (48/48) Accurately ripped
[AccurateRip ID: 00073013-0023cc99-4409c805] found.
Track [ CRC | V2 ] Status
01 [4015271f|3f3d9c02] (07+13/46) Accurately ripped
02 [7af6444c|7e1bf748] (07+13/46) Accurately ripped
03 [94d9cd08|7931ad6a] (07+12/46) Accurately ripped
04 [9401f72f|4836604a] (07+13/46) Accurately ripped
05 [5bc60e50|84c4ed06] (07+12/46) Accurately ripped
Offsetted by -664:
01 [30e7fa28] (02/46) Accurately ripped
02 [ff0a62a8] (02/46) Accurately ripped
03 [02c6a6e3] (02/46) Accurately ripped
04 [2624608b] (02/46) Accurately ripped
05 [57c5ff40] (02/46) Accurately ripped
Offsetted by -6:
01 [7d644b08] (04/46) Accurately ripped
02 [2a316c0d] (04/46) Accurately ripped
03 [cf9b0624] (04/46) Accurately ripped
04 [06b88759] (04/46) Accurately ripped
05 [a880071c] (04/46) Accurately ripped
Offsetted by -54:
01 [d023006c] (00/46) No match (V2 was not tested)
02 [998ffd19] (00/46) No match (V2 was not tested)
03 [413f8f86] (00/46) No match (V2 was not tested)
04 [fde90696] (00/46) No match (V2 was not tested)
05 [073caa7d] (00/46) No match (V2 was not tested)

Track Peak [ CRC32 ] [W/O NULL] [ LOG ]
– 97,9 [23FAC21A] [82C30CAD]
01 82,9 [3C55EF11] [98C865C0] W/O NULL
02 95,6 [161E9C5D] [EC25D4BD] W/O NULL
03 78,5 [E01F2BBE] [B98D183D] W/O NULL
04 97,6 [49594790] [749D0307] W/O NULL
05 97,9 [71FFAE7E] [C02A9972] W/O NULL

Thanks to the original releaser

See also: