Tags
Language
Tags

Jimmy Smith - Live At The Club Baby Grand, Vol. 2 (1956) [RVG Edition 2008]

Posted By:
Jimmy Smith - Live At The Club Baby Grand, Vol. 2 (1956) [RVG Edition 2008]

Jimmy Smith - Live At The Club Baby Grand, Vol. 2 (1956) [RVG Edition 2008]
EAC Rip | FLAC (tracks+.cue+log) - 205 MB | MP3 CBR 320 kbps (LAME 3.93) - 103 MB | Covers (8 MB) included
Genre: Hard Bop, Soul Jazz | RAR 3% Rec. | Label: Blue Note (0946 3 92787 2 5)

Playing piano-style single-note lines on his Hammond B-3 organ, Jimmy Smith revolutionized the use of the instrument in a jazz combo setting in the mid-'50s and early '60s, and he was still the next big thing on the block when he recorded two LP volumes live over the course of two afternoon sets and three evening sets on August 4, 1956, at Club Baby Grand in Wilmington, DE. Smith had already tracked three successful studio LPs for Blue Note Records at sessions held earlier in the year in February, March, and June, and the time seemed right to present him in a concert setting where the full whirlwind force of his speedy playing could be best appreciated. Working with guitarist Thornel Schwartz and his longtime drummer Donald Bailey (who worked with Smith throughout his Blue Note years), Smith is 90 percent of the show here, bursting out with amazing rapid runs on the B-3, filling the air from one end of the room to the other as only he could. This second volume draws three of its four tracks from the second afternoon set ("Get Happy" is from the last set of the evening show) and is highlighted by the opening track, a ten-plus-minute version of Duke Ellington's "Caravan" that turns on Schwartz's fine guitar leads. Otherwise, it's all Jimmy Smith, who careens, bolts, stutters, glides, and flashes notes all over the place at a frequently breathless pace, and if Smith's studio work is generally more structured, arranged, and considered (but only a little more so), this set shows him in what was his natural habitat, astounding an audience in a small club.
Tracklist:
01. Caravan
02. Love Is A Many Splendored Thing
03. Get Happy
04. It's All Right With Me

Total time: 40:28

EAC extraction logfile from 24. June 2008, 13:14 for CD
Jimmy Smith / The Incredible Jimmy Smith at Club Baby Grand Vol2

Used drive : HL-DT-STDVDRAM GSA-4167B Adapter: 1 ID: 1
Read mode : Secure with NO C2, accurate stream, disable cache
Read offset correction : 667
Overread into Lead-In and Lead-Out : No

Used output format : Internal WAV Routines
44.100 Hz; 16 Bit; Stereo

Other options :
Fill up missing offset samples with silence : Yes
Delete leading and trailing silent blocks : No
Installed external ASPI interface


Track 1
Filename D:\Jimmy Smith - Live At The Club Baby Grand, Vol II (1956)[FLAC]{RVG}\01 - Caravan.wav

Pre-gap length 0:00:02.00

Peak level 97.9 %
Track quality 100.0 %
Test CRC F9EE5ACD
Copy CRC F9EE5ACD
Copy OK

Track 2
Filename D:\Jimmy Smith - Live At The Club Baby Grand, Vol II (1956)[FLAC]{RVG}\02 - Love Is A Many Splendored Thing.wav

Peak level 97.9 %
Track quality 100.0 %
Test CRC 54DF8247
Copy CRC 54DF8247
Copy OK

Track 3
Filename D:\Jimmy Smith - Live At The Club Baby Grand, Vol II (1956)[FLAC]{RVG}\03 - Get Happy.wav

Peak level 97.9 %
Track quality 100.0 %
Test CRC 1CBF9E82
Copy CRC 1CBF9E82
Copy OK

Track 4
Filename D:\Jimmy Smith - Live At The Club Baby Grand, Vol II (1956)[FLAC]{RVG}\04 - It's Allright With Me.wav

Peak level 97.9 %
Track quality 100.0 %
Test CRC 4EB253F0
Copy CRC 4EB253F0
Copy OK

No errors occured


End of status report

[CUETools log; Date: 25.05.2020 21:32:02; Version: 2.1.4]
[CTDB TOCID: BYEO3BWZnR1yccSdHmOkZVM0D5Y-] found.
Track | CTDB Status
1 | (38/38) Accurately ripped
2 | (38/38) Accurately ripped
3 | (28/38) Accurately ripped, or (10/38) differs in 17 samples @03:54:08
4 | (38/38) Accurately ripped
[AccurateRip ID: 0006e6f8-001b8363-2d097c04] found.
Track [ CRC | V2 ] Status
01 [fc0deea0|72e7e7bd] (06+16/41) Accurately ripped
02 [e1bcd49e|ed0f23c9] (06+15/40) Accurately ripped
03 [b09cd118|a3745f83] (06+15/40) Accurately ripped
04 [a054c0fd|fb13f6c5] (06+15/41) Accurately ripped
Offsetted by -664:
01 [57afcbb0] (02/41) Accurately ripped
02 [7f786b8a] (02/40) Accurately ripped
03 [2acc4885] (02/40) Accurately ripped
04 [6b83199c] (02/41) Accurately ripped
Offsetted by -12:
01 [cafded48] (03/41) Accurately ripped
02 [04e1f911] (03/40) Accurately ripped
03 [f9ee57d5] (00/40) No match (V2 was not tested)
04 [1ce0c455] (03/41) Accurately ripped

Track Peak [ CRC32 ] [W/O NULL] [ LOG ]
– 97,9 [B059165A] [7ED6DB68]
01 97,9 [ED034340] [F9EE5ACD] W/O NULL
02 97,9 [9247B7ED] [54DF8247] W/O NULL
03 97,9 [97BDD8C9] [1CBF9E82] W/O NULL
04 97,9 [A7D5B995] [4EB253F0] W/O NULL

Thanks to the original releaser

See also: