Jobic Le Masson Trio & Steve Potts - Song (2016) {Enja}

Posted By: tiburon
Jobic Le Masson Trio & Steve Potts - Song (2016) {Enja}

Jobic Le Masson Trio & Steve Potts - Song (2016) {Enja}
EAC 1.3 | FLAC tracks level 8 | Cue+Log+M3U | Full Scans 300dpi | 500MB + 5% Recovery
MP3 CBR 320 Kbps | 254MB + 5% Recovery
Genre: Jazz, Post Bop
Jobic Le Masson Trio & Steve Potts - Song (2016) {Enja}

Le plus odieux dans la formule journalistique est moins son implacable débilité, que le constat que de temps à autre, bien plus rarement qu'on ne l'utilise, elle convient. Elle idoine même. Elle sied. Donc oui, Jobic Le Masson est bien « le secret le mieux caché » du jazz parisien, depuis trop longtemps pour trouver cela normal. Mais je m'arrêterai là, dans le cadre de ma thérapie contre la quérulence chronique de ces chroniques.
Track List
01. Cervione 7:02
02. Round Table For Four 8:14
03. Song 3:42
04. Tangle 8:06
05. C 5:24
06. Waldron Well 8:30
07. Brook 5:45
08. Double Dutch Treat 9:06
09. Idania 5:21
10. Backache 5:21
11. You Must Think I'm Crazy 1:52

musicians
Jobic Le Masson - piano
Steve Potts - saxophones
Peter Giron - double bass
John Betsch - drums

Produced by Jobic Le Masson


Exact Audio Copy V1.3 from 2. September 2016

EAC extraction logfile from 18. October 2017, 15:59

Jobic Le Masson Trio & Steeve Potts / Song

Used drive : ATAPI iHBS112 2 Adapter: 1 ID: 1

Read mode : Secure
Utilize accurate stream : Yes
Defeat audio cache : Yes
Make use of C2 pointers : No

Read offset correction : 6
Overread into Lead-In and Lead-Out : No
Fill up missing offset samples with silence : Yes
Delete leading and trailing silent blocks : No
Null samples used in CRC calculations : Yes
Used interface : Native Win32 interface for Win NT & 2000
Gap handling : Appended to previous track

Used output format : User Defined Encoder
Selected bitrate : 128 kBit/s
Quality : High
Add ID3 tag : No
Command line compressor : C:\Program Files (x86)\Exact Audio Copy\Flac\flac.exe
Additional command line options : -8 -V -T "ARTIST=%artist%" -T "TITLE=%title%" -T "ALBUM=%albumtitle%" -T "DATE=%year%" -T "TRACKNUMBER=%tracknr%" -T "GENRE=%genre%" -T "PERFORMER=%albuminterpret%" -T "COMPOSER=%composer%" -T "ALBUMARTIST=%albumartist%" -T "DISCNUMBER=%cdnumber%" -T "TOTALDISCS=%totalcds%" -T "TOTALTRACKS=%numtracks%" -T "COMMENT=EAC Secure Mode, Test & Copy, AccurateRip, FLAC -8" %source% -o %dest%


TOC of the extracted CD

Track | Start | Length | Start sector | End sector
––––––––––––––––––––––––––––-
1 | 0:00.00 | 7:02.08 | 0 | 31657
2 | 7:02.08 | 8:14.37 | 31658 | 68744
3 | 15:16.45 | 3:42.54 | 68745 | 85448
4 | 18:59.24 | 8:06.39 | 85449 | 121937
5 | 27:05.63 | 5:24.42 | 121938 | 146279
6 | 32:30.30 | 8:30.62 | 146280 | 184591
7 | 41:01.17 | 5:45.01 | 184592 | 210467
8 | 46:46.18 | 9:06.13 | 210468 | 251430
9 | 55:52.31 | 5:21.27 | 251431 | 275532
10 | 61:13.58 | 5:21.70 | 275533 | 299677
11 | 66:35.53 | 1:52.22 | 299678 | 308099


Track 1

Filename H:\DL\Jobic Le Masson Trio & Steeve Potts - Song (2016) [FLAC]\01 - Cervione.wav

Pre-gap length 0:00:02.00

Peak level 85.7 %
Extraction speed 5.5 X
Track quality 100.0 %
Test CRC A3F7BB0B
Copy CRC A3F7BB0B
Accurately ripped (confidence 1) [BF859C58] (AR v2)
Copy OK

Track 2

Filename H:\DL\Jobic Le Masson Trio & Steeve Potts - Song (2016) [FLAC]\02 - Round Table For Four.wav

Pre-gap length 0:00:02.00

Peak level 97.3 %
Extraction speed 6.5 X
Track quality 100.0 %
Test CRC E3FD1E64
Copy CRC E3FD1E64
Accurately ripped (confidence 1) [DE6BA9A0] (AR v2)
Copy OK

Track 3

Filename H:\DL\Jobic Le Masson Trio & Steeve Potts - Song (2016) [FLAC]\03 - Song.wav

Pre-gap length 0:00:02.00

Peak level 96.6 %
Extraction speed 6.6 X
Track quality 100.0 %
Test CRC ED8CFAF0
Copy CRC ED8CFAF0
Accurately ripped (confidence 1) [4A0A0C9D] (AR v2)
Copy OK

Track 4

Filename H:\DL\Jobic Le Masson Trio & Steeve Potts - Song (2016) [FLAC]\04 - Tangle.wav

Pre-gap length 0:00:02.00

Peak level 98.9 %
Extraction speed 7.8 X
Track quality 100.0 %
Test CRC A3208167
Copy CRC A3208167
Accurately ripped (confidence 1) [D95507EC] (AR v2)
Copy OK

Track 5

Filename H:\DL\Jobic Le Masson Trio & Steeve Potts - Song (2016) [FLAC]\05 - C.wav

Pre-gap length 0:00:02.00

Peak level 97.8 %
Extraction speed 8.1 X
Track quality 100.0 %
Test CRC 529BF9B2
Copy CRC 529BF9B2
Accurately ripped (confidence 1) [312BAD1D] (AR v2)
Copy OK

Track 6

Filename H:\DL\Jobic Le Masson Trio & Steeve Potts - Song (2016) [FLAC]\06 - Waldron Well.wav

Pre-gap length 0:00:02.00

Peak level 100.0 %
Extraction speed 9.0 X
Track quality 100.0 %
Test CRC 9635F186
Copy CRC 9635F186
Accurately ripped (confidence 1) [2BA9174D] (AR v2)
Copy OK

Track 7

Filename H:\DL\Jobic Le Masson Trio & Steeve Potts - Song (2016) [FLAC]\07 - Brook.wav

Pre-gap length 0:00:02.00

Peak level 100.0 %
Extraction speed 9.1 X
Track quality 100.0 %
Test CRC E878DA38
Copy CRC E878DA38
Accurately ripped (confidence 1) [9D92AC8F] (AR v2)
Copy OK

Track 8

Filename H:\DL\Jobic Le Masson Trio & Steeve Potts - Song (2016) [FLAC]\08 - Double Dutch Treat.wav

Pre-gap length 0:00:02.00

Peak level 96.3 %
Extraction speed 10.0 X
Track quality 100.0 %
Test CRC 2092AFD8
Copy CRC 2092AFD8
Accurately ripped (confidence 1) [FE3CB493] (AR v2)
Copy OK

Track 9

Filename H:\DL\Jobic Le Masson Trio & Steeve Potts - Song (2016) [FLAC]\09 - Idania.wav

Pre-gap length 0:00:02.00

Peak level 96.6 %
Extraction speed 8.6 X
Track quality 99.9 %
Test CRC 98E40317
Copy CRC 98E40317
Accurately ripped (confidence 1) [B8669639] (AR v2)
Copy OK

Track 10

Filename H:\DL\Jobic Le Masson Trio & Steeve Potts - Song (2016) [FLAC]\10 - Backache.wav

Pre-gap length 0:00:02.00

Peak level 97.1 %
Extraction speed 10.3 X
Track quality 100.0 %
Test CRC F5D2C2A2
Copy CRC F5D2C2A2
Accurately ripped (confidence 1) [CB917E90] (AR v2)
Copy OK

Track 11

Filename H:\DL\Jobic Le Masson Trio & Steeve Potts - Song (2016) [FLAC]\11 - You Must Think I'm Crazy.wav

Pre-gap length 0:00:02.00

Peak level 96.0 %
Extraction speed 8.8 X
Track quality 100.0 %
Test CRC 147987FC
Copy CRC 147987FC
Accurately ripped (confidence 1) [63A17D43] (AR v2)
Copy OK


All tracks accurately ripped

No errors occurred

End of status report

–– CUETools DB Plugin V2.1.6

[CTDB TOCID: 9iFzY4RtTcalnCKbSw0AeeLElhw-] found
Submit result: 9iFzY4RtTcalnCKbSw0AeeLElhw- has been confirmed
Track | CTDB Status
1 | (3/3) Accurately ripped
2 | (3/3) Accurately ripped
3 | (3/3) Accurately ripped
4 | (3/3) Accurately ripped
5 | (3/3) Accurately ripped
6 | (3/3) Accurately ripped
7 | (3/3) Accurately ripped
8 | (3/3) Accurately ripped
9 | (3/3) Accurately ripped
10 | (3/3) Accurately ripped
11 | (3/3) Accurately ripped


==== Log checksum 59BE6BB6966295A931C851C65602BCDC55BFEB68D8778693A84937E3C5346CC3 ====

Jobic Le Masson Trio & Steve Potts - Song (2016) {Enja}


Thanks to the original ripper