Subcategories

Joe Dassin - Les Champs-Elysees - 1969 [Re-Upload]

Posted By: technick
Joe Dassin - Les Champs-Elysees - 1969 [Re-Upload]

Joe Dassin - Les Champs-Elysees (1969)
[1995, 15 CD Box-Set, CD3]

EAC: ape (image) + cue + log | RAR, 3%, 210,42 MB
mp3, 320 kbps | RAR, 3%, 78,8 8MB | Scans | RAR, 3%, 8,40 MB
Label: Sony Music Entertainment (France) S.A. | Cat.№ COL 480768 2

Third disc from 15CD Box-set containing all Joe Dassin`s albums. By the early 1970s, Dassin's songs were on the top of the charts in France and he had become very well known. In this album we can listen some songs, that had success in the late 60s: "Les Champs-Elysées", "Siffler sur la Colline" ("To Whistle on the Hill"), "La Bande à Bonnot," and "Le Petit Pain au Chocolat".

Exact Audio Copy V0.99 prebeta 5 from 4. May 2009

EAC extraction logfile from 1. November 2009, 10:56

Joe Dassin / Les Champs-Elysйes

Used drive : TEAC CD-W552GB Adapter: 1 ID: 0

Read mode : Secure
Utilize accurate stream : Yes
Defeat audio cache : Yes
Make use of C2 pointers : No

Read offset correction : 6
Overread into Lead-In and Lead-Out : No
Fill up missing offset samples with silence : Yes
Delete leading and trailing silent blocks : No
Null samples used in CRC calculations : Yes
Used interface : Installed external ASPI interface

Used output format : Internal WAV Routines
Sample format : 44.100 Hz; 16 Bit; Stereo


TOC of the extracted CD

Track | Start | Length | Start sector | End sector
––––––––––––––––––––––––––––-
1 | 0:00.32 | 2:30.68 | 32 | 11349
2 | 2:31.25 | 3:26.05 | 11350 | 26804
3 | 5:57.30 | 2:39.47 | 26805 | 38776
4 | 8:37.02 | 2:39.33 | 38777 | 50734
5 | 11:16.35 | 3:20.72 | 50735 | 65806
6 | 14:37.32 | 2:38.58 | 65807 | 77714
7 | 17:16.15 | 2:39.57 | 77715 | 89696
8 | 19:55.72 | 3:00.08 | 89697 | 103204
9 | 22:56.05 | 2:51.57 | 103205 | 116086
10 | 25:47.62 | 3:27.70 | 116087 | 131681
11 | 29:15.57 | 2:53.43 | 131682 | 144699
12 | 32:09.25 | 2:22.12 | 144700 | 155361


Range status and errors

Selected range

Filename J:\Losless\Images\Joe Dassin\1969 - Les Champs-Elysees\Joe Dassin - 1969 - Les Champs-Elysees_ape\Joe Dassin - Les Champs-Elysйes.wav

Peak level 97.0 %
Range quality 100.0 %
Test CRC F2A04BC1
Copy CRC F2A04BC1
Copy OK

No errors occurred


AccurateRip summary

Track 1 accurately ripped (confidence 3) [52CD4801]
Track 2 accurately ripped (confidence 3) [42D284BE]
Track 3 accurately ripped (confidence 3) [E7D369D0]
Track 4 accurately ripped (confidence 3) [50118693]
Track 5 accurately ripped (confidence 3) [ECBDBBDD]
Track 6 accurately ripped (confidence 3) [4C58099F]
Track 7 accurately ripped (confidence 3) [88689830]
Track 8 accurately ripped (confidence 3) [3B0DE5E7]
Track 9 accurately ripped (confidence 3) [D8FD69CD]
Track 10 accurately ripped (confidence 3) [B2AEB8D9]
Track 11 accurately ripped (confidence 3) [699FE27C]
Track 12 accurately ripped (confidence 3) [0F643B66]

All tracks accurately ripped

End of status report

Tracklist:
01. Le Chemin De Papa [02:30]
02. Le Petit Pain Au Chocolat [03:26]
03. Les Champs-Elysees [02:39]
04. Siffler Sur La Colline [02:39]
05. Mon Village Du Bout Du Monde [03:20]
06. Me Que - Me Que [02:38]
07. Ma Bonne Etoile [02:39]
08. Un Peu Comme Toi [03:00]
09. La Bande А Bonnot [02:51]
10. La Violette Africaine [03:27]
11. Le Temps Des Oeufs Au Plat [02:53]
12. Sunday Times [02:22]
–––––––––––––
Total time [34:33]

Links to previous album of Box-set:
CD1 - Joe Dassin a New York
CD2 - Les Deux Mondes De Joe Dassin
No mirrors, please!
Don't post these links at any web pages, please. Keep these files alive!

Welcome to My Blog!
NitroFlare: Part1, Part2, mp3, scans.
pass: kermith