Subcategories

Margaret Leng Tan, American Composers Orchestra, Dennis Russell Davies - John Cage: The Seasons, etc (2000) [Re-Up]

Posted By: Designol
Margaret Leng Tan, American Composers Orchestra, Dennis Russell Davies - John Cage: The Seasons, etc (2000) [Re-Up]

John Cage - The Seasons (2000)
Margaret Leng Tan, prepered piano, toy piano;
American Composers Orchestra; Dennis Russell Davies, conductor

EAC | FLAC | Image (Cue&Log) ~ 252 Mb | Mp3 (CBR320) ~ 174 Mb | Scans ~ 86 Mb
Classical, Avant-Garde | Label: ECM Records | # 465 140-2 | Time: 01:15:59

This is an enchanting CD, every item a sheer delight. Margaret Leng Tan worked with Cage in the last decade of his life and her earlier recordings (1/92; 7/95) show a special sympathy for the magical world of Cage's keyboard music. The second of her New Albion CDs included the piano solo version of The Seasons, and Cage was honest enough to admit to her that he had help from Virgil Thomson and Lou Harrison in making the orchestral version recorded here. The result is recognisably Cage at his most poetic, evoking each of the four seasons in lovely changing colours.

There are two realisations of one of the last of what are called Cage's 'Number Pieces', Seventy-Four, written specially for the American Composers Orchestra a few months before his death in 1992. Several hearings have confirmed for me that this seamless garment of sustained sound in two overlapping parts is an immensely moving document from a unique human being at the very end of his life. Anyone who responds to the spiritual minimalism of Part, Gorecki or Tavener will understand, especially in these dedicated performances.

Then the Concerto for Prepared Piano (1951), which first became familiar on the Nonesuch LP as long ago as 1967 (with Takahashi and the Buffalo Philharmonic under Lukas Foss), takes its rightful place as the major classic for the transformed instrument with orchestra - a status emphasised by this fastidious performance with its delicate sonic tapestry, including discreet radio, all reflecting Cage's absorption with oriental philosophy.

Tan has recorded the Suite for Toy Piano (1948) before. This time the sound is closer, you can hear her in-breath just before some movements, and we could have done with more precise rhythms. Lou Harrison's orchestration is perfectly in the spirit and it makes a fascinating complement - Cage writing memorable tunes!

Like the Theatre of Voices CD (8/98), this ECM disc shows that much of Cage has now entered the mainstream - off the avant-garde ticket altogether - and his music is unique.

Review by Peter Dickinson, Gramophone

Margaret Leng Tan, American Composers Orchestra, Dennis Russell Davies - John Cage: The Seasons, etc (2000) [Re-Up]



Margaret Leng Tan, American Composers Orchestra, Dennis Russell Davies - John Cage: The Seasons, etc (2000) [Re-Up]



Margaret Leng Tan, American Composers Orchestra, Dennis Russell Davies - John Cage: The Seasons, etc (2000) [Re-Up]



Tracklist:

01. Seventy-Four (Versoin I) (12:15)

The Seasons
02. Prelude I, Winter (03:12)
03. Prelude II, Spring (03:43)
04. Prelude III, Summer (05:51)
05. Prelude IV, Fall (03:52)

Concerto for Prepared Piano and Orchestra
06. First Part (08:08)
07. Second Part (08:09)
08. Third Part (04:22)

09. Seventy-Four (Version II) (12:05)

Suite For Toy Piano
10. I (01:32)
11. II (01:33)
12. III (01:27)
13. IV (01:22)
14. V (01:09)

Suite For Toy Piano (Orchestration: Lou Harrison)
15. I (01:43)
16. II (01:33)
17. III (01:24)
18. IV (01:35)
19. V (00:55)


Exact Audio Copy V0.99 prebeta 5 from 4. May 2009

Отчёт EAC об извлечении, выполненном 15. июня 2010, 20:26

John Cage / The Seasons

Дисковод: Optiarc DVD RW AD-7203A Adapter: 4 ID: 1

Режим чтения : Достоверность
Использование точного потока : Да
Отключение кэша аудио : Да
Использование указателей C2 : Нет

Коррекция смещения при чтении : 48
Способность читать области Lead-in и Lead-out : Нет
Заполнение пропущенных сэмплов тишиной : Да
Удаление блоков с тишиной в начале и конце : Нет
При вычислениях CRC использовались нулевые сэмплы : Да
Интерфейс : Встроенный Win32-интерфейс для Win NT/2000

Выходной формат : Пользовательский кодировщик
Выбранный битрейт : 128 kBit/s
Качество : Высокий
Добавление ID3-тэга : Нет
Утилита сжатия : C:\Program Files\FLAC\flac.exe
Дополнительные параметры : -5 -V %s


TOC извлечённого CD

Трек | Старт | Длительность | Начальный сектор | Конечный сектор
––––––––––––––––––––––––––––––––––-
1 | 0:00.00 | 12:15.17 | 0 | 55141
2 | 12:15.17 | 3:12.30 | 55142 | 69571
3 | 15:27.47 | 3:43.30 | 69572 | 86326
4 | 19:11.02 | 5:51.58 | 86327 | 112709
5 | 25:02.60 | 3:52.52 | 112710 | 130161
6 | 28:55.37 | 8:08.30 | 130162 | 166791
7 | 37:03.67 | 8:09.38 | 166792 | 203504
8 | 45:13.30 | 4:22.12 | 203505 | 223166
9 | 49:35.42 | 12:05.68 | 223167 | 277609
10 | 61:41.35 | 1:32.42 | 277610 | 284551
11 | 63:14.02 | 1:33.13 | 284552 | 291539
12 | 64:47.15 | 1:27.72 | 291540 | 298136
13 | 66:15.12 | 1:22.20 | 298137 | 304306
14 | 67:37.32 | 1:09.25 | 304307 | 309506
15 | 68:46.57 | 1:43.40 | 309507 | 317271
16 | 70:30.22 | 1:33.35 | 317272 | 324281
17 | 72:03.57 | 1:24.03 | 324282 | 330584
18 | 73:27.60 | 1:35.55 | 330585 | 337764
19 | 75:03.40 | 0:55.55 | 337765 | 341944


Характеристики диапазона извлечения и сообщения об ошибках

Выбранный диапазон

Имя файла D:\EAC\John Cage - The Seasons.wav

Пиковый уровень 99.9 %
Качество диапазона 99.9 %
CRC теста 469ECA4D
CRC копии 469ECA4D
Копирование… OK

Ошибок не произошло


AccurateRip: сводка

Трек 1 точность не определена (достоверность 10) [BD74FF3F], AccurateRip вернул [17FE5F6C]
Трек 2 точность не определена (достоверность 10) [95A73FDA], AccurateRip вернул [565C3607]
Трек 3 точность не определена (достоверность 10) [86DD62D8], AccurateRip вернул [B75B407A]
Трек 4 точность не определена (достоверность 10) [028EB5F1], AccurateRip вернул [8DC43569]
Трек 5 точность не определена (достоверность 10) [4B9DB6E5], AccurateRip вернул [105BC9B9]
Трек 6 точность не определена (достоверность 9) [67D0ED33], AccurateRip вернул [1F9B1020]
Трек 7 точность не определена (достоверность 10) [DFBBE597], AccurateRip вернул [8DE253BB]
Трек 8 точность не определена (достоверность 10) [EC99E022], AccurateRip вернул [62D0ADEC]
Трек 9 точность не определена (достоверность 10) [9A3C3CFE], AccurateRip вернул [994E4CD7]
Трек 10 точность не определена (достоверность 9) [3CE98E77], AccurateRip вернул [D6804EC2]
Трек 11 точность не определена (достоверность 10) [1C89C8D0], AccurateRip вернул [AC269BA6]
Трек 12 точность не определена (достоверность 9) [EAFF3BE4], AccurateRip вернул [E461A5AC]
Трек 13 точность не определена (достоверность 10) [D400B765], AccurateRip вернул [DBACD240]
Трек 14 точность не определена (достоверность 10) [F59566BC], AccurateRip вернул [D5396F82]
Трек 15 точность не определена (достоверность 10) [CAC4CFF5], AccurateRip вернул [C23791C7]
Трек 16 точность не определена (достоверность 10) [D1CFE7BF], AccurateRip вернул [42B7C308]
Трек 17 точность не определена (достоверность 10) [54154844], AccurateRip вернул [86A60BF7]
Трек 18 точность не определена (достоверность 10) [D230B045], AccurateRip вернул [DF510D2D]
Трек 19 точность не определена (достоверность 9) [941DFAED], AccurateRip вернул [1E38C705]

Ни один трек не прошёл проверки на точность
В вашей базе может быть иной вариант штамповки диска

Конец отчёта

[CUETools log; Date: 06.04.2015 17:13:52; Version: 2.1.4]
[CTDB TOCID: 7NhEoFubPsRABFX_.qDiR8mVk94-] found.
Track | CTDB Status
1 | (10/10) Accurately ripped
2 | (10/10) Accurately ripped
3 | (10/10) Accurately ripped
4 | (10/10) Accurately ripped
5 | (10/10) Accurately ripped
6 | (10/10) Accurately ripped
7 | (10/10) Accurately ripped
8 | ( 9/10) Accurately ripped
9 | (10/10) Accurately ripped
10 | (10/10) Accurately ripped
11 | (10/10) Accurately ripped
12 | (10/10) Accurately ripped
13 | (10/10) Accurately ripped
14 | (10/10) Accurately ripped
15 | (10/10) Accurately ripped
16 | (10/10) Accurately ripped
17 | (10/10) Accurately ripped
18 | (10/10) Accurately ripped
19 | (10/10) Accurately ripped
[AccurateRip ID: 004420ef-038119ad-3611cf13] found.
Track [ CRC | V2 ] Status
01 [bd74ff3f|cfeb0f49] (05+06/39) Accurately ripped
02 [95a73fda|da512c59] (05+06/39) Accurately ripped
03 [86dd62d8|f181d098] (04+06/38) Accurately ripped
04 [028eb5f1|ba78f338] (05+06/39) Accurately ripped
05 [4b9db6e5|4faa460f] (05+06/37) Accurately ripped
06 [67d0ed33|30e013de] (05+06/36) Accurately ripped
07 [dfbbe597|5f202eec] (04+06/36) Accurately ripped
08 [ec99e022|4b6fa5b0] (05+06/36) Accurately ripped
09 [9a3c3cfe|18c83778] (04+06/37) Accurately ripped
10 [3ce98e77|df619cd9] (05+06/37) Accurately ripped
11 [1c89c8d0|97f74d54] (05+06/38) Accurately ripped
12 [eaff3be4|b9b9f297] (05+05/35) Accurately ripped
13 [d400b765|e9a7022f] (05+06/38) Accurately ripped
14 [f59566bc|b1b106fa] (04+06/37) Accurately ripped
15 [cac4cff5|a9cd81c3] (04+06/37) Accurately ripped
16 [d1cfe7bf|f288dc0d] (05+06/37) Accurately ripped
17 [54154844|098a9189] (05+06/38) Accurately ripped
18 [d230b045|f860f52d] (05+06/38) Accurately ripped
19 [941dfaed|066d1a5a] (05+06/36) Accurately ripped
Offsetted by 1328:
01 [17fe5f6c] (14/39) Accurately ripped
02 [565c3607] (14/39) Accurately ripped
03 [b75b407a] (14/38) Accurately ripped
04 [8dc43569] (14/39) Accurately ripped
05 [105bc9b9] (14/37) Accurately ripped
06 [1f9b1020] (13/36) Accurately ripped
07 [8de253bb] (14/36) Accurately ripped
08 [62d0adec] (14/36) Accurately ripped
09 [994e4cd7] (14/37) Accurately ripped
10 [d6804ec2] (13/37) Accurately ripped
11 [ac269ba6] (14/38) Accurately ripped
12 [e461a5ac] (12/35) Accurately ripped
13 [dbacd240] (14/38) Accurately ripped
14 [d5396f82] (14/37) Accurately ripped
15 [c23791c7] (14/37) Accurately ripped
16 [42b7c308] (14/37) Accurately ripped
17 [86a60bf7] (14/38) Accurately ripped
18 [df510d2d] (14/38) Accurately ripped
19 [1e38c705] (13/36) Accurately ripped
Offsetted by 664:
01 [e9bccf35] (02/39) Accurately ripped
02 [cf0db3ec] (02/39) Accurately ripped
03 [eb1bac34] (02/38) Accurately ripped
04 [8a3d082d] (02/39) Accurately ripped
05 [e7a6ad29] (00/37) No match (V2 was not tested)
06 [1976576f] (00/36) No match (V2 was not tested)
07 [31145133] (00/36) No match (V2 was not tested)
08 [94eb8b1f] (00/36) No match (V2 was not tested)
09 [37aecbd1] (00/37) No match (V2 was not tested)
10 [aa489216] (00/37) No match (V2 was not tested)
11 [0c123e13] (00/38) No match (V2 was not tested)
12 [ab559582] (00/35) No match (V2 was not tested)
13 [38f8b306] (00/38) No match (V2 was not tested)
14 [f972383a] (00/37) No match (V2 was not tested)
15 [6211bfef] (00/37) No match (V2 was not tested)
16 [910006b4] (00/37) No match (V2 was not tested)
17 [2525c74e] (00/38) No match (V2 was not tested)
18 [5e565731] (00/38) No match (V2 was not tested)
19 [70c472a1] (00/36) No match (V2 was not tested)

Track Peak [ CRC32 ] [W/O NULL] [ LOG ]
– 99,9 [469ECA4D] [323B43A2] CRC32
01 25,1 [2031C337] [22DC4801]
02 35,1 [AB0A6BD5] [C6A6B322]
03 59,1 [FBD10908] [F47048D1]
04 31,8 [5B6DD2D3] [C6F8816A]
05 99,9 [6EF790EE] [32FB13E6]
06 76,3 [1799283C] [D9BA4E4A]
07 99,9 [C28B855B] [885900A8]
08 97,6 [097C5BAF] [3913233B]
09 21,4 [39C0C56B] [D4EE1826]
10 41,9 [531A9D72] [BE2B3106]
11 46,3 [518FB919] [F0592C5D]
12 43,2 [D01479F9] [A7246CAD]
13 34,4 [7124C031] [A62E5AAF]
14 56,2 [9DFAC4D8] [4F24E6D0]
15 25,9 [9F865F30] [43E83101]
16 22,1 [312F84DE] [BC44A65E]
17 65,2 [C7632249] [D2394550]
18 29,4 [4E19AAA8] [E081CC66]
19 93,9 [55F2AD2D] [E32C1655]

foobar2000 1.2 / Dynamic Range Meter 1.1.1
log date: 2015-04-03 14:25:09

––––––––––––––––––––––––––––––––––––––––
Analyzed: John Cage / The Seasons
––––––––––––––––––––––––––––––––––––––––

DR Peak RMS Duration Track
––––––––––––––––––––––––––––––––––––––––
DR13 -11.98 dB -31.16 dB 12:15 01-Seventy-Four (Versoin I)
DR16 -9.09 dB -34.45 dB 3:12 02-The Seasons - Prelude I, Winter
DR16 -4.56 dB -27.50 dB 3:43 03-The Seasons - Prelude II, Spring
DR17 -9.94 dB -35.61 dB 5:52 04-The Seasons - Prelude III, Summer
DR17 0.00 dB -23.83 dB 3:53 05-The Seasons - Prelude IV, Fall
DR21 -2.34 dB -30.09 dB 8:08 06-Concerto for Prepared Piano and Orchestra - First Part
DR22 0.00 dB -27.44 dB 8:10 07-Concerto for Prepared Piano and Orchestra - Second Part
DR23 -0.21 dB -28.94 dB 4:22 08-Concerto for Prepared Piano and Orchestra - Third Part
DR13 -13.37 dB -31.48 dB 12:06 09-Seventy-Four (Version II)
DR20 -7.54 dB -31.95 dB 1:33 10-Suite For Toy Piano - I
DR18 -6.69 dB -30.02 dB 1:33 11-Suite For Toy Piano - II
DR19 -7.28 dB -30.59 dB 1:28 12-Suite For Toy Piano - III
DR16 -9.25 dB -28.69 dB 1:22 13-Suite For Toy Piano - IV
DR19 -5.00 dB -28.15 dB 1:09 14-Suite For Toy Piano - V
DR11 -11.72 dB -28.96 dB 1:44 15-Suite For Toy Piano (Orchestration: Lou Harrison) - I
DR14 -13.08 dB -33.49 dB 1:33 16-Suite For Toy Piano (Orchestration: Lou Harrison) - II
DR12 -3.71 dB -22.64 dB 1:24 17-Suite For Toy Piano (Orchestration: Lou Harrison) - III
DR13 -10.63 dB -29.68 dB 1:36 18-Suite For Toy Piano (Orchestration: Lou Harrison) - IV
DR12 -0.54 dB -19.62 dB 0:56 19-Suite For Toy Piano (Orchestration: Lou Harrison) - V
––––––––––––––––––––––––––––––––––––––––

Number of tracks: 19
Official DR value: DR16

Samplerate: 44100 Hz
Channels: 2
Bits per sample: 16
Bitrate: 464 kbps
Codec: FLAC
================================================================================

Margaret Leng Tan, American Composers Orchestra, Dennis Russell Davies - John Cage: The Seasons, etc (2000) [Re-Up]

All thanks to original releaser - GFox

More interesting music in My Blog