Tags
Language
Tags

John Denver & The Muppets - A Christmas Together (1979) Reissue 1996 [Re-Up]

Posted By: Designol
John Denver & The Muppets - A Christmas Together (1979) Reissue 1996 [Re-Up]

John Denver & The Muppets - A Christmas Together (1979) Reissue 1996
EAC | FLAC | Tracks (Cue&Log) ~ 177 Mb | Mp3 (CBR320) ~ 83 Mb | Scans included | 00:34:48
Holidays, Children's, Folk, Pop/Rock | Label: LaserLight Digital | # 12 761

The Muppets have sung with so many people over the years, from Elton John to Tony Bennett, yet it has always seemed like their performances with John Denver were somehow the perfect match. Christmas Together is a delightful–what else?–sing-along collection of Christmas favorites as performed by Denver and the Muppets ensemble. While the usual suspects have more than their say here–Kermit, Miss Piggy–the standout piece is "Twelve Days of Christmas." What could be better than a Muppet a day? Denver leads the critters through a tender "Silent Night," which comes couched in a medley that closes with a rousing "We Wish You a Merry Christmas." "Deck the Halls" is equally raucous–about as raucous as Muppets can get. Listen for the subtle lyric adaptations and the witty exchanges between Denver and his minstrels. Definitely not just for kids.

Review by Steve Gdula

The Crown Prince of Christmas Specials, John Denver, probably did his best Yuletide work with the Muppets. There is some great fun here, particularly for kids, although the TV special has aged a little faster than most of the Muppet material. The songs use electric piano far too much, and have a kind of dated sentimentality about them, but they are entertaining nonetheless. The Muppets' loud rendition of "Little St. Nick" and Miss Piggy's folky "Christmas is Coming" are lively fun. Two or three of the quieter songs achieve a sort of poignant fireside prettiness (especially "It's In Every One of Us"). Denver is typically over-earnest, even when surrounded by talking animals, but younger listeners won't mind.

Review by Darryl Cater, Allmusic.com

John Denver & The Muppets - A Christmas Together (1979) Reissue 1996 [Re-Up]



Tracklist:

01. Twelve Days of Christmas (4:22)
02. Have Yourself a Merry Little Christmas (1:49)
03. The Peace Carol (2:45)
04. Christmas Is Coming (1:13)
05. A Baby Just Like You (2:52)
06. Deck the Halls (1:35)
07. When the River Meets the Sea (2:42)
08. Little Saint Nick (2:22)
09. Noel: Christmas Eve, 1913 (2:52)
10. The Christmas Wish (3:27)
11. Medley: Alfie: The Christmas Tree/Carol for a Christmas Tree/It's in Everyone of Us (4:35)
12. Silent Night, Holy Night (3:09)
13. We Wish You a Merry Christmas (1:05)


Exact Audio Copy V1.0 beta 1 from 15. November 2010

EAC extraction logfile from 10. December 2010, 11:42

John Denver & The Muppets / A Christmas Together

Used drive : TSSTcorpCDDVDW TS-H653R Adapter: 0 ID: 1

Read mode : Secure
Utilize accurate stream : Yes
Defeat audio cache : Yes
Make use of C2 pointers : No

Read offset correction : 6
Overread into Lead-In and Lead-Out : No
Fill up missing offset samples with silence : Yes
Delete leading and trailing silent blocks : No
Null samples used in CRC calculations : Yes
Used interface : Native Win32 interface for Win NT & 2000
Gap handling : Appended to previous track

Used output format : User Defined Encoder
Selected bitrate : 1024 kBit/s
Quality : High
Add ID3 tag : No
Command line compressor : C:\musik\flac_1.2.1b\flac.exe
Additional command line options : -V -8 -T "artist=%a" -T "title=%t" -T "album=%g" -T "date=%y" -T "tracknumber=%n" -T "genre=%m" %s


TOC of the extracted CD

Track | Start | Length | Start sector | End sector
––––––––––––––––––––––––––––-
1 | 0:00.00 | 4:21.70 | 0 | 19644
2 | 4:21.70 | 1:48.67 | 19645 | 27811
3 | 6:10.62 | 2:45.08 | 27812 | 40194
4 | 8:55.70 | 1:12.65 | 40195 | 45659
5 | 10:08.60 | 2:52.10 | 45660 | 58569
6 | 13:00.70 | 1:35.20 | 58570 | 65714
7 | 14:36.15 | 2:41.57 | 65715 | 77846
8 | 17:17.72 | 2:22.23 | 77847 | 88519
9 | 19:40.20 | 2:51.62 | 88520 | 101406
10 | 22:32.07 | 3:26.73 | 101407 | 116929
11 | 25:59.05 | 4:34.47 | 116930 | 137526
12 | 30:33.52 | 3:09.05 | 137527 | 151706
13 | 33:42.57 | 1:05.25 | 151707 | 156606


Track 1

Filename C:\musik\EAC\John Denver & The Muppets - 1979 - A Christmas Together [FLAC]\01 - Twelve Days Of Christmas.wav

Pre-gap length 0:00:02.00

Peak level 88.1 %
Extraction speed 1.7 X
Track quality 100.0 %
Test CRC 95B09442
Copy CRC 95B09442
Accurately ripped (confidence 25) [726F716D]
Copy OK

Track 2

Filename C:\musik\EAC\John Denver & The Muppets - 1979 - A Christmas Together [FLAC]\02 - Have Yourself A Merry Little Christmas.wav

Pre-gap length 0:00:02.50

Peak level 62.0 %
Extraction speed 1.3 X
Track quality 99.9 %
Test CRC 490BB0DA
Copy CRC 490BB0DA
Accurately ripped (confidence 26) [7FC6507B]
Copy OK

Track 3

Filename C:\musik\EAC\John Denver & The Muppets - 1979 - A Christmas Together [FLAC]\03 - The Peace Carol.wav

Pre-gap length 0:00:01.82

Peak level 77.8 %
Extraction speed 1.9 X
Track quality 100.0 %
Test CRC 62FF2D09
Copy CRC 62FF2D09
Accurately ripped (confidence 26) [717F5F4F]
Copy OK

Track 4

Filename C:\musik\EAC\John Denver & The Muppets - 1979 - A Christmas Together [FLAC]\04 - Christmas Is Coming.wav

Pre-gap length 0:00:02.00

Peak level 79.8 %
Extraction speed 1.5 X
Track quality 100.0 %
Test CRC BBD8A214
Copy CRC BBD8A214
Accurately ripped (confidence 25) [2F7ABA91]
Copy OK

Track 5

Filename C:\musik\EAC\John Denver & The Muppets - 1979 - A Christmas Together [FLAC]\05 - A Baby Just Like You.wav

Pre-gap length 0:00:03.58

Peak level 78.1 %
Extraction speed 2.0 X
Track quality 100.0 %
Test CRC BA599B26
Copy CRC BA599B26
Accurately ripped (confidence 24) [45F42023]
Copy OK

Track 6

Filename C:\musik\EAC\John Denver & The Muppets - 1979 - A Christmas Together [FLAC]\06 - Deck The Halls.wav

Pre-gap length 0:00:01.14

Peak level 67.9 %
Extraction speed 1.8 X
Track quality 100.0 %
Test CRC 9809AD7E
Copy CRC 9809AD7E
Accurately ripped (confidence 25) [87816716]
Copy OK

Track 7

Filename C:\musik\EAC\John Denver & The Muppets - 1979 - A Christmas Together [FLAC]\07 - When The River Meets The Sea.wav

Pre-gap length 0:00:00.85

Peak level 75.5 %
Extraction speed 2.1 X
Track quality 100.0 %
Test CRC 3C097DAA
Copy CRC 3C097DAA
Accurately ripped (confidence 25) [9C9DE3CB]
Copy OK

Track 8

Filename C:\musik\EAC\John Denver & The Muppets - 1979 - A Christmas Together [FLAC]\08 - Little Saint Nick.wav

Pre-gap length 0:00:02.77

Peak level 99.9 %
Extraction speed 2.2 X
Track quality 100.0 %
Test CRC 3E970739
Copy CRC 3E970739
Accurately ripped (confidence 25) [04600B4F]
Copy OK

Track 9

Filename C:\musik\EAC\John Denver & The Muppets - 1979 - A Christmas Together [FLAC]\09 - Noel- Christmas Eve, 1913.wav

Pre-gap length 0:00:03.89

Peak level 86.6 %
Extraction speed 2.4 X
Track quality 100.0 %
Test CRC 9F132069
Copy CRC 9F132069
Accurately ripped (confidence 26) [A0462F06]
Copy OK

Track 10

Filename C:\musik\EAC\John Denver & The Muppets - 1979 - A Christmas Together [FLAC]\10 - The Christmas Wish.wav

Pre-gap length 0:00:02.49

Peak level 80.7 %
Extraction speed 2.6 X
Track quality 100.0 %
Test CRC 13A9FC44
Copy CRC 13A9FC44
Accurately ripped (confidence 25) [934E60B1]
Copy OK

Track 11

Filename C:\musik\EAC\John Denver & The Muppets - 1979 - A Christmas Together [FLAC]\11 - Medley- Alfie The Christmas Tree & Carol For A Christmas Tree & It's in Everyone Of Us.wav

Pre-gap length 0:00:02.74

Peak level 74.4 %
Extraction speed 2.3 X
Track quality 99.9 %
Test CRC 4145AA9E
Copy CRC 4145AA9E
Accurately ripped (confidence 24) [C2D77229]
Copy OK

Track 12

Filename C:\musik\EAC\John Denver & The Muppets - 1979 - A Christmas Together [FLAC]\12 - Silent Night, Holy Night.wav

Pre-gap length 0:00:00.86

Peak level 75.0 %
Extraction speed 2.7 X
Track quality 100.0 %
Test CRC F6AB3B23
Copy CRC F6AB3B23
Accurately ripped (confidence 25) [B294EF2F]
Copy OK

Track 13

Filename C:\musik\EAC\John Denver & The Muppets - 1979 - A Christmas Together [FLAC]\13 - We Wish You A Merry Christmas.wav

Pre-gap length 0:00:01.22

Peak level 90.7 %
Extraction speed 2.1 X
Track quality 100.0 %
Test CRC C0D5C447
Copy CRC C0D5C447
Accurately ripped (confidence 25) [C339481F]
Copy OK


All tracks accurately ripped

No errors occurred

End of status report

==== Log checksum A47399F46271C7078CC38131E5B68E03AF5F316223DB2F58A25B6B4897E03680 ====

[CUETools log; Date: 19.12.2017 3:23:10; Version: 2.1.4]
[CTDB TOCID: TOq_FtLKFJhkcNfRyNDnNB1YLG0-] found.
Track | CTDB Status
1 | (144/148) Accurately ripped
2 | (145/148) Accurately ripped
3 | (145/148) Accurately ripped
4 | (146/148) Accurately ripped
5 | (145/148) Accurately ripped
6 | (148/148) Accurately ripped
7 | (146/148) Accurately ripped
8 | (146/148) Accurately ripped
9 | (146/148) Accurately ripped
10 | (145/148) Accurately ripped
11 | (146/148) Accurately ripped
12 | (145/148) Accurately ripped
13 | (146/148) Accurately ripped
[AccurateRip ID: 00109a8e-00a5ae11-a308280d] found.
Track [ CRC | V2 ] Status
01 [726f716d|19ca4de0] (028+020/165) Accurately ripped
02 [7fc6507b|71f635c9] (029+020/168) Accurately ripped
03 [717f5f4f|6acdf24e] (029+019/167) Accurately ripped
04 [2f7aba91|445c61b7] (028+021/169) Accurately ripped
05 [45f42023|4db90285] (027+021/167) Accurately ripped
06 [87816716|4816b52c] (028+021/169) Accurately ripped
07 [9c9de3cb|006e536e] (028+020/165) Accurately ripped
08 [04600b4f|5f6709d0] (028+020/167) Accurately ripped
09 [a0462f06|160fe0e4] (029+020/166) Accurately ripped
10 [934e60b1|2e971b5a] (028+020/166) Accurately ripped
11 [c2d77229|e2eaba0a] (026+020/165) Accurately ripped
12 [b294ef2f|46a14ca4] (027+020/165) Accurately ripped
13 [c339481f|e6b880ab] (027+020/164) Accurately ripped
Offsetted by -2588:
01 [27053237] (003/165) Accurately ripped
02 [f1a7fe2d] (003/168) Accurately ripped
03 [6badaae5] (003/167) Accurately ripped
04 [31eaea1b] (003/169) Accurately ripped
05 [eb1817d7] (003/167) Accurately ripped
06 [1c286902] (003/169) Accurately ripped
07 [1e05a74f] (003/165) Accurately ripped
08 [e73204e7] (003/167) Accurately ripped
09 [5fb517b4] (003/166) Accurately ripped
10 [ac386d1d] (003/166) Accurately ripped
11 [dd12e193] (003/165) Accurately ripped
12 [d48a83ef] (003/165) Accurately ripped
13 [9852e295] (003/164) Accurately ripped
Offsetted by -1718:
01 [16dd7376] (010/165) Accurately ripped
02 [e9ec4de3] (011/168) Accurately ripped
03 [2445040f] (011/167) Accurately ripped
04 [e89bce1b] (011/169) Accurately ripped
05 [e91f398d] (011/167) Accurately ripped
06 [abe6d1b0] (011/169) Accurately ripped
07 [ba1b06d3] (011/165) Accurately ripped
08 [a63731fd] (011/167) Accurately ripped
09 [360447c6] (011/166) Accurately ripped
10 [c8615a6b] (011/166) Accurately ripped
11 [d869de7b] (011/165) Accurately ripped
12 [c93b75d3] (011/165) Accurately ripped
13 [78dfc72d] (011/164) Accurately ripped
Offsetted by 681:
01 [f91fd0dd] (018/165) Accurately ripped
02 [e1134057] (018/168) Accurately ripped
03 [08040af4] (018/167) Accurately ripped
04 [2b13fbde] (018/169) Accurately ripped
05 [a296208f] (017/167) Accurately ripped
06 [396cfb82] (018/169) Accurately ripped
07 [364b5ffa] (017/165) Accurately ripped
08 [f30b9ebc] (018/167) Accurately ripped
09 [fc711728] (017/166) Accurately ripped
10 [2d6fa0aa] (017/166) Accurately ripped
11 [0e725810] (018/165) Accurately ripped
12 [44009433] (018/165) Accurately ripped
13 [b1d90b31] (017/164) Accurately ripped
Offsetted by 950:
01 [ba68e1de] (012/165) Accurately ripped
02 [57a87f9d] (012/168) Accurately ripped
03 [1d6f0d49] (012/167) Accurately ripped
04 [3ddc39cf] (012/169) Accurately ripped
05 [6ee6bbed] (012/167) Accurately ripped
06 [211627da] (012/169) Accurately ripped
07 [1cd36473] (012/165) Accurately ripped
08 [27a2ff49] (012/167) Accurately ripped
09 [54baae72] (012/166) Accurately ripped
10 [9665b7d1] (012/166) Accurately ripped
11 [67d61083] (012/165) Accurately ripped
12 [f1eb6d0d] (012/165) Accurately ripped
13 [4b7857d3] (012/164) Accurately ripped
Offsetted by 1695:
01 [7dca6618] (004/165) Accurately ripped
02 [b914e029] (004/168) Accurately ripped
03 [1947335a] (004/167) Accurately ripped
04 [53da0e1a] (004/169) Accurately ripped
05 [ea37a2eb] (004/167) Accurately ripped
06 [8905803c] (004/169) Accurately ripped
07 [e8176962] (004/165) Accurately ripped
08 [7cfb7c18] (004/167) Accurately ripped
09 [34b6fe60] (004/166) Accurately ripped
10 [dec3126e] (004/166) Accurately ripped
11 [f436f5f6] (004/165) Accurately ripped
12 [9b792e8d] (004/165) Accurately ripped
13 [05a656a3] (004/164) Accurately ripped
Offsetted by 1700:
01 [eda98d63] (002/165) Accurately ripped
02 [69f6b495] (002/168) Accurately ripped
03 [c50ad543] (002/167) Accurately ripped
04 [0ed8fe23] (002/169) Accurately ripped
05 [2d224a59] (002/167) Accurately ripped
06 [f2127822] (002/169) Accurately ripped
07 [63ce1189] (002/165) Accurately ripped
08 [e8c7cdf1] (002/167) Accurately ripped
09 [8beac1b2] (002/166) Accurately ripped
10 [ddce30ff] (002/166) Accurately ripped
11 [c3bc94d3] (002/165) Accurately ripped
12 [d8a98c97] (002/165) Accurately ripped
13 [31c1808d] (002/164) Accurately ripped
Offsetted by 2364:
01 [f45359ff] (008/165) Accurately ripped
02 [7ff79591] (008/168) Accurately ripped
03 [9c4cf3a7] (008/167) Accurately ripped
04 [0ae0bae7] (009/169) Accurately ripped
05 [8c3682cd] (009/167) Accurately ripped
06 [d38fb91e] (009/169) Accurately ripped
07 [72f432cb] (008/165) Accurately ripped
08 [bf0db089] (008/167) Accurately ripped
09 [54db6498] (008/166) Accurately ripped
10 [cf776615] (008/166) Accurately ripped
11 [c56972d5] (008/165) Accurately ripped
12 [2022b311] (009/165) Accurately ripped
13 [8436395d] (008/164) Accurately ripped

Track Peak [ CRC32 ] [W/O NULL] [ LOG ]
– 99,9 [60C6E59B] [229CF3A7]
01 88,1 [95B09442] [06262CA4] CRC32
02 62,0 [490BB0DA] [85AE0F03] CRC32
03 77,8 [62FF2D09] [1D749088] CRC32
04 79,8 [BBD8A214] [237BDAA6] CRC32
05 78,1 [BA599B26] [359B3F75] CRC32
06 67,9 [9809AD7E] [8247082F] CRC32
07 75,5 [3C097DAA] [895AB237] CRC32
08 99,9 [3E970739] [3EB84AFF] CRC32
09 86,6 [9F132069] [42FEB1D6] CRC32
10 80,7 [13A9FC44] [CB87B2F7] CRC32
11 74,4 [4145AA9E] [F07C2832] CRC32
12 75,0 [F6AB3B23] [C4F82816] CRC32
13 90,7 [C0D5C447] [BBBD8F03] CRC32

foobar2000 1.2 / Dynamic Range Meter 1.1.1
log date: 2017-12-19 03:30:49

––––––––––––––––––––––––––––––––––––––––
Analyzed: John Denver & The Muppets / A Christmas Together
––––––––––––––––––––––––––––––––––––––––

DR Peak RMS Duration Track
––––––––––––––––––––––––––––––––––––––––
DR14 -1.10 dB -20.11 dB 4:22 01-Twelve Days of Christmas
DR12 -4.15 dB -21.28 dB 1:49 02-Have Yourself a Merry Little Christmas
DR12 -2.18 dB -19.12 dB 2:45 03-The Peace Carol
DR15 -1.96 dB -19.95 dB 1:13 04-Christmas Is Coming
DR13 -2.14 dB -18.68 dB 2:52 05-A Baby Just Like You
DR13 -3.36 dB -19.38 dB 1:35 06-Deck the Halls
DR12 -2.44 dB -18.45 dB 2:42 07-When the River Meets the Sea
DR14 0.00 dB -15.74 dB 2:22 08-Little Saint Nick
DR12 -1.24 dB -17.23 dB 2:52 09-Noel: Christmas Eve, 1913
DR11 -1.85 dB -16.74 dB 3:27 10-The Christmas Wish
DR12 -2.56 dB -18.19 dB 4:35 11-Medley: Alfie: The Christmas Tree/Carol for a Christmas Tree/It's in Everyone of Us
DR12 -2.50 dB -17.78 dB 3:09 12-Silent Night, Holy Night
DR14 -0.84 dB -19.32 dB 1:05 13-We Wish You a Merry Christmas
––––––––––––––––––––––––––––––––––––––––

Number of tracks: 13
Official DR value: DR13

Samplerate: 44100 Hz
Channels: 2
Bits per sample: 16
Bitrate: 753 kbps
Codec: FLAC
================================================================================

John Denver & The Muppets - A Christmas Together (1979) Reissue 1996 [Re-Up]

John Denver & The Muppets - A Christmas Together (1979) Reissue 1996 [Re-Up]