Tags
Language
Tags

John Mayall And The Bluesbreakers - A Hard Road (1967) [Vinyl Rip 16/44 & mp3-320] Re-up

Posted By: v3122
John Mayall And The Bluesbreakers - A Hard Road (1967) [Vinyl Rip 16/44 & mp3-320] Re-up

John Mayall And The Bluesbreakers - A Hard Road (1967)
Vinyl Rip 16/44 | Flac(Image + Cue) > 211 Mb
MP3 CBR 320Kbps > 90 Mb | Artwork(jpg) > 164 Mb
London Records, PS 502 | Blues Rock

Eric Clapton is usually thought of as John Mayall's most important right-hand man, but the case could also be made for his successor, Peter Green. The future Fleetwood Mac founder leaves a strong stamp on his only album with the Bluesbreakers, singing a few tracks and writing a couple, including the devastating instrumental "Supernatural." Green's use of thick sustain on this track clearly pointed the way to his use of guitar riffs with elongated, slithery tones on Fleetwood Mac's "Albatross" and "Black Magic Woman," as well as anticipating some aspects of Carlos Santana's style. Mayall acquits himself fairly well on this mostly original set (with occasional guest horns), though some of the material is fairly mundane. Highlights include the uncharacteristically rambunctious "Leaping Christine" and the cover of Freddie King's "Someday After a While (You'll Be Sorry)."

by Richie Unterberger, allmusic
John Mayall And The Bluesbreakers - A Hard Road (1967):

John Mayall And The Bluesbreakers - A Hard Road (1967) [Vinyl Rip 16/44 & mp3-320] Re-up

Tracklist:

A1 A Hard Road
A2 It's Over
A3 You Don't Love Me
A4 The Stumble
A5 Another Kinda Love
A6 Hit The Highway
A7 Leaping Christine
B1 Dust My Blues
B2 There's Always Work
B3 The Same Way
B4 The Supernatural
B5 Top Of The Hill
B6 Some Day After Awhile (You'll Be Sorry)
B7 Living Alone

foobar2000 1.2.9 / Dynamic Range Meter 1.1.1
log date: 2018-08-19 14:39:44

––––––––––––––––––––––––––––––––––––––––
Analyzed: John Mayall And The Bluesbreakers / A Hard Road [US London, PS 502]
––––––––––––––––––––––––––––––––––––––––

DR Peak RMS Duration Track
––––––––––––––––––––––––––––––––––––––––
DR14 -0.84 dB -17.86 dB 3:12 01-A Hard Road
DR12 -1.76 dB -17.01 dB 2:52 02-It's Over
DR12 -2.02 dB -16.61 dB 2:51 03-You Don't Love Me
DR12 -1.79 dB -16.60 dB 2:54 04-The Stumble
DR12 -1.94 dB -17.28 dB 3:08 05-Another Kinda Love
DR13 -0.44 dB -18.49 dB 2:18 06-Hit The Highway
DR12 -2.36 dB -17.09 dB 2:27 07-Leaping Christine
DR11 -1.12 dB -15.32 dB 2:49 08-Dust My Blues
DR14 -0.26 dB -18.72 dB 1:30 09-There's Always Work
DR12 -1.25 dB -17.03 dB 2:12 10-The Same Way
DR12 -2.51 dB -17.21 dB 2:58 11-The Supernatural
DR12 -2.40 dB -16.76 dB 2:43 12-Top Of The Hill
DR11 -2.17 dB -15.84 dB 3:04 13-Someday After Awhile (You'll Be Sorry)
DR14 -1.09 dB -16.88 dB 2:29 14-Living Alone
––––––––––––––––––––––––––––––––––––––––

Number of tracks: 14
Official DR value: DR12

Samplerate: 44100 Hz
Channels: 2
Bits per sample: 16
Bitrate: 753 kbps
Codec: FLAC
================================================================================




Original ripper: alvaedis
Original format: 32/192
Vinyl Condition: VG+
Cleaning:
Direct Drive Turntable: Michell Gyrodec (Orbe Platter upgrade)+SME309+Ortofon 2M Black
Amplifier: PS audio GCPH (mod)
ADC: Prism Sound Lyra 2
Postprocessing: Izotope RX

Downsampled to 16/44

John Mayall in my Blog

Download John Mayall And The Bluesbreakers - A Hard Road (1967):