Tags
Language
Tags

John Mayall: Discography & Video (1973-2013) [Part 3, 11CDs & 11DVDs]

Posted By: v3122
John Mayall: Discography & Video (1973-2013) [Part 3, 11CDs & 11DVDs]

John Mayall: Discography & Video (1973-2013)
EAC | Flac(Image) + Cue + Log & MP3 CBR 320Kbps
11CD | Label: Various | ~ 3751 or 1501 Mb | Artwork(jpg) -> 132 Mb
11xDVD: PAL 4:3 & 16:9 (720x576) VBR / NTSC 16:9 & 4:3 (720x480) VBR
Dolby AC3, 2 ch / Dolby AC3, 6 ch / LinearPCM, 2 ch / DTS, 6 ch
Blues, Blues Rock

John Mayall, OBE (born 29 November 1933) is an English blues singer, guitarist, organist and songwriter, whose musical career spans over sixty years. In the 1960s, he was the founder of John Mayall & the Bluesbreakers, a band which has counted among its members some of the most famous blues and blues rock musicians…

~ wiki
John Mayall: Discography & Video (1973-2013) [Part 3, 11CDs & 11DVDs]

John Mayall: Discography & Video (1973-2013):

John Mayall: Discography & Video (1973-2013) [Part 3, 11CDs & 11DVDs]

Tracklist CD47. 1973 - Ten Years Are Gone CD1 [Lemon Recordings, CDLEMD 115]:

1. Ten Years Are Gone
2. Driving Till The Break Of Day
3. Drifting
4. Better Pass You By
5. California Campground
6. Undecided
7. Good Looking Stranger
8. I Still Care
9. Don't Hang Me Up

Exact Audio Copy V0.99 prebeta 2 from 28. July 2007

EAC extraction logfile from 3. April 2009, 10:11

John Mayall / Ten Years Are Gone (disc 1)

Used drive : ASUS DRW-2014L1 Adapter: 1 ID: 0

Read mode : Secure
Utilize accurate stream : Yes
Defeat audio cache : Yes
Make use of C2 pointers : No

Read offset correction : 6
Overread into Lead-In and Lead-Out : No
Fill up missing offset samples with silence : Yes
Delete leading and trailing silent blocks : No
Null samples used in CRC calculations : Yes
Used interface : Native Win32 interface for Win NT & 2000

Used output format : Monkey's Audio Lossless Encoder v3.99 DLL
Sample format : Fast Lossless Compression


TOC of the extracted CD

Track | Start | Length | Start sector | End sector
––––––––––––––––––––––––––––-
1 | 0:00.00 | 4:49.27 | 0 | 21701
2 | 4:49.27 | 5:07.05 | 21702 | 44731
3 | 9:56.32 | 4:40.27 | 44732 | 65758
4 | 14:36.59 | 5:16.39 | 65759 | 89497
5 | 19:53.23 | 3:16.72 | 89498 | 104269
6 | 23:10.20 | 2:55.03 | 104270 | 117397
7 | 26:05.23 | 4:24.69 | 117398 | 137266
8 | 30:30.17 | 4:22.21 | 137267 | 156937
9 | 34:52.38 | 4:10.33 | 156938 | 175720


Range status and errors

Selected range

Filename E:\Upload Lossless\John Mayall - Ten Years Are Gone\CD 1\John Mayall - Ten Years Are Gone (disc 1).ape

Peak level 97.7 %
Range quality 100.0 %
Copy CRC 44B2B2B9
Copy OK

No errors occurred

End of status report


[CUETools log; Date: 25.11.2020 14:43:23; Version: 2.1.4]
[AccurateRip ID: 000def85-0064c239-8a092609] found.
Track [ CRC | V2 ] Status
01 [e4e50225|fff7780f] (04+13/23) Accurately ripped
02 [5b54cb6f|eed618df] (04+13/21) Accurately ripped
03 [698e0224|a1ba77d8] (04+13/20) Accurately ripped
04 [930a88fa|3ce42ebf] (04+13/21) Accurately ripped
05 [bcc270f3|2c507882] (04+13/21) Accurately ripped
06 [cdd075be|3b1fcf72] (04+13/21) Accurately ripped
07 [f06a214e|2bfaed17] (04+13/21) Accurately ripped
08 [dcaa9212|6383323f] (04+13/20) Accurately ripped
09 [98725636|548761f1] (04+13/21) Accurately ripped
Offsetted by -676:
01 [0bea99dd] (02/23) Accurately ripped
02 [2c217937] (00/21) No match (V2 was not tested)
03 [3f562154] (00/20) No match (V2 was not tested)
04 [223e781e] (00/21) No match (V2 was not tested)
05 [2113b913] (00/21) No match (V2 was not tested)
06 [d3d47d6a] (00/21) No match (V2 was not tested)
07 [2c5e3ad2] (00/21) No match (V2 was not tested)
08 [2a7cf5fa] (00/20) No match (V2 was not tested)
09 [e6ac140e] (00/21) No match (V2 was not tested)
Offsetted by 42:
01 [8309c5f9] (00/23) No match (V2 was not tested)
02 [dd81a3db] (00/21) No match (V2 was not tested)
03 [e254e36c] (00/20) No match (V2 was not tested)
04 [cf112790] (00/21) No match (V2 was not tested)
05 [b2bd6423] (00/21) No match (V2 was not tested)
06 [61e3e6e0] (00/21) No match (V2 was not tested)
07 [707a0474] (00/21) No match (V2 was not tested)
08 [2b2512ae] (00/20) No match (V2 was not tested)
09 [b8b2ea3a] (00/21) No match (V2 was not tested)

Track Peak [ CRC32 ] [W/O NULL] [ LOG ]
– 97,7 [44B2B2B9] [10279162] CRC32
01 97,7 [4ECD98A7] [9FA1A065]
02 97,7 [5FBBFB35] [36E07D8F]
03 97,7 [03CA3F80] [AAA68436]
04 97,7 [B0C87B6C] [412CF243]
05 97,7 [D4872819] [3C75A07E]
06 97,7 [865D1112] [24EAA74D]
07 97,7 [D1727E2C] [6B552CF0]
08 97,7 [A4F071A1] [4FEF7FF8]
09 97,7 [3522D863] [16543617]


Tracklist CD48. 1973 - Ten Years Are Gone CD2 [Lemon Recordings, CDLEMD 115]:

1. Introduction
2. Sitting Here Thinking
3. Harmonica Free Form
4. Burning Sun
5. Dark Of The Night

Exact Audio Copy V0.99 prebeta 2 from 28. July 2007

EAC extraction logfile from 3. April 2009, 9:56

John Mayall / Ten Years Are Gone (disc 2)

Used drive : ASUS DRW-2014L1 Adapter: 1 ID: 0

Read mode : Secure
Utilize accurate stream : Yes
Defeat audio cache : Yes
Make use of C2 pointers : No

Read offset correction : 6
Overread into Lead-In and Lead-Out : No
Fill up missing offset samples with silence : Yes
Delete leading and trailing silent blocks : No
Null samples used in CRC calculations : Yes
Used interface : Native Win32 interface for Win NT & 2000

Used output format : Monkey's Audio Lossless Encoder v3.99 DLL
Sample format : Fast Lossless Compression


TOC of the extracted CD

Track | Start | Length | Start sector | End sector
––––––––––––––––––––––––––––-
1 | 0:00.00 | 1:56.61 | 0 | 8760
2 | 1:56.61 | 7:54.47 | 8761 | 44357
3 | 9:51.33 | 11:35.50 | 44358 | 96532
4 | 21:27.08 | 5:13.08 | 96533 | 120015
5 | 26:40.16 | 17:39.52 | 120016 | 199492


Range status and errors

Selected range

Filename C:\Program Files\Monkey's Audio\John Mayall - Ten Years Are Gone (disc 2).ape

Peak level 97.7 %
Range quality 100.0 %
Copy CRC F82CEC51
Copy OK

No errors occurred

End of status report


[CUETools log; Date: 25.11.2020 14:45:30; Version: 2.1.4]
[AccurateRip ID: 000728a9-00239c47-3a0a6305] found.
Track [ CRC | V2 ] Status
01 [3dad934d|89bb281b] (04+06/20) Accurately ripped
02 [c91abd27|5ef6883f] (04+06/21) Accurately ripped
03 [649d880e|c33f8a26] (04+06/21) Accurately ripped
04 [0f8f1574|3fc6fe4e] (04+06/21) Accurately ripped
05 [0221faba|8d4bef93] (04+06/21) Accurately ripped
Offsetted by -676:
01 [9f4125ce] (00/20) No match (V2 was not tested)
02 [efcb4a62] (00/21) No match (V2 was not tested)
03 [5c1550f2] (00/21) No match (V2 was not tested)
04 [bcab918c] (00/21) No match (V2 was not tested)
05 [e5c6d3e6] (00/21) No match (V2 was not tested)
Offsetted by 42:
01 [0df8a1e6] (00/20) No match (V2 was not tested)
02 [5e695472] (00/21) No match (V2 was not tested)
03 [91130f44] (00/21) No match (V2 was not tested)
04 [4a7be4d8] (00/21) No match (V2 was not tested)
05 [1ce37a1c] (00/21) No match (V2 was not tested)

Track Peak [ CRC32 ] [W/O NULL] [ LOG ]
– 97,7 [F82CEC51] [F8A02AD3] CRC32
01 58,6 [955C20F3] [F1B72165]
02 97,7 [7E380227] [772A3974]
03 97,7 [DA351D0A] [349E4959]
04 97,7 [CA77CE67] [140C0970]
05 97,7 [70644619] [419A9CF4]


John Mayall: Discography & Video (1973-2013) [Part 3, 11CDs & 11DVDs]

Tracklist CD49. 1977 - Primal Solos [Decca, UICY-93411]:

1. Intro - Maudie (Hooker) (2:07)
2. It Hurts To Be In Love (Toombs, Dixon) (3:14)
3. Have You Ever Loved A Woman (Myles) (6:25)
4. Bye Bye Bird (Williamson, Dixon) (3:36)
5. I'm Your Hoochie Coochie Man (Dixon) (3:39)
6. Intro - Look At The Girl (Mayall) (5:19)
7. Wish You Were Mine (Mayall) (8:09)
8. Start Walkin' (Mayall) (7:51)

Exact Audio Copy V0.99 prebeta 1 from 25. May 2007

Отчёт EAC об извлечении, выполненном 17. марта 2009, 0:37

Mayall, John / Primal Solos

Дисковод: ASUS DRW-1814BL Adapter: 1 ID: 0

Режим чтения : Достоверность
Использование точного потока : Да
Отключение кэша аудио : Да
Использование указателей C2 : Нет

Коррекция смещения при чтении : 6
Способность читать области Lead-in и Lead-out : Нет
Заполнение пропущенных сэмплов тишиной : Да
Удаление блоков с тишиной в начале и конце : Нет
Интерфейс : Установленный внешний ASPI-интерфейс

Выходной формат : Пользовательский кодировщик
Выбранный битрейт : 1024 kBit/s
Качество : Высокий
Добавление ID3-тэга : Нет
Утилита сжатия : E:\Program Files\Exact Audio Copy\FLAC\FLAC.EXE
Дополнительные параметры : -6 -V -T "ARTIST=%a" -T "TITLE=%t" -T "ALBUM=%g" -T "DATE=%y" -T "TRACKNUMBER=%n" -T "GENRE=%m" -T "COMMENT=%e" %s -o %d


TOC извлечённого CD

Трек | Старт | Длительность | Начальный сектор | Конечный сектор
––––––––––––––––––––––––––––––––––-
1 | 0:00.00 | 2:26.21 | 0 | 10970
2 | 2:26.21 | 3:20.02 | 10971 | 25972
3 | 5:46.23 | 6:41.58 | 25973 | 56105
4 | 12:28.06 | 3:49.10 | 56106 | 73290
5 | 16:17.16 | 3:55.30 | 73291 | 90945
6 | 20:12.46 | 6:42.65 | 90946 | 121160
7 | 26:55.36 | 8:34.43 | 121161 | 159753
8 | 35:30.04 | 8:20.56 | 159754 | 197309


Характеристики диапазона извлечения и сообщения об ошибках

Выбранный диапазон

Имя файла C:\Релиз\John Mayall [1977] Primal Solos (live 66-68)\Mayall, John - Primal Solos.wav

Пиковый уровень 99.8 %
Качество диапазона 100.0 %
CRC копии 88ACE90D
Копирование… OK

Ошибок не произошло

Конец отчёта


[CUETools log; Date: 25.11.2020 15:06:10; Version: 2.1.4]
[AccurateRip ID: 000b3918-004e67be-620a4608] found.
Track [ CRC | V2 ] Status
01 [0147ccb0|b6e52b02] (0+0/2) No match
02 [0e892e1c|d9e32d46] (0+0/2) No match
03 [8d2b81e5|c0cc9f4a] (0+0/2) No match
04 [d1043e90|ab119f28] (0+0/2) No match
05 [97afa881|7be78768] (0+0/2) No match
06 [d358e82d|8a99cab3] (0+0/2) No match
07 [afd33e22|e0696c75] (0+0/2) No match
08 [9a9d38dd|d690525e] (0+0/2) No match
Offsetted by 664:
01 [2f321651] (0/2) No match (V2 was not tested)
02 [544d5d8e] (0/2) No match (V2 was not tested)
03 [beb75c1c] (0/2) No match (V2 was not tested)
04 [98a5f036] (0/2) No match (V2 was not tested)
05 [838a09c1] (0/2) No match (V2 was not tested)
06 [0ea0d346] (0/2) No match (V2 was not tested)
07 [6dbea76f] (0/2) No match (V2 was not tested)
08 [28e332ea] (0/2) No match (V2 was not tested)

Track Peak [ CRC32 ] [W/O NULL] [ LOG ]
– 99,8 [88ACE90D] [39CEAF60] CRC32
01 99,8 [32625606] [50451BBC]
02 99,8 [75B57F4A] [2E0E3511]
03 99,8 [50C05765] [6F76181C]
04 99,8 [A5F03BC7] [B4476A44]
05 99,8 [BE50D020] [BC4711F1]
06 99,8 [C9FC4E3C] [CA71E82C]
07 99,8 [07868475] [3BB9F913]
08 99,8 [10DEF29F] [F15D98AC]


John Mayall: Discography & Video (1973-2013) [Part 3, 11CDs & 11DVDs]

Tracklist CD50. 1993 - Room To Move 1969-1974 CD1 [PolyGram 517 291-2]:

1. The Lows Must Change
2. California
3. Room To Move
4. Don't Waste My Time
5. Counting The Days
6. When I Go
7. To A Princess
8. Nature's Disappearing
9. Took The Car
10. My Pretty Girl
11. Prisons On The Road
12. Accidental Suicide
13. Boogie Albert
14. Television Eye
15. Home Again

Отчёт EAC об извлечении, выполненном 1. февраля 2009, 20:17 для диска:
John Mayall / Room To Move 1969-1974 - Disc 1

Дисковод: Optiarc DVD RW AD-7173A Adapter: 1 ID: 0
Режим чтения: Достоверный (C2: нет, Точный поток: да, Отключение кэша: да)
Коррекция смещения при чтении: 48
Способность читать области Lead-in и Lead-out : Нет

Выходной формат: C:\Program Files\Exact Audio Copy\wavpack.exe (Пользовательский кодировщик)
128 kBit/s
Дополнительные параметры: -w "Artist=%a" -w "Title=%t" -w "Album=%g" -w "Year=%y" -w "Track=%n" -w "Genre=%m" -h %s %d -w "Cuesheet=@*.cue"

Другие параметры:
Заполнение пропущенных сэмплов тишиной : Да
Удаление блоков с тишиной в начале и конце : Нет
Встроенный Win32-интерфейс для Win NT/2000


Характеристики диапазона извлечения и сообщения об ошибках
Выбранный диапазон
Имя файла Y:\Releases\John Mayall\Room To Move (1969-1974)\John Mayall - Room To Move (1969-1974)\John Mayall - Room To Move 1969-1974 - Disc 1.wav.wav.wav

Пиковый уровень 100.0 %
Качество диапазона 99.9 %
CRC 9CB00DCF
Копирование… OK

Ошибок не произошло

Конец отчёта


[CUETools log; Date: 25.11.2020 14:34:47; Version: 2.1.4]
Pregap length 00:00:32.
[AccurateRip ID: 002cd798-01f06c12-e7124f0f] found.
Track [ CRC | V2 ] Status
01 [8ff98e76|8c65a734] (00+00/15) No match
02 [efde87ef|c59242cd] (00+00/16) No match
03 [2dbcc2e4|d6ead61e] (00+00/16) No match
04 [2faedb5e|772a7e4b] (00+00/16) No match
05 [69a54ad2|32d84e2b] (00+00/15) No match
06 [15661582|ba943c36] (00+00/16) No match
07 [3a8c7961|1ae23674] (00+00/16) No match
08 [35ba760d|0a0a4267] (00+00/16) No match
09 [3e9e4364|18a6e467] (00+00/16) No match
10 [dfe452ec|1f730d9e] (00+00/15) No match
11 [168eaacb|20936d30] (00+00/16) No match
12 [444bd1a6|ffa2bf75] (00+00/16) No match
13 [f641a17a|7f359d50] (00+00/16) No match
14 [3aa86547|ee7e5cf2] (00+00/16) No match
15 [da4668d9|6036cfc6] (00+00/16) No match
Offsetted by 664:
01 [60c3d125] (03/15) Accurately ripped
02 [0d4e1536] (03/16) Accurately ripped
03 [9b2b31ca] (03/16) Accurately ripped
04 [448977b6] (03/16) Accurately ripped
05 [a1fb3a02] (03/15) Accurately ripped
06 [8de81c82] (03/16) Accurately ripped
07 [6b065f39] (03/16) Accurately ripped
08 [e475f70d] (03/16) Accurately ripped
09 [7f28788c] (03/16) Accurately ripped
10 [05a9fc0c] (02/15) Accurately ripped
11 [c801cfd3] (03/16) Accurately ripped
12 [69eca336] (03/16) Accurately ripped
13 [04e87982] (03/16) Accurately ripped
14 [bf91151f] (03/16) Accurately ripped
15 [faf72789] (03/16) Accurately ripped

Track Peak [ CRC32 ] [W/O NULL]
– 100,0 [9CB00DCF] [CB2DD556]
01 100,0 [CA16FD23] [331F1AAA]
02 74,1 [ACC925B4] [F7F1C6EF]
03 87,6 [915B7A39] [E65AC7E8]
04 75,3 [FADB3CA2] [A547E252]
05 70,4 [65F7510C] [0E37DDF6]
06 82,9 [C5B0D021] [4F9FDD59]
07 89,3 [ED84F39E] [0CD8E94D]
08 84,6 [A4CF06C4] [FE75D702]
09 84,6 [794744E8] [D09407BD]
10 84,1 [14BF9403] [B4AD0B9C]
11 95,6 [442B2994] [3EBA2A9B]
12 88,2 [23C13EA9] [58FA8297]
13 82,2 [6E5921A8] [4F908543]
14 88,0 [980A6EB6] [8D249333]
15 89,1 [802D9B90] [96ED3FE9]


Tracklist CD51. 1993 - Room To Move 1969-1974 CD2 [PolyGram 517 291-2]:

1. Memories
2. Nobody Cares
3. Bad Luck Time
4. Country Road
5. Dry Throat
6. Worried Mind
7. Red Sky
8. Ten Years Are Gone
9. Driving Till The Break Of Day
10. Better Pass You By
11. I Still Care
12. Brand New Band
13. Gasoline Blues
14. Going To Take My Time
15. Deep Down Feelings

Отчёт EAC об извлечении, выполненном 1. февраля 2009, 21:22 для диска:
John Mayall / Room To Move 1969-1974 - Disc 2

Дисковод: Optiarc DVD RW AD-7173A Adapter: 1 ID: 0
Режим чтения: Достоверный (C2: нет, Точный поток: да, Отключение кэша: да)
Коррекция смещения при чтении: 48
Способность читать области Lead-in и Lead-out : Нет

Выходной формат: C:\Program Files\Exact Audio Copy\wavpack.exe (Пользовательский кодировщик)
128 kBit/s
Дополнительные параметры: -w "Artist=%a" -w "Title=%t" -w "Album=%g" -w "Year=%y" -w "Track=%n" -w "Genre=%m" -h %s %d -w "Cuesheet=@*.cue"

Другие параметры:
Заполнение пропущенных сэмплов тишиной : Да
Удаление блоков с тишиной в начале и конце : Нет
Встроенный Win32-интерфейс для Win NT/2000


Характеристики диапазона извлечения и сообщения об ошибках
Выбранный диапазон
Имя файла Y:\Releases\John Mayall\Room To Move (1969-1974)\John Mayall - Room To Move (1969-1974)\John Mayall - Room To Move 1969-1974 - Disc 2.wav.wav.wav

Пиковый уровень 100.0 %
Качество диапазона 99.9 %
CRC F525B64C
Копирование… OK

Ошибок не произошло

Конец отчёта


[CUETools log; Date: 25.11.2020 14:39:19; Version: 2.1.4]
Pregap length 00:00:32.
[AccurateRip ID: 002bc148-01ed9322-e711a60f] found.
Track [ CRC | V2 ] Status
01 [e8ace9e3|43d6b0f0] (00+00/15) No match
02 [af800269|a7185454] (00+00/15) No match
03 [e451def9|a4e349e8] (00+00/15) No match
04 [99afc397|abf2b357] (00+00/15) No match
05 [d4f137db|6950f255] (00+00/15) No match
06 [cc8dd1bf|14bde937] (00+00/15) No match
07 [6d0cefee|69b6e065] (00+00/15) No match
08 [46be5a1d|ade9d483] (00+00/15) No match
09 [f4491ef3|c2f1f61a] (00+00/14) No match
10 [7d54a2d7|415f8c3c] (00+00/15) No match
11 [5dbfe429|1b7e66a5] (00+00/15) No match
12 [d593ecf7|f4abd3e6] (00+00/15) No match
13 [b4c21b33|352c6b40] (00+00/15) No match
14 [bfe2bae6|0f1aab56] (00+00/15) No match
15 [4c2106b8|f3634eb7] (00+00/15) No match
Offsetted by -1807:
01 [beb2f72b] (03/15) Accurately ripped
02 [842f421e] (03/15) Accurately ripped
03 [b9972211] (03/15) Accurately ripped
04 [8b148c26] (03/15) Accurately ripped
05 [7ca54553] (03/15) Accurately ripped
06 [dd5b25fc] (03/15) Accurately ripped
07 [07253679] (03/15) Accurately ripped
08 [01dc118f] (03/15) Accurately ripped
09 [ddbce14b] (02/14) Accurately ripped
10 [53fbfee2] (03/15) Accurately ripped
11 [0a4c7363] (03/15) Accurately ripped
12 [9336b1f9] (03/15) Accurately ripped
13 [9db7ff79] (03/15) Accurately ripped
14 [6ac86f01] (03/15) Accurately ripped
15 [34097206] (03/15) Accurately ripped

Track Peak [ CRC32 ] [W/O NULL]
– 100,0 [F525B64C] [AB4B50D2]
01 92,9 [D145EF63] [8B29B5BB]
02 90,9 [8D24027F] [6A9B7DE9]
03 86,5 [477F947C] [60705F97]
04 86,3 [0FF813FB] [3E8F676D]
05 99,3 [3CBE461C] [249CB25A]
06 96,7 [C9F2C704] [30F991CE]
07 93,8 [C4BC5E7B] [8DCC14C7]
08 100,0 [3071BD5B] [264D4DCB]
09 100,0 [87B308C8] [2D6EDF57]
10 97,6 [733C18C0] [5B47FC91]
11 98,8 [151590E8] [AB295451]
12 99,5 [CD0C3103] [FB5F1EBA]
13 92,5 [E63F79B2] [ABA29356]
14 82,0 [806860C5] [B21861E6]
15 95,4 [F444D385] [7B29FF47]


John Mayall: Discography & Video (1973-2013) [Part 3, 11CDs & 11DVDs]

Tracklist CD52. 1999 - Live 1969 CD1 [ST2 Records/Eagle Records - ST2EA109]:

1. Parchman Farm
2. Don't Waste My Time
3. Sleeping By Her Side
4. Room To Move
5. Saw Mill Gulch Road
6. Can't Sleep This Night
7. Thoughts About Roxanne
8. I'm Gonna Fight For You JB
9. I'm Gonna Fight For You JB
10. California

Exact Audio Copy V0.99 prebeta 5 from 4. May 2009

EAC extraction logfile from 8. October 2009, 18:37

John Mayall & The Bluesbreakers / Live 1969 (CD 1)

Used drive : HL-DT-STDVDRAM GH20NS15 Adapter: 0 ID: 0

Read mode : Secure
Utilize accurate stream : Yes
Defeat audio cache : Yes
Make use of C2 pointers : No

Read offset correction : 667
Overread into Lead-In and Lead-Out : No
Fill up missing offset samples with silence : Yes
Delete leading and trailing silent blocks : No
Null samples used in CRC calculations : Yes
Used interface : Installed external ASPI interface

Used output format : User Defined Encoder
Selected bitrate : 1024 kBit/s
Quality : High
Add ID3 tag : No
Command line compressor : C:\Program Files\Exact Audio Copy\Flac\flac.exe
Additional command line options : -8 -A tukey(0.25) -A gauss(0.1875) -b 4096 -V -T "artist=%a" -T "title=%t" -T "album=%g" -T "date=%y" -T "tracknumber=%n" -T "genre=%m" %s –sector-align


TOC of the extracted CD

Track | Start | Length | Start sector | End sector
––––––––––––––––––––––––––––-
1 | 0:00.00 | 2:16.01 | 0 | 10200
2 | 2:16.01 | 5:26.05 | 10201 | 34655
3 | 7:42.06 | 8:22.57 | 34656 | 72362
4 | 16:04.63 | 7:28.20 | 72363 | 105982
5 | 23:33.08 | 6:38.63 | 105983 | 135895
6 | 30:11.71 | 6:05.65 | 135896 | 163335
7 | 36:17.61 | 8:19.12 | 163336 | 200772
8 | 44:36.73 | 5:31.00 | 200773 | 225597
9 | 50:07.73 | 5:57.05 | 225598 | 252377
10 | 56:05.03 | 12:41.45 | 252378 | 309497


Range status and errors

Selected range

Filename D:\Torrents.ru 3\John Mayall & The Bluesbreakers\John Mayall & The Bluesbreakers - Live 1969 (Double Cd)\CD 1\John Mayall & The Bluesbreakers - Live 1969 (CD 1).wav

Peak level 100.0 %
Range quality 100.0 %
Test CRC 61E86A53
Copy CRC 61E86A53
Copy OK

No errors occurred

End of status report


[CUETools log; Date: 25.11.2020 14:48:15; Version: 2.1.4]
[AccurateRip ID: 00170d1a-00be3c5a-92101e0a] found.
Track [ CRC | V2 ] Status
01 [3eed0232|737caeec] (00+00/29) No match
02 [b8f12dc2|e4ca56b8] (00+00/29) No match
03 [f9430f29|2b1f2fa6] (00+00/30) No match
04 [060f0230|b7f45977] (00+00/30) No match
05 [17764d00|2a2cff28] (00+00/30) No match
06 [dc2b762e|b738d4f5] (00+00/30) No match
07 [01bd88ae|8a009dd7] (00+00/30) No match
08 [0dae1018|085616cb] (00+00/30) No match
09 [f7f3d6e6|91b5115d] (00+00/30) No match
10 [be839330|a17fe5dc] (00+00/29) No match
Offsetted by 664:
01 [a83a57b5] (08/29) Accurately ripped
02 [cbd2077d] (08/29) Accurately ripped
03 [d83e91ba] (08/30) Accurately ripped
04 [81b57808] (08/30) Accurately ripped
05 [4dcdf3d2] (08/30) Accurately ripped
06 [821b2e82] (08/30) Accurately ripped
07 [c3f7e074] (08/30) Accurately ripped
08 [c3bc6c8d] (08/30) Accurately ripped
09 [b66ee873] (08/30) Accurately ripped
10 [9b082d2f] (07/29) Accurately ripped
Offsetted by 490:
01 [f3f1369f] (00/29) No match (V2 was not tested)
02 [5d4a1982] (00/29) No match (V2 was not tested)
03 [8c528f47] (00/30) No match (V2 was not tested)
04 [076943bc] (00/30) No match (V2 was not tested)
05 [e1288174] (00/30) No match (V2 was not tested)
06 [62be1ad0] (00/30) No match (V2 was not tested)
07 [f577f6ec] (00/30) No match (V2 was not tested)
08 [1f2f0173] (00/30) No match (V2 was not tested)
09 [e10b2ede] (00/30) No match (V2 was not tested)
10 [252484b6] (00/29) No match (V2 was not tested)
Offsetted by 670:
01 [5daba9a4] (00/29) No match (V2 was not tested)
02 [ecbe0526] (00/29) No match (V2 was not tested)
03 [16402066] (00/30) No match (V2 was not tested)
04 [3b65c677] (00/30) No match (V2 was not tested)
05 [50db8063] (00/30) No match (V2 was not tested)
06 [dfe6a05b] (00/30) No match (V2 was not tested)
07 [fab210d0] (00/30) No match (V2 was not tested)
08 [de48ef64] (00/30) No match (V2 was not tested)
09 [7affa181] (00/30) No match (V2 was not tested)
10 [44385b95] (00/29) No match (V2 was not tested)

Track Peak [ CRC32 ] [W/O NULL] [ LOG ]
– 100,0 [61E86A53] [F69CFFD0] CRC32
01 100,0 [7FCB8F82] [97A1EEE6]
02 100,0 [CD96A14E] [FD7E4EFC]
03 100,0 [06094D62] [79E2C888]
04 100,0 [CBF8D30F] [DA035399]
05 100,0 [2AED9270] [89842564]
06 98,4 [C40D0187] [CE96C0B0]
07 99,9 [8FA3B880] [555D11D8]
08 91,5 [FC63A5EE] [1F8122C7]
09 92,9 [0A175587] [917601F4]
10 74,2 [21D7C0FD] [3A684301]


Tracklist CD53. 1999 - Live 1969 CD2 [ST2 Records/Eagle Records - ST2EA109]:

1. Can't Sleep This Night
2. So Hard To Share
3. Don't Waste My Time
4. I'm Gonna Fight For You JB
5. The Laws Must Change
6. California
7. California

Exact Audio Copy V0.99 prebeta 5 from 4. May 2009

EAC extraction logfile from 8. October 2009, 19:43

Mayall, John / LIve At The Marquee 1969

Used drive : HL-DT-STDVDRAM GH20NS15 Adapter: 0 ID: 0

Read mode : Secure
Utilize accurate stream : Yes
Defeat audio cache : Yes
Make use of C2 pointers : No

Read offset correction : 667
Overread into Lead-In and Lead-Out : No
Fill up missing offset samples with silence : Yes
Delete leading and trailing silent blocks : No
Null samples used in CRC calculations : Yes
Used interface : Installed external ASPI interface

Used output format : User Defined Encoder
Selected bitrate : 1024 kBit/s
Quality : High
Add ID3 tag : No
Command line compressor : C:\Program Files\Exact Audio Copy\Flac\flac.exe
Additional command line options : -8 -A tukey(0.25) -A gauss(0.1875) -b 4096 -V -T "artist=%a" -T "title=%t" -T "album=%g" -T "date=%y" -T "tracknumber=%n" -T "genre=%m" %s –sector-align


TOC of the extracted CD

Track | Start | Length | Start sector | End sector
––––––––––––––––––––––––––––-
1 | 0:00.00 | 7:16.72 | 0 | 32771
2 | 7:16.72 | 8:39.05 | 32772 | 71701
3 | 15:56.02 | 4:47.08 | 71702 | 93234
4 | 20:43.10 | 5:16.67 | 93235 | 117001
5 | 26:00.02 | 8:43.20 | 117002 | 156246
6 | 34:43.22 | 11:00.05 | 156247 | 205751
7 | 45:43.27 | 13:26.00 | 205752 | 266201


Range status and errors

Selected range

Filename D:\Torrents.ru 3\John Mayall & The Bluesbreakers\John Mayall & The Bluesbreakers - Live 1969 (Double Cd)\CD 2\John Mayall & The Bluesbreakers - Live 1969 (CD 2).wav

Peak level 100.0 %
Range quality 100.0 %
Test CRC 6841B939
Copy CRC 6841B939
Copy OK

No errors occurred

End of status report


[CUETools log; Date: 25.11.2020 14:54:00; Version: 2.1.4]
[AccurateRip ID: 000e6340-0057ad2b-620ddd07] found.
Track [ CRC | V2 ] Status
01 [8a3300a6|999a81bc] (00+00/33) No match
02 [05263ade|7dd38159] (00+00/33) No match
03 [e657ff18|75b1800c] (00+00/33) No match
04 [29a73ace|ee1a0508] (00+00/33) No match
05 [338c6ded|765341cd] (00+00/33) No match
06 [eee75dec|389ae000] (00+00/33) No match
07 [3a0f1326|47e1c8d6] (00+00/33) No match
Offsetted by 664:
01 [8dedf0d5] (08/33) Accurately ripped
02 [ba826387] (08/33) Accurately ripped
03 [7bf1f80e] (08/33) Accurately ripped
04 [3bf9c1d5] (08/33) Accurately ripped
05 [523e6ee0] (08/33) Accurately ripped
06 [1c5a7e13] (08/33) Accurately ripped
07 [abea9cdb] (08/33) Accurately ripped
Offsetted by 255:
01 [b7a33350] (00/33) No match (V2 was not tested)
02 [7943133b] (00/33) No match (V2 was not tested)
03 [cdcd0677] (00/33) No match (V2 was not tested)
04 [b8c89188] (00/33) No match (V2 was not tested)
05 [f19f7801] (00/33) No match (V2 was not tested)
06 [fa61af0e] (00/33) No match (V2 was not tested)
07 [58fb0bc4] (00/33) No match (V2 was not tested)
Offsetted by 670:
01 [0c185d71] (00/33) No match (V2 was not tested)
02 [351498ab] (00/33) No match (V2 was not tested)
03 [13b94f1a] (00/33) No match (V2 was not tested)
04 [0a60b729] (00/33) No match (V2 was not tested)
05 [2f800d80] (00/33) No match (V2 was not tested)
06 [d92bc8c8] (00/33) No match (V2 was not tested)
07 [83316de2] (00/33) No match (V2 was not tested)
Offsetted by 1517:
01 [43532d9f] (00/33) No match (V2 was not tested)
02 [b0be3ee5] (00/33) No match (V2 was not tested)
03 [fa67f3ff] (00/33) No match (V2 was not tested)
04 [c34def93] (00/33) No match (V2 was not tested)
05 [a19e9af5] (00/33) No match (V2 was not tested)
06 [59b69cc8] (00/33) No match (V2 was not tested)
07 [5282a44a] (00/33) No match (V2 was not tested)
Offsetted by 1658:
01 [f14cf9ef] (00/33) No match (V2 was not tested)
02 [4394ee40] (00/33) No match (V2 was not tested)
03 [0903eba8] (00/33) No match (V2 was not tested)
04 [048c2cd6] (00/33) No match (V2 was not tested)
05 [1eb8aeec] (00/33) No match (V2 was not tested)
06 [c1520e9b] (00/33) No match (V2 was not tested)
07 [52e7f6b9] (00/33) No match (V2 was not tested)

Track Peak [ CRC32 ] [W/O NULL] [ LOG ]
– 100,0 [6841B939] [3F8414F7] CRC32
01 100,0 [16AF3CFA] [15C92B0D]
02 100,0 [C40F3D8B] [3534D762]
03 86,9 [DEDD51EE] [90D6262D]
04 84,8 [B1DDA140] [E1BCB78F]
05 79,9 [E08AD3CA] [51E6B94C]
06 91,4 [8FA1EA56] [B2A39A34]
07 91,7 [20742DA6] [E59A717D]


John Mayall: Discography & Video (1973-2013) [Part 3, 11CDs & 11DVDs]

Tracklist CD54. 1999 - The Turning Point Soundtrack CD1 [ER20045-2]:

01. Parchman Farm
02. Don't Waste My Time
03. Sleeping by Her Side
04. Room to Move
05. Saw Mill Gulch Road
06. Can't Sleep This Night
07. Thoughts About Roxanne
08. I'm Gonna Fight for You JB
09. I'm Gonna Fight for You JB
10. California

Exact Audio Copy V0.99 prebeta 1 from 25. May 2007

Отчёт EAC об извлечении, выполненном 27. сентября 2008, 12:45

John Mayall & The Bluesbreakers / The Turning Point Soundtrack (CD 1)

Дисковод: ASUS DRW-1814BL Adapter: 1 ID: 0

Режим чтения : Достоверность
Использование точного потока : Да
Отключение кэша аудио : Да
Использование указателей C2 : Нет

Коррекция смещения при чтении : 6
Способность читать области Lead-in и Lead-out : Нет
Заполнение пропущенных сэмплов тишиной : Да
Удаление блоков с тишиной в начале и конце : Нет
Интерфейс : Установленный внешний ASPI-интерфейс

Выходной формат : Пользовательский кодировщик
Выбранный битрейт : 1024 kBit/s
Качество : Высокий
Добавление ID3-тэга : Нет
Утилита сжатия : E:\Program Files\Exact Audio Copy\Flac\flac.exe
Дополнительные параметры : -6 %s


TOC извлечённого CD

Трек | Старт | Длительность | Начальный сектор | Конечный сектор
––––––––––––––––––––––––––––––––––-
1 | 0:00.00 | 2:16.01 | 0 | 10200
2 | 2:16.01 | 5:26.05 | 10201 | 34655
3 | 7:42.06 | 8:22.57 | 34656 | 72362
4 | 16:04.63 | 7:28.20 | 72363 | 105982
5 | 23:33.08 | 6:38.63 | 105983 | 135895
6 | 30:11.71 | 6:05.65 | 135896 | 163335
7 | 36:17.61 | 8:19.12 | 163336 | 200772
8 | 44:36.73 | 5:31.00 | 200773 | 225597
9 | 50:07.73 | 5:57.05 | 225598 | 252377
10 | 56:05.03 | 12:41.45 | 252378 | 309497


Характеристики диапазона извлечения и сообщения об ошибках

Выбранный диапазон

Имя файла C:\Релиз\John Mayall & The Bluesbreakers [1999] The Turning Point Soundtrack\CD1\John Mayall & The Bluesbreakers - The Turning Point Soundtrack (CD 1).wav

Пиковый уровень 100.0 %
Качество диапазона 100.0 %
CRC копии B76EDAAD
Копирование… OK

Ошибок не произошло

Конец отчёта


[CUETools log; Date: 25.11.2020 14:59:37; Version: 2.1.4]
[AccurateRip ID: 00170d1a-00be3c5a-92101e0a] found.
Track [ CRC | V2 ] Status
01 [cb9efc4c|ff1f4735] (00+00/29) No match
02 [6345bfd6|91a63b03] (00+00/29) No match
03 [72f797c2|a3814053] (00+00/30) No match
04 [91efeecd|475f3220] (00+00/30) No match
05 [0c4763bf|20006b3f] (00+00/30) No match
06 [632f073f|3b55f3ca] (00+00/30) No match
07 [2d350cb5|b6bc1248] (00+00/30) No match
08 [68db520f|661fcfeb] (00+00/30) No match
09 [e2f87abf|7f85f062] (00+00/30) No match
10 [24d44f35|01c809ca] (00+00/29) No match
Offsetted by 658:
01 [a83a57b5] (08/29) Accurately ripped
02 [cbd2077d] (08/29) Accurately ripped
03 [d83e91ba] (08/30) Accurately ripped
04 [81b57808] (08/30) Accurately ripped
05 [4dcdf3d2] (08/30) Accurately ripped
06 [821b2e82] (08/30) Accurately ripped
07 [c3f7e074] (08/30) Accurately ripped
08 [c3bc6c8d] (08/30) Accurately ripped
09 [b66ee873] (08/30) Accurately ripped
10 [9b082d2f] (07/29) Accurately ripped
Offsetted by 484:
01 [f3f1369f] (00/29) No match (V2 was not tested)
02 [5d4a1982] (00/29) No match (V2 was not tested)
03 [8c528f47] (00/30) No match (V2 was not tested)
04 [076943bc] (00/30) No match (V2 was not tested)
05 [e1288174] (00/30) No match (V2 was not tested)
06 [62be1ad0] (00/30) No match (V2 was not tested)
07 [f577f6ec] (00/30) No match (V2 was not tested)
08 [1f2f0173] (00/30) No match (V2 was not tested)
09 [e10b2ede] (00/30) No match (V2 was not tested)
10 [252484b6] (00/29) No match (V2 was not tested)
Offsetted by 664:
01 [5daba9a4] (00/29) No match (V2 was not tested)
02 [ecbe0526] (00/29) No match (V2 was not tested)
03 [16402066] (00/30) No match (V2 was not tested)
04 [3b65c677] (00/30) No match (V2 was not tested)
05 [50db8063] (00/30) No match (V2 was not tested)
06 [dfe6a05b] (00/30) No match (V2 was not tested)
07 [fab210d0] (00/30) No match (V2 was not tested)
08 [de48ef64] (00/30) No match (V2 was not tested)
09 [7affa181] (00/30) No match (V2 was not tested)
10 [44385b95] (00/29) No match (V2 was not tested)

Track Peak [ CRC32 ] [W/O NULL] [ LOG ]
– 100,0 [B76EDAAD] [F69CFFD0] CRC32
01 100,0 [D22DAE84] [5E654695]
02 100,0 [24D8B9C1] [B280C86C]
03 100,0 [37D41489] [2E1C2C6C]
04 100,0 [A7F2C152] [16BCC198]
05 100,0 [1B25491A] [75DB1674]
06 98,4 [F9FF48CD] [213B4D83]
07 99,9 [4934E0EA] [8F60F4E4]
08 91,5 [1A3BDAAD] [D99B4B64]
09 92,9 [95AA574E] [8F7D9BF9]
10 74,2 [31EC3D08] [9629E5BF]


Tracklist CD55. 1999 - The Turning Point Soundtrack CD2 [ER20045-2]:

11. Can't Sleep This Night
12. So Hard to Share
13. Don't Waste My Time
14. I'm Gonna Fight for You JB
15. The Laws Must Change
16. California 1
17. California 2

Exact Audio Copy V0.99 prebeta 1 from 25. May 2007

Отчёт EAC об извлечении, выполненном 27. сентября 2008, 12:59

John Mayall & The Bluesbreakers / The Turning Point Soundtrack (CD 2)

Дисковод: ASUS DRW-1814BL Adapter: 1 ID: 0

Режим чтения : Достоверность
Использование точного потока : Да
Отключение кэша аудио : Да
Использование указателей C2 : Нет

Коррекция смещения при чтении : 6
Способность читать области Lead-in и Lead-out : Нет
Заполнение пропущенных сэмплов тишиной : Да
Удаление блоков с тишиной в начале и конце : Нет
Интерфейс : Установленный внешний ASPI-интерфейс

Выходной формат : Пользовательский кодировщик
Выбранный битрейт : 1024 kBit/s
Качество : Высокий
Добавление ID3-тэга : Нет
Утилита сжатия : E:\Program Files\Exact Audio Copy\Flac\flac.exe
Дополнительные параметры : -6 %s


TOC извлечённого CD

Трек | Старт | Длительность | Начальный сектор | Конечный сектор
––––––––––––––––––––––––––––––––––-
1 | 0:00.00 | 7:16.72 | 0 | 32771
2 | 7:16.72 | 8:39.05 | 32772 | 71701
3 | 15:56.02 | 4:47.08 | 71702 | 93234
4 | 20:43.10 | 5:16.67 | 93235 | 117001
5 | 26:00.02 | 8:43.20 | 117002 | 156246
6 | 34:43.22 | 11:00.05 | 156247 | 205751
7 | 45:43.27 | 13:26.00 | 205752 | 266201


Характеристики диапазона извлечения и сообщения об ошибках

Выбранный диапазон

Имя файла C:\Релиз\John Mayall & The Bluesbreakers [1999] The Turning Point Soundtrack\CD2\John Mayall & The Bluesbreakers - The Turning Point Soundtrack (CD 2).wav

Пиковый уровень 100.0 %
Качество диапазона 100.0 %
CRC копии BF3CC3F8
Копирование… OK

Ошибок не произошло

Конец отчёта


[CUETools log; Date: 25.11.2020 15:04:05; Version: 2.1.4]
[AccurateRip ID: 000e6340-0057ad2b-620ddd07] found.
Track [ CRC | V2 ] Status
01 [88cf0b16|98377f03] (00+00/33) No match
02 [57c55408|cc6b586c] (00+00/33) No match
03 [bdfd44f9|4f94b73a] (00+00/33) No match
04 [868902cc|4af4ccb9] (00+00/33) No match
05 [c394ac99|0503c532] (00+00/33) No match
06 [bae01acf|ff5468fd] (00+00/33) No match
07 [1a53fa6e|21a4c472] (00+00/33) No match
Offsetted by 658:
01 [8dedf0d5] (08/33) Accurately ripped
02 [ba826387] (08/33) Accurately ripped
03 [7bf1f80e] (08/33) Accurately ripped
04 [3bf9c1d5] (08/33) Accurately ripped
05 [523e6ee0] (08/33) Accurately ripped
06 [1c5a7e13] (08/33) Accurately ripped
07 [abea9cdb] (08/33) Accurately ripped
Offsetted by 249:
01 [b7a33350] (00/33) No match (V2 was not tested)
02 [7943133b] (00/33) No match (V2 was not tested)
03 [cdcd0677] (00/33) No match (V2 was not tested)
04 [b8c89188] (00/33) No match (V2 was not tested)
05 [f19f7801] (00/33) No match (V2 was not tested)
06 [fa61af0e] (00/33) No match (V2 was not tested)
07 [58fb0bc4] (00/33) No match (V2 was not tested)
Offsetted by 664:
01 [0c185d71] (00/33) No match (V2 was not tested)
02 [351498ab] (00/33) No match (V2 was not tested)
03 [13b94f1a] (00/33) No match (V2 was not tested)
04 [0a60b729] (00/33) No match (V2 was not tested)
05 [2f800d80] (00/33) No match (V2 was not tested)
06 [d92bc8c8] (00/33) No match (V2 was not tested)
07 [83316de2] (00/33) No match (V2 was not tested)
Offsetted by 1511:
01 [43532d9f] (00/33) No match (V2 was not tested)
02 [b0be3ee5] (00/33) No match (V2 was not tested)
03 [fa67f3ff] (00/33) No match (V2 was not tested)
04 [c34def93] (00/33) No match (V2 was not tested)
05 [a19e9af5] (00/33) No match (V2 was not tested)
06 [59b69cc8] (00/33) No match (V2 was not tested)
07 [5282a44a] (00/33) No match (V2 was not tested)
Offsetted by 1652:
01 [f14cf9ef] (00/33) No match (V2 was not tested)
02 [4394ee40] (00/33) No match (V2 was not tested)
03 [0903eba8] (00/33) No match (V2 was not tested)
04 [048c2cd6] (00/33) No match (V2 was not tested)
05 [1eb8aeec] (00/33) No match (V2 was not tested)
06 [c1520e9b] (00/33) No match (V2 was not tested)
07 [52e7f6b9] (00/33) No match (V2 was not tested)

Track Peak [ CRC32 ] [W/O NULL] [ LOG ]
– 100,0 [BF3CC3F8] [3F8414F7] CRC32
01 100,0 [FB485534] [8073D127]
02 100,0 [AA8935F6] [AACB2EFD]
03 86,9 [95EDAEE1] [E44BD75C]
04 84,8 [73C72FE8] [B6908D4D]
05 79,9 [A880F938] [19C96D04]
06 91,4 [F8024627] [94405DE8]
07 91,7 [F7970973] [5A30DB5C]


John Mayall: Discography & Video (1973-2013) [Part 3, 11CDs & 11DVDs]

Tracklist CD56. 2007 - Live at the BBC [Decca, 9844665 - ?]:

01. Crawling up a Hill
02. Crocodile Walk
03. Bye Bye Bird
04. I'm Your Witchdoctor
05. Cheating Woman
06. Nowhere to Turn
07. On Top of the World
08. Key to Love
09. No More Tears
10. Riding on the L&N
11. Sitting in the Rain
12. Leaping Christine
13. So Much to Do
14. Taxman Blues

Exact Audio Copy V0.99 prebeta 1 from 25. May 2007

Отчёт EAC об извлечении, выполненном 17. марта 2009, 22:16

John Mayall and the Bluesbreakers / Live at the BBC

Дисковод: ASUS DRW-1814BL Adapter: 1 ID: 0

Режим чтения : Достоверность
Использование точного потока : Да
Отключение кэша аудио : Да
Использование указателей C2 : Нет

Коррекция смещения при чтении : 6
Способность читать области Lead-in и Lead-out : Нет
Заполнение пропущенных сэмплов тишиной : Да
Удаление блоков с тишиной в начале и конце : Нет
Интерфейс : Установленный внешний ASPI-интерфейс

Выходной формат : Пользовательский кодировщик
Выбранный битрейт : 1024 kBit/s
Качество : Высокий
Добавление ID3-тэга : Нет
Утилита сжатия : E:\Program Files\Exact Audio Copy\FLAC\FLAC.EXE
Дополнительные параметры : -6 -V -T "ARTIST=%a" -T "TITLE=%t" -T "ALBUM=%g" -T "DATE=%y" -T "TRACKNUMBER=%n" -T "GENRE=%m" -T "COMMENT=%e" %s -o %d


TOC извлечённого CD

Трек | Старт | Длительность | Начальный сектор | Конечный сектор
––––––––––––––––––––––––––––––––––-
1 | 0:00.00 | 2:09.33 | 0 | 9707
2 | 2:09.33 | 2:25.06 | 9708 | 20588
3 | 4:34.39 | 2:50.36 | 20589 | 33374
4 | 7:25.00 | 2:12.11 | 33375 | 43285
5 | 9:37.11 | 2:04.27 | 43286 | 52612
6 | 11:41.38 | 1:43.28 | 52613 | 60365
7 | 13:24.66 | 2:34.61 | 60366 | 71976
8 | 15:59.52 | 2:03.39 | 71977 | 81240
9 | 18:03.16 | 2:20.42 | 81241 | 91782
10 | 20:23.58 | 2:20.41 | 91783 | 102323
11 | 22:44.24 | 2:54.00 | 102324 | 115373
12 | 25:38.24 | 1:57.06 | 115374 | 124154
13 | 27:35.30 | 5:31.16 | 124155 | 148995
14 | 33:06.46 | 3:50.45 | 148996 | 166290


Характеристики диапазона извлечения и сообщения об ошибках

Выбранный диапазон

Имя файла C:\Релиз\John Mayall And The Bluesbreakers - Live At The BBC (2007)\John Mayall and the Bluesbreakers - Live at the BBC.wav

Пиковый уровень 99.8 %
Качество диапазона 99.9 %
CRC копии 93496803
Копирование… OK

Ошибок не произошло

Конец отчёта


[CUETools log; Date: 25.11.2020 15:07:42; Version: 2.1.4]
[AccurateRip ID: 00111f1e-00b89bf1-c108a90e] found.
Track [ CRC | V2 ] Status
01 [a37ab4d1|51ffdb34] (02+02/40) Accurately ripped
02 [4a92222e|daa74680] (02+02/39) Accurately ripped
03 [8eca651c|746bfe6b] (02+02/40) Accurately ripped
04 [09c580b9|1646531d] (02+02/40) Accurately ripped
05 [71048bc7|346990c2] (02+02/40) Accurately ripped
06 [f9869c72|ae7b87ae] (02+02/40) Accurately ripped
07 [fd3c4afe|c5316629] (02+02/39) Accurately ripped
08 [b9eda171|44c5883b] (02+02/40) Accurately ripped
09 [7111d44e|4ab17c12] (02+02/42) Accurately ripped
10 [728d49a1|91d87420] (02+02/42) Accurately ripped
11 [615e397c|3e2a2832] (02+02/42) Accurately ripped
12 [ef690b83|db67ecc0] (02+02/42) Accurately ripped
13 [94a3c763|8e526f66] (02+02/41) Accurately ripped
14 [7821129c|475ee339] (02+02/42) Accurately ripped
Offsetted by 664:
01 [2b366d4a] (16/40) Accurately ripped
02 [1fb7cd58] (15/39) Accurately ripped
03 [cd096124] (16/40) Accurately ripped
04 [f3e98d71] (16/40) Accurately ripped
05 [1e1f2483] (16/40) Accurately ripped
06 [54de21ed] (16/40) Accurately ripped
07 [5f6ef54d] (16/39) Accurately ripped
08 [8a4e28d7] (16/40) Accurately ripped
09 [83de6a73] (16/42) Accurately ripped
10 [49bf15ea] (16/42) Accurately ripped
11 [d74dc04c] (16/42) Accurately ripped
12 [d9f0f3d3] (16/42) Accurately ripped
13 [e2068e86] (16/41) Accurately ripped
14 [0d616dbe] (16/42) Accurately ripped
Offsetted by 1280:
01 [0046f0a6] (00/40) No match (V2 was not tested)
02 [bbcdaeb2] (00/39) No match (V2 was not tested)
03 [c32d57a2] (00/40) No match (V2 was not tested)
04 [0c01cca9] (00/40) No match (V2 was not tested)
05 [5f5ac4a6] (00/40) No match (V2 was not tested)
06 [c5e44669] (00/40) No match (V2 was not tested)
07 [2188b2ac] (00/39) No match (V2 was not tested)
08 [3f2520f1] (00/40) No match (V2 was not tested)
09 [0e120dd5] (00/42) No match (V2 was not tested)
10 [bf037bca] (00/42) No match (V2 was not tested)
11 [7c265bc1] (00/42) No match (V2 was not tested)
12 [2aed8c29] (00/42) No match (V2 was not tested)
13 [7bf1214a] (00/41) No match (V2 was not tested)
14 [340eadf6] (00/42) No match (V2 was not tested)

Track Peak [ CRC32 ] [W/O NULL] [ LOG ]
– 99,8 [93496803] [1461C77E] CRC32
01 96,6 [4EF16D8E] [E7FAF619]
02 96,6 [7D840A7F] [94B9968C]
03 96,6 [EBDD96CB] [4CA94B26]
04 96,6 [D5E8E7FA] [110FC969]
05 97,0 [4BA0FD6D] [FF142CC7]
06 96,6 [387C80F4] [CCEEBDF0]
07 99,8 [C5D56C30] [BEC03F42]
08 96,6 [B79CDED2] [1CDD59E2]
09 96,6 [79A49284] [B6F20A78]
10 96,6 [37BA400B] [496C6158]
11 99,1 [45E9CB22] [77C09CD7]
12 99,2 [A39450C3] [E0F2391B]
13 96,6 [BC736AD2] [9B3F6DC3]
14 96,6 [90E58273] [E58516C8]


John Mayall: Discography & Video (1973-2013) [Part 3, 11CDs & 11DVDs]

Tracklist CD57. 1998 - Silver Tones [BMG Russia, 82876 63610 2]:

1. John Mayall & The Bluesbreakers - Mail Order Mystics (4:42)
2. John Mayall & The Bluesbreakers - Wake Up Call (4:14)
3. John Mayall & The Bluesbreakers - I Could Cry (5:09)
4. John Mayall & The Bluesbreakers - Not At Home (4:10)
5. John Mayall & The Bluesbreakers - When The Devil Starts Crying (4:14)
6. John Mayall & The Bluesbreakers - Spinning Coin (4:40)
7. John Mayall & The Bluesbreakers - Ainґt No Breakman (4:06)
8. John Mayall & The Bluesbreakers - No Big Hurry (3:13)
9. John Mayall & The Bluesbreakers - Dead City (3:49)
10. John Mayall & The Bluesbreakers - Stone Cold Deal (4:18)
11. John Mayall & The Bluesbreakers - Blues For The Lost Days (6:15)
12. John Mayall & The Bluesbreakers - I Donґt Mind (3:16)
13. John Mayall & The Bluesbreakers - Moovinґ Groovinґ Blues (4:13)
14. John Mayall & The Bluesbreakers - Fan The Flames (3:18)

Exact Audio Copy V0.99 prebeta 4 from 23. January 2008

Отчёт EAC об извлечении, выполненном 19. февраля 2009, 22:39

John Mayall & The Bluesbreakers / Silver Tones

Дисковод: TEAC DV-W516GDM Adapter: 2 ID: 1

Режим чтения : Достоверность
Использование точного потока : Да
Отключение кэша аудио : Да
Использование указателей C2 : Нет

Коррекция смещения при чтении : 6
Способность читать области Lead-in и Lead-out : Нет
Заполнение пропущенных сэмплов тишиной : Да
Удаление блоков с тишиной в начале и конце : Нет
При вычислениях CRC использовались нулевые сэмплы : Да
Интерфейс : Установленный внешний ASPI-интерфейс
Обработка зазоров : Добавлено к предыдущему треку

Выходной формат : Пользовательский кодировщик
Выбранный битрейт : 768 kBit/s
Качество : Высокий
Добавление ID3-тэга : Нет
Утилита сжатия : C:\Program Files\FLAC\flac.exe
Дополнительные параметры : -V -8 -T "artist=%a" -T "title=%t" -T "album=%g" -T "date=%y" -T "tracknumber=%n" -T "genre=%m" %s


TOC извлечённого CD

Трек | Старт | Длительность | Начальный сектор | Конечный сектор
––––––––––––––––––––––––––––––––––-
1 | 0:00.00 | 4:42.55 | 0 | 21204
2 | 4:42.55 | 4:14.62 | 21205 | 40316
3 | 8:57.42 | 5:09.38 | 40317 | 63529
4 | 14:07.05 | 4:10.05 | 63530 | 82284
5 | 18:17.10 | 4:14.15 | 82285 | 101349
6 | 22:31.25 | 4:40.45 | 101350 | 122394
7 | 27:11.70 | 4:06.62 | 122395 | 140906
8 | 31:18.57 | 3:13.10 | 140907 | 155391
9 | 34:31.67 | 3:49.33 | 155392 | 172599
10 | 38:21.25 | 4:18.07 | 172600 | 191956
11 | 42:39.32 | 6:15.20 | 191957 | 220101
12 | 48:54.52 | 3:16.63 | 220102 | 234864
13 | 52:11.40 | 4:13.02 | 234865 | 253841
14 | 56:24.42 | 3:18.50 | 253842 | 268741


Трек 1

Имя файла G:\ФЛАКИ\JOHN MAYAL + noncomCUE-SHEET+LOG\01 - Mail Order Mystics.wav

Длина предзазора 0:00:02.00

Пиковый уровень 100.0 %
Качество трека 100.0 %
CRC теста 9717ABC7
CRC копии 9717ABC7
Трек не обнаружен в базе AccurateRip
Копирование… OK

Трек 2

Имя файла G:\ФЛАКИ\JOHN MAYAL + noncomCUE-SHEET+LOG\02 - Wake Up Call.wav

Пиковый уровень 100.0 %
Качество трека 100.0 %
CRC теста AAF4A214
CRC копии AAF4A214
Трек не обнаружен в базе AccurateRip
Копирование… OK

Трек 3

Имя файла G:\ФЛАКИ\JOHN MAYAL + noncomCUE-SHEET+LOG\03 - I Could Cry.wav

Пиковый уровень 100.0 %
Качество трека 100.0 %
CRC теста FFF0058C
CRC копии FFF0058C
Трек не обнаружен в базе AccurateRip
Копирование… OK

Трек 4

Имя файла G:\ФЛАКИ\JOHN MAYAL + noncomCUE-SHEET+LOG\04 - Not At Home.wav

Пиковый уровень 100.0 %
Качество трека 99.9 %
CRC теста B416E2BD
CRC копии B416E2BD
Трек не обнаружен в базе AccurateRip
Копирование… OK

Трек 5

Имя файла G:\ФЛАКИ\JOHN MAYAL + noncomCUE-SHEET+LOG\05 - When The Devil Starts Crying.wav

Пиковый уровень 100.0 %
Качество трека 100.0 %
CRC теста 4CFCCCB6
CRC копии 4CFCCCB6
Трек не обнаружен в базе AccurateRip
Копирование… OK

Трек 6

Имя файла G:\ФЛАКИ\JOHN MAYAL + noncomCUE-SHEET+LOG\06 - Spinning Coin.wav

Пиковый уровень 100.0 %
Качество трека 99.9 %
CRC теста 2E7949FC
CRC копии 2E7949FC
Трек не обнаружен в базе AccurateRip
Копирование… OK

Трек 7

Имя файла G:\ФЛАКИ\JOHN MAYAL + noncomCUE-SHEET+LOG\07 - Ainґt No Breakman.wav

Пиковый уровень 100.0 %
Качество трека 100.0 %
CRC теста 3B61B6B4
CRC копии 3B61B6B4
Трек не обнаружен в базе AccurateRip
Копирование… OK

Трек 8

Имя файла G:\ФЛАКИ\JOHN MAYAL + noncomCUE-SHEET+LOG\08 - No Big Hurry.wav

Пиковый уровень 98.5 %
Качество трека 100.0 %
CRC теста DDC3C54F
CRC копии DDC3C54F
Трек не обнаружен в базе AccurateRip
Копирование… OK

Трек 9

Имя файла G:\ФЛАКИ\JOHN MAYAL + noncomCUE-SHEET+LOG\09 - Dead City.wav

Пиковый уровень 100.0 %
Качество трека 99.9 %
CRC теста F6C39656
CRC копии F6C39656
Трек не обнаружен в базе AccurateRip
Копирование… OK

Трек 10

Имя файла G:\ФЛАКИ\JOHN MAYAL + noncomCUE-SHEET+LOG\10 - Stone Cold Deal.wav

Пиковый уровень 100.0 %
Качество трека 100.0 %
CRC теста A7B45755
CRC копии A7B45755
Трек не обнаружен в базе AccurateRip
Копирование… OK

Трек 11

Имя файла G:\ФЛАКИ\JOHN MAYAL + noncomCUE-SHEET+LOG\11 - Blues For The Lost Days.wav

Пиковый уровень 100.0 %
Качество трека 100.0 %
CRC теста A28052C1
CRC копии A28052C1
Трек не обнаружен в базе AccurateRip
Копирование… OK

Трек 12

Имя файла G:\ФЛАКИ\JOHN MAYAL + noncomCUE-SHEET+LOG\12 - I Donґt Mind.wav

Пиковый уровень 99.2 %
Качество трека 100.0 %
CRC теста 835B5FD2
CRC копии 835B5FD2
Трек не обнаружен в базе AccurateRip
Копирование… OK

Трек 13

Имя файла G:\ФЛАКИ\JOHN MAYAL + noncomCUE-SHEET+LOG\13 - Moovinґ Groovinґ Blues.wav

Пиковый уровень 100.0 %
Качество трека 99.9 %
CRC теста 0DB9B55E
CRC копии 0DB9B55E
Трек не обнаружен в базе AccurateRip
Копирование… OK

Трек 14

Имя файла G:\ФЛАКИ\JOHN MAYAL + noncomCUE-SHEET+LOG\14 - Fan The Flames.wav

Пиковый уровень 100.0 %
Качество трека 100.0 %
CRC теста 09CB9014
CRC копии 09CB9014
Трек не обнаружен в базе AccurateRip
Копирование… OK


Ни одного трека нет в базе AccurateRip

Ошибок не произошло

Конец отчёта


[CUETools log; Date: 25.11.2020 17:43:51; Version: 2.1.4]
[AccurateRip ID: 001f93f1-014eb956-c70dff0e] found.
Track [ CRC | V2 ] Status
01 [5fbe5f9a|d6b77680] (02+00/23) Accurately ripped
02 [b002cf16|b9fcefe7] (02+00/23) Accurately ripped
03 [df235422|acf755c8] (02+00/23) Accurately ripped
04 [1d4ba098|cb8a4929] (02+00/23) Accurately ripped
05 [9e030f44|0a396dda] (02+00/23) Accurately ripped
06 [372a59da|28b69744] (02+00/21) Accurately ripped
07 [56f848b2|24cdcb72] (02+00/23) Accurately ripped
08 [e704eced|16b40375] (02+00/23) Accurately ripped
09 [cf5f8ea5|c61f42a5] (02+00/23) Accurately ripped
10 [60db43c7|b3139baa] (02+00/23) Accurately ripped
11 [1295bb57|6babd6d5] (02+00/23) Accurately ripped
12 [1910598f|14427a64] (02+00/22) Accurately ripped
13 [80dca56f|3b664633] (02+00/22) Accurately ripped
14 [e12bc26f|9ccb3d05] (00+00/20) No match
Offsetted by 1336:
01 [1f73cefa] (04/23) Accurately ripped
02 [ecb89b86] (04/23) Accurately ripped
03 [baf6cc22] (04/23) Accurately ripped
04 [3bb0eb70] (04/23) Accurately ripped
05 [6dd5c80c] (04/23) Accurately ripped
06 [6dd06c12] (04/21) Accurately ripped
07 [62b396f2] (04/23) Accurately ripped
08 [2cc6511d] (04/23) Accurately ripped
09 [a9282b5d] (04/23) Accurately ripped
10 [00691887] (04/23) Accurately ripped
11 [0e04066f] (04/23) Accurately ripped
12 [2484c1b7] (04/22) Accurately ripped
13 [d254ef47] (03/22) Accurately ripped
14 [ab055fa7] (03/20) Accurately ripped
Offsetted by 657:
01 [1254b90e] (00/23) No match (V2 was not tested)
02 [2c865df8] (00/23) No match (V2 was not tested)
03 [4d8a5d22] (00/23) No match (V2 was not tested)
04 [0ebbe815] (00/23) No match (V2 was not tested)
05 [3b96f2f3] (00/23) No match (V2 was not tested)
06 [cd70e7cb] (00/21) No match (V2 was not tested)
07 [394a3d2a] (00/23) No match (V2 was not tested)
08 [d93a1097] (00/23) No match (V2 was not tested)
09 [7767f5c6] (00/23) No match (V2 was not tested)
10 [7aa00def] (00/23) No match (V2 was not tested)
11 [773c730c] (00/23) No match (V2 was not tested)
12 [97394eb2] (00/22) No match (V2 was not tested)
13 [3b834c0c] (00/22) No match (V2 was not tested)
14 [24a02a00] (00/20) No match (V2 was not tested)
Offsetted by 669:
01 [b813ab7e] (02/23) Accurately ripped
02 [f45a0310] (02/23) Accurately ripped
03 [1e760922] (02/23) Accurately ripped
04 [2f32da31] (02/23) Accurately ripped
05 [75688de7] (02/23) Accurately ripped
06 [300a2857] (00/21) No match (V2 was not tested)
07 [02f9e8ca] (02/23) Accurately ripped
08 [b13b090f] (02/23) Accurately ripped
09 [656f2092] (02/23) Accurately ripped
10 [b58b19cf] (02/23) Accurately ripped
11 [64088dc8] (02/23) Accurately ripped
12 [b6c07c16] (02/22) Accurately ripped
13 [850f1ba8] (02/22) Accurately ripped
14 [77af260c] (02/20) Accurately ripped

Track Peak [ CRC32 ] [W/O NULL] [ LOG ]
– 99,9 [A76872AD] [E22A3C6B]
01 99,9 [9717ABC7] [1A255590] CRC32
02 99,9 [AAF4A214] [8DCBC0EF] CRC32
03 99,9 [FFF0058C] [C9EE6DCC] CRC32
04 99,9 [B416E2BD] [DD16C722] CRC32
05 99,9 [4CFCCCB6] [BA319C1B] CRC32
06 99,9 [2E7949FC] [5F989DC9] CRC32
07 99,9 [3B61B6B4] [BB6B7254] CRC32
08 98,5 [DDC3C54F] [1F0E25BD] CRC32
09 99,9 [F6C39656] [B6CA2EB5] CRC32
10 99,9 [A7B45755] [FC29FA24] CRC32
11 99,9 [A28052C1] [3FF1A9A5] CRC32
12 99,2 [835B5FD2] [DFF225CE] CRC32
13 99,9 [0DB9B55E] [A964EC88] CRC32
14 99,9 [09CB9014] [9494607E] CRC32


John Mayall: Discography & Video (1973-2013) [Part 3, 11CDs & 11DVDs]

Tracklist DVD01. 1982 - Jammin' with the blues greats:

John Mayall's Original Bluesbreakers:
An eye for an eye
My time after awhile
The dark side of midnight
Room to move

Etta James:
Baby, what you want me to do

Buddy Guy and Junior Wells:
Messin' with the kid
Don't start me talkin'

Sippie Wallace:
Shorty George

Albert King:
Why are you so mean to me?
Born under a bad sign
Call it stormy monday

Everyone:
C.C. Rider jam

Title: DVD01. 1982 - Jammin' with the blues greats
Size: 4.14 Gb ( 4 341 186,00 KBytes ) - DVD-5
Enabled regions: 1, 2, 3, 4, 5, 6, 7, 8

VTS_01 :
Play Length: 00:00:02+00:00:10+00:00:08+00:00:08+00:03:09+00:01:07+00:00:53+00:02:36+00:02:36+00:02:36+00:02:36+00:02:36+00:00:00+00:00:00+00:00:00+00:00:19+01:30:24
Video: PAL 4:3 (720x576) VBR
Audio:
English (Dolby AC3, 2 ch)
Subtitles:
English


John Mayall: Discography & Video (1973-2013) [Part 3, 11CDs & 11DVDs]

John Mayall: Discography & Video (1973-2013) [Part 3, 11CDs & 11DVDs]

John Mayall: Discography & Video (1973-2013) [Part 3, 11CDs & 11DVDs]

* * * * *

John Mayall: Discography & Video (1973-2013) [Part 3, 11CDs & 11DVDs]

Tracklist DVD02. 1987 - Palast Der Republik, Berlin, DDR:

01. She's Out There Somewhere
02. Somebody's Acting Like A Child
03. All Your Love
04. Ridin' On The L&N
05. Racehorse Man
06. Hound Dog
07. The Bear
08. Wild About You
09. The Things That I Used To Do
10. Rolling With The Blues
11. Room To Move
12. Looking Back
13. I Ain't Got You

Title: DVD02. 1987 - Palast Der Republik, Berlin, DDR
Size: 4.10 Gb ( 4 303 784,00 KBytes ) - DVD-5
Enabled regions: 1, 2, 3, 4, 5, 6

VTS_01 :
Play Length: 01:42:19
Video: PAL 4:3 (720x576) VBR
Audio:
Not specified (LinearPCM, 2 ch)


John Mayall: Discography & Video (1973-2013) [Part 3, 11CDs & 11DVDs]

John Mayall: Discography & Video (1973-2013) [Part 3, 11CDs & 11DVDs]

John Mayall: Discography & Video (1973-2013) [Part 3, 11CDs & 11DVDs]

* * * * *

John Mayall: Discography & Video (1973-2013) [Part 3, 11CDs & 11DVDs]

Tracklist DVD03. 2003 - John Mayall 70th Birthday Concert:

1. Southside Story
02. Kids Got The Blues
03. Dirty Water
04. Somebody's Acting Like A Child
05. Blues For The Lost Days
06. Walking On Sunset
07. Oh, Pretty Woman
08. No Big Hurry
09. Please Mr. Lofton
10. Hideaway
11. All Your Love
12. Have You Heard
13. Hoochi Coochi Man
14. I'm Tore Down
15. It Ain't Right
16. Talk To Your Daughte

Title: DVD03. 2003 - John Mayall 70th Birthday Concert
Size: 7.39 Gb ( 7 746 420,00 KBytes ) - DVD-9
Enabled regions: 1, 2, 3, 4, 5, 6, 7, 8

VTS_01 :
Play Length: 02:02:55+00:00:05+00:00:17
Video: PAL 16:9 (720x576) VBR, Auto Letterboxed
Audio:
English (Dolby AC3, 2 ch)
English (Dolby AC3, 6 ch)
English (DTS, 6 ch)

VTS_02 :
Play Length: 00:12:03
Video: PAL 16:9 (720x576) VBR, Auto Letterboxed
Audio:
English (Dolby AC3, 2 ch)

VTS_03 :
Play Length: 00:00:00
Video: PAL 16:9 (720x576) VBR, Auto Letterboxed


John Mayall: Discography & Video (1973-2013) [Part 3, 11CDs & 11DVDs]

John Mayall: Discography & Video (1973-2013) [Part 3, 11CDs & 11DVDs]

John Mayall: Discography & Video (1973-2013) [Part 3, 11CDs & 11DVDs]

* * * * *

John Mayall: Discography & Video (1973-2013) [Part 3, 11CDs & 11DVDs]

Tracklist DVD04. 2004 - The Godfather of British Blues & The Turning Point:

1. The Godfather of British Blues
2. The Turning Point

Title: DVD04. 2004 - The Godfather of British Blues & The Turning Point
Size: 4.28 Gb ( 4 485 360,00 KBytes ) - DVD-5
Enabled regions: 1, 2, 3, 4, 5, 6, 7, 8

VTS_01 :
Play Length: 00:58:42
Video: NTSC 16:9 (720x480) VBR, Auto Letterboxed
Audio:
English (LinearPCM, 2 ch)
Subtitles:
English
Francais
Espanol

VTS_02 :
Play Length: 00:24:21
Video: NTSC 4:3 (720x480) VBR
Audio:
English (LinearPCM, 2 ch)
Subtitles:
English
Francais
Espanol

VTS_03 :
Play Length: 00:00:25
Video: NTSC 16:9 (720x480) VBR, Auto Letterboxed
Audio:
English (Dolby AC3, 2 ch)


John Mayall: Discography & Video (1973-2013) [Part 3, 11CDs & 11DVDs]

John Mayall: Discography & Video (1973-2013) [Part 3, 11CDs & 11DVDs]

John Mayall: Discography & Video (1973-2013) [Part 3, 11CDs & 11DVDs]

* * * * *

John Mayall: Discography & Video (1973-2013) [Part 3, 11CDs & 11DVDs]

Tracklist DVD05. 2005 - John Mayall Rollin with the blues:

01 Introduction
02 Birthday Blues
03 Rolling With The Blues
04 I'm Your Witchdoctor
05 Parchman Farm
06 Lost And Gone
07 Riding On The L.N.
08 John Lee Boogie
09 Little Girl
10 Why Worry
11 It Ain't Right
12 Stepping Out
13 Roadshow
14 Room To Move
15 One Life To Live
16 Blues Lighning

Title: DVD05. 2005 - John Mayall Rollin with the blues
Size: 3.70 Gb ( 3 881 352,00 KBytes ) - DVD-5
Enabled regions: 1, 2, 3, 4, 5, 6, 7, 8

VTS_01 :
Play Length: 00:00:41+01:11:01+00:03:27
Video: PAL 4:3 (720x576) VBR
Audio:
English (Dolby AC3, 6 ch)


John Mayall: Discography & Video (1973-2013) [Part 3, 11CDs & 11DVDs]

John Mayall: Discography & Video (1973-2013) [Part 3, 11CDs & 11DVDs]

John Mayall: Discography & Video (1973-2013) [Part 3, 11CDs & 11DVDs]

* * * * *

John Mayall: Discography & Video (1973-2013) [Part 3, 11CDs & 11DVDs]

Tracklist DVD06. 2006 - Cookin' Down Under:

1 Southside Story
2 Kids Got The Blues
3 Early In The Morning
4 The Witching Hour
5 Hideaway
6 No Days Off
7 Pieces And Parts
8 Kokomo
9 Room To Move

Title: DVD06. 2006 - Cookin' Down Under
Size: 4.20 Gb ( 4 404 920,00 KBytes ) - DVD-5
Enabled regions: 1, 2, 3, 4, 5, 6, 7, 8

VTS_01 :
Play Length: 00:00:12
Video: NTSC 4:3 (720x480) VBR

VTS_02 :
Play Length: 00:00:10
Video: NTSC 4:3 (720x480) VBR

VTS_03 :
Play Length: 01:20:17
Video: NTSC 4:3 (720x480) VBR
Audio:
Not specified (LinearPCM, 2 ch)


John Mayall: Discography & Video (1973-2013) [Part 3, 11CDs & 11DVDs]

* * * * *

John Mayall: Discography & Video (1973-2013) [Part 3, 11CDs & 11DVDs]

Tracklist DVD07. 2008 - Live at Iowa State University:

Birthday Blues
Rolling With The Blues
Parchman Farm
Riding On The L & N
Little Girl
Stepping Out
It Ain't Right
One Life To Live
Room To Move

Bonus Materials:
Back Stage Interview with John Mayall
Umbrella Propaganda

Title: DVD07. 2008 - Live at Iowa State University
Size: 2.53 Gb ( 2 654 234,00 KBytes ) - DVD-5
Enabled regions: 1, 2, 3, 4, 5, 6, 7, 8

VTS_01 :
Play Length: 00:00:31
Video: PAL 4:3 (720x576) VBR
Audio:
Not specified (Dolby AC3, 2 ch)

VTS_02 :
Play Length: 00:49:26
Video: PAL 4:3 (720x576) VBR
Audio:
Not specified (Dolby AC3, 2 ch)

VTS_03 :
Play Length: 00:00:51
Video: PAL 4:3 (720x576) VBR
Audio:
Not specified (Dolby AC3, 2 ch)

VTS_04 :
Play Length: 00:01:15
Video: PAL 4:3 (720x576) VBR
Audio:
Not specified (Dolby AC3, 2 ch)

VTS_05 :
Play Length: 00:02:07
Video: PAL 4:3 (720x576) VBR
Audio:
Not specified (Dolby AC3, 2 ch)

VTS_06 :
Play Length: 00:03:50
Video: PAL 4:3 (720x576) VBR
Audio:
Not specified (Dolby AC3, 2 ch)

VTS_07 :
Play Length: 00:01:22
Video: PAL 4:3 (720x576) VBR
Audio:
Not specified (Dolby AC3, 2 ch)


John Mayall: Discography & Video (1973-2013) [Part 3, 11CDs & 11DVDs]

John Mayall: Discography & Video (1973-2013) [Part 3, 11CDs & 11DVDs]

John Mayall: Discography & Video (1973-2013) [Part 3, 11CDs & 11DVDs]

* * * * *

John Mayall: Discography & Video (1973-2013) [Part 3, 11CDs & 11DVDs]

Tracklist DVD08. 2011 - Live in London:

1. ANOTHER MAN
2. CHICAGO LINE
3. RIDIN' ON THE L & N
4. SO MANY ROADS
5. CHECKING ON MY BABY
6. MOVIN' OUT AND MOVIN' ON
7. MAIL ORDER MYSTICS
8. PARCHMAN FARM
9. EARLY IN THE MORNING
10. CALIFORNIA
11. MY TIME AFTER AWHILE
12. ROOM TO MOVE
13. HIDEAWAY

Title: DVD08. 2011 - Live in London
Size: 4.34 Gb ( 4 553 330,00 KBytes ) - DVD-5
Enabled regions: 1, 2, 3, 4, 5, 6, 8

VTS_01 :
Play Length: 01:37:21
Video: PAL 16:9 (720x576) VBR, Auto Letterboxed
Audio:
Not specified (Dolby AC3, 2 ch)


John Mayall: Discography & Video (1973-2013) [Part 3, 11CDs & 11DVDs]

John Mayall: Discography & Video (1973-2013) [Part 3, 11CDs & 11DVDs]

* * * * *

John Mayall: Discography & Video (1973-2013) [Part 3, 11CDs & 11DVDs]

Tracklist DVD09. 2012 - Lost Broadcasts:

1. I'm Gonna Fight For You J.B. - 4:32
2. The Train - 7:38
3. My Pretty Girl - 5:13
4. Deep Blue Sea - 5:18

Title: DVD09. 2012 - Lost Broadcasts
Size: 1.16 Gb ( 1 215 158,00 KBytes ) - DVD-5
Enabled regions: 1, 2, 3, 4, 5, 6, 8

VTS_01 :
Play Length: 00:00:04
Video: NTSC 4:3 (720x480) VBR

VTS_02 :
Play Length: 00:00:41
Video: NTSC 4:3 (720x480) VBR
Audio:
Not specified (Dolby AC3, 2 ch)

VTS_03 :
Play Length: 00:22:42+{00:22:42}
Video: NTSC 4:3 (720x480) VBR
Audio:
Not specified (Dolby AC3, 2 ch)

VTS_04 :
Play Length: 00:00:10
Video: NTSC 4:3 (720x480) VBR


John Mayall: Discography & Video (1973-2013) [Part 3, 11CDs & 11DVDs]

John Mayall: Discography & Video (1973-2013) [Part 3, 11CDs & 11DVDs]

John Mayall: Discography & Video (1973-2013) [Part 3, 11CDs & 11DVDs]

* * * * *

John Mayall: Discography & Video (1973-2013) [Part 3, 11CDs & 11DVDs]

Tracklist DVD10. 2012 - Sweet Little Angel - Live On Stage:

01. Sweet Little Angel Live (1970)
02. California (1970)
03. Travellin' Man (1970)
04. I'm Gonna Fight For You (1970)
05. With Albert King - Stormy Monday (1982)
06. The Bluesbreakers Festival Jazz San Javier (2007)
07. Another Man Done Gone (2010)
08. Checkin' Upon My Baby (2010)
09. Ridin' on the L&N (2010)
10. Room to Move (2010)
11. Hideaway From Odense (2011)

Title: DVD10. 2012 - Sweet Little Angel - Live On Stage
Size: 3.58 Gb ( 3 757 654,00 KBytes ) - DVD-5
Enabled regions: 1, 2, 3, 4, 5, 6, 7, 8

VTS_01 :
Play Length: 01:02:19
Video: NTSC 4:3 (720x480) VBR
Audio:
English (Dolby AC3, 2 ch)


John Mayall: Discography & Video (1973-2013) [Part 3, 11CDs & 11DVDs]

John Mayall: Discography & Video (1973-2013) [Part 3, 11CDs & 11DVDs]

John Mayall: Discography & Video (1973-2013) [Part 3, 11CDs & 11DVDs]

* * * * *

John Mayall: Discography & Video (1973-2013) [Part 3, 11CDs & 11DVDs]

Tracklist DVD11. 2013 - Pop Deux:

September 10, 1970, Paris, France:

Introduction
Duster Bennett: Bringing On Home To You
Duster Bennett: My Babe
Duster Bennett: Let It Shine
John Mayall: Sweet Little Angel
John Mayall: Travellin' Man
John Mayall: California
John Mayall: Tell Me Baby

POP2, 1971:

Off The Road
Nature's Disappearing

Beat Club, 1970-1971:

I'm Gonna Fight For You J.B.
My Pretty Girl

Title: DVD11. 2013 - Pop Deux
Size: 3.12 Gb ( 3 268 620,00 KBytes ) - DVD-5
Enabled regions: 1, 2, 3, 4, 5, 6, 7, 8

VTS_01 :
Play Length: 00:38:10
Video: PAL 4:3 (720x576) VBR
Audio:
Not specified (Dolby AC3, 2 ch)

VTS_02 :
Play Length: 00:09:04
Video: PAL 4:3 (720x576) VBR
Audio:
Not specified (MPEG1, 2 ch)


John Mayall: Discography & Video (1973-2013) [Part 3, 11CDs & 11DVDs]

John Mayall: Discography & Video (1973-2013) [Part 3, 11CDs & 11DVDs]

John Mayall: Discography & Video (1973-2013) [Part 3, 11CDs & 11DVDs]

All thanks go to the original releasers

John Mayall in my Blog

Download John Mayall: Discography & Video (1973-2013):