Tags
Language
Tags

John Mayall & Friends - Along For The Ride (2001) [2018, 2LP, Vinyl Rip 16/44 & mp3-320 + DVD] Re-up

Posted By: v3122
John Mayall & Friends - Along For The Ride (2001) [2018, 2LP, Vinyl Rip 16/44 & mp3-320 + DVD] Re-up

John Mayall & Friends - Along For The Ride (2001)
Vinyl Rip 16/44 | Flac(Image + Cue) > 398 Mb
MP3 CBR 320Kbps > 145 Mb | Artwork(jpg) > 22 Mb
DVD-5: NTSC 4:3 (720x480) VBR | LPCM, 2 ch, 24 bit, 96 kHz > 2.14 Gb
Ear Music - 0212936EMX | Blues Rock, Electric Blues

By the time this was released in 2001, John Mayall was more known for the people who played in his seminal British band, the Bluesbreakers rather than his own accomplishments. The success of 1999's Padlock on the Blues afforded Mayall the opportunity to fulfill his dreams and gather an all-star lineup of blues and rock luminaries. "A World of Hurt" and "That's Why I Love You So" both typify the good but not great groove that permeates Along for the Ride. Better tracks "Yo Yo Man" and "Early in the Morning" are easygoing blues that feature the great rhythm section of John McVie and Mick Fleetwood. Fellow Fleetwood Mac and Bluesbreaker alum, the reclusive Peter Green plays acoustic slide guitar on "Yo-Yo Man." "So Many Roads" has Mayall dueting with Otis Rush, and it soon becomes a contest on who sounds more disgruntled. The playful "Testify" features vocals and subtle guitar lines from blues phenom Shannon Curfman. This ends on the strong note. The powerful and wry "She Don't Play By the Rules" has Mayall with arguably the strongest and most subtle band with Mick Taylor on lead guitar and Andy Fairweather Low on acoustic guitar. Along for the Ride is produced, engineered, and mixed by David Z. Despite the camaraderie, a lot of the hooks here don't stick, and fans of Mayall and superstar sessions will get the most from this effort.

by Jason Elias, allmusic
John Mayall & Friends - Along For The Ride (2001):

John Mayall & Friends - Along For The Ride (2001) [2018, 2LP, Vinyl Rip 16/44 & mp3-320 + DVD] Re-up

Tracklist:

Side 1

A1 - A World Of Hurt - 4:31
Bass Guitar – David Smith / Drums – Joe Yuele / Guitar – Buddy Whittington
Organ [Hammond Organ] – Tom Canning / Rhythm Guitar – Steve Cropper
Vocals, Lead Guitar – Jeff Healey / Vocals, Piano – John Mayall
Written-By – Glen Clark, Jeff Silbar
A2 - Along For The Ride - 4:50
Acoustic Guitar – Buddy Whittington / Bass Guitar – David Smith / Drums – Joe Yuele
Organ [Hammond Organ] – Tom Canning / Percussion – Lenny Castro
Vocals, Electric Piano [Wurlitzer Piano], Melodica – Billy Preston
Vocals, Harmonica, Piano – John Mayall / Written-By – Cook, Fuller
A3 - Put It Right Back - 4:31
Bass Guitar – David Smith / Drums – Joe Yuele / Lead Guitar – Billy F Gibbons
Organ [Hammond Organ] – Tom Canning / Rhythm Guitar [Rhythm Guitars] – Buddy Whittington
Vocals, Piano – John Mayall / Written-By – Walter Trout

Side 2

B1 - That’s Why I Love You So - 4:15
Bass Guitar – David Smith / Drums – Joe Yuele / Lead Guitar – Jonny Lang
Organ [Hammond Organ] – Reese Wynans / Rhythm Guitar – Buddy Whittington, David Z
Vocals – Crystal Taliefero, Wendy Moten / Vocals, Piano – John Mayall
Written-By – Jerry Williams
B2 - Yo Yo Man - 2:59
Bass Guitar – John McVie/ Drums – Mick Fleetwood / Guitar – Steve Miller
Percussion – Lenny Castro / Slide Guitar [Acoustic Slide Guitar] – Peter Green
Vocals, Harmonica, Clavinet – John Mayall / Written-By – Tony Joe White
B3 - If I Don’t Get Home - 5:21
Bass Guitar – Bob Delgado / Drums – Joe Yuele / Guitar – Joe Delgado
Lead Guitar – Gary Moore / Organ [Hammond Organ] – Reese Wynans
Vocals, Electric Piano [Wurlitzer Piano], Harmonica – John Mayall
Written-By – The Delgado Brothers
B4 - Testify - 4:27
Bass Guitar – David Smith / Drums – Joe Yuele / Organ [Hammond Organ] – Reese Wynans
Piano – Tom Canning / Rhythm Guitar – Buddy Whittington
Rhythm Guitar [Wah Wah Rhythm Guitar] – David Z / Vocals, Lead Guitar – Shannon Curfman
Vocals – Crystal Taliefero, John Mayall, Wendy Moten / Written-By – Stark, Bowe

Side 3

C1 - Early In The Morning - 4:08
Alto Saxophone – Dick Heckstall-Smith / Bass Guitar – John McVie / Drums – Mick Fleetwood
Percussion – Lenny Castro / Rhythm Guitar – Andy Fairweather Low, Steve Miller
Vocals – Chris Rea / Vocals, Piano, Organ [Hammond Organ] – John Mayall
Written-By – Bartley, Hickman, Jordan
C2 - Something About My Baby - 4:18
Bass Guitar – David Smith / Drums – Joe Yuele / Lead Guitar, Rhythm Guitar – Buddy Whittington
Organ [Hammond Organ] – Tom Canning / Percussion – Lenny Castro
Vocals – Andy Fairweather Low / Vocals, Piano – John Mayall / Written-By – The Delgado Brothers
C3 - So Many Roads - 6:11
Bass Guitar – Greg Rzab / Drums – Joe Yuele / Lead Guitar – Buddy Whittington
Organ [Hammond Organ] – Reese Wynans / Vocals – Otis Rush
Vocals, Piano, Slide Guitar – John Mayall / Written-By – Paul

Side 4

D1 - World War Blues - 4:27
Bass Guitar – David Smith / Clavinet – Billy Preston / Drums – Joe Yuele
Electric Piano [Wurlitzer Piano] – Tom Canning / Guitar – Buddy Whittington
Percussion – Lenny Castro / Vocals, Harmonica – John Mayall / Written-By – Eric Bibb
D2 - California - 5:56
Acoustic Guitar – Davy Graham / Bass Guitar – David Smith / Drums – Joe Yuele
Guitar – Buddy Whittington / Organ [Hammond Organ] – Tom Canning / Percussion – Lenny Castro
Tenor Saxophone – Red Holloway / Vocals, Piano, Harmonica – John Mayall
Written-By – Mayall, Thompson
D3 - She Don’t Play By The Rules - 5:12
Acoustic Guitar – Andy Fairweather Low / Bass Guitar – David Smith / Drums – Joe Yuele
Lead Guitar – Mick Taylor / Organ [Hammond Organ] – Tom Canning / Percussion – Lenny Castro
Rhythm Guitar – Buddy Whittington / Vocals, Harmonica – John Mayall
Written-By – Buddy Flett, David Egan, Earl Cate, Ernie Cate

foobar2000 1.4 / Dynamic Range Meter 1.1.1
log date: 2019-02-20 07:36:05

––––––––––––––––––––––––––––––––––––––––
Analyzed: John Mayall & Friends / Along For The Ride
––––––––––––––––––––––––––––––––––––––––

DR Peak RMS Duration Track
––––––––––––––––––––––––––––––––––––––––
DR14 -0.18 dB -16.15 dB 4:31 01-A World Of Hurt
DR14 -0.23 dB -16.01 dB 4:51 02-Along For The Ride
DR14 -0.90 dB -16.52 dB 4:33 03-Put It Right Back
DR14 -0.22 dB -15.68 dB 4:14 04-That's Why I Love You So
DR14 -0.21 dB -17.00 dB 3:01 05-Yo Yo Man
DR14 -0.58 dB -16.97 dB 5:20 06-If I Don't Get Home
DR13 -0.12 dB -15.87 dB 4:27 07-Testify
DR14 -0.55 dB -16.34 dB 4:07 08-Early In The Morning
DR14 -0.30 dB -16.26 dB 4:18 09-Something About My Baby
DR13 -0.76 dB -16.31 dB 6:11 10-So Many Roads
DR15 -0.66 dB -17.36 dB 4:27 11-World War Blues
DR14 -0.48 dB -16.79 dB 5:57 12-California
DR14 -0.15 dB -16.14 dB 5:20 13-She Don't Play By The Rules
––––––––––––––––––––––––––––––––––––––––

Number of tracks: 13
Official DR value: DR14

Samplerate: 192000 Hz
Channels: 2
Bits per sample: 24
Bitrate: 5399 kbps
Codec: FLAC
================================================================================



Title: John Mayall & Friends 2001 - Along For The Ride - DVD
Size: 2.03 Gb ( 2 130 440,00 KBytes ) - DVD-5
Enabled regions: 1, 2, 3, 4, 5, 6, 7, 8

VTS_01 :
Play Length: 01:01:12
Video: NTSC 4:3 (720x480) VBR
Audio:
Not specified (LinearPCM, 2 ch)



Original ripper: Rockmaninov
Original format: 24/192
Vinyl Condition: Mint
Cleaning:
Direct Drive Turntable: Vintage (1982) Yamaha PX-3
Cartridge: Sumiko Black Bird
Amplifier: Audio Research SP15 own tube phono section
ADC: RME Fireface UC
Postprocessing: Very careful de-clicking with iZotope RX5 Advanced

Downsampled to 24/96 & 16/44

John Mayall & Friends - Along For The Ride (2001) [2018, 2LP, Vinyl Rip 16/44 & mp3-320 + DVD] Re-up

John Mayall & Friends - Along For The Ride (2001) [2018, 2LP, Vinyl Rip 16/44 & mp3-320 + DVD] Re-up

John Mayall in my Blog

Download John Mayall & Friends - Along For The Ride (2001):