Tags
Language
Tags

John McLaughlin - Devotion (1970) [Reissue 1984]

Posted By: gribovar
John McLaughlin - Devotion (1970) [Reissue 1984]

John McLaughlin - Devotion (1970) [Reissue 1984]
EAC Rip | FLAC (image+.cue+log) - 198 MB | MP3 CBR 320 kbps (LAME 3.93) - 84 MB | Covers - 7 MB
Genre: Jazz Rock, Fusion | RAR 3% Rec. | Label: Celluloid (CELD5010)

This album is from a pivotal moment in McLaughlin's history. This was just after he left Miles' group, but before Mahavishnu Orchestra started, and the music captures this moment perfectly. McLaughlin's technique had not progressed to "Mahavishnu" perfection yet, but the music has the in-your-face rock drive of the Mahavishnu Orchestra. This recording date grew out of sessions Alan Douglas put together, featuring McLaughlin and Larry Young jamming with Jimi Hendrix and Buddy Miles (Billy Rich was the bass player). McLaughlin sounded timid next to Hendrix (none of the material with Hendrix has been officially released), but really comes to life on Devotion. This is arguably one of the finest acid rock albums of all time. McLaughlin is on fire, using fuzzboxes and phasers, over Larry Young's swirling Hammond B-3, with Billy Rich and Buddy Miles as the rock-solid rhythm section. If you think that McLaughlin's solo at the end of "Right Off" (from A Tribute to Jack Johnson) is one of the high points of his career, then this is the album for you. Soon after this album was recorded, McLaughlin holed up, practiced like crazy, and re-emerged as "Mahavishnu" John McLaughlin, with both a new sound and a new band. Documenting the period just before that transition, Devotion is a complete anomaly in his catalog, as well as one of his finest achievements.
Tracklist:
01. Marbles / Siren
02. Don't Let the Dragon Eat Your Mother
03. Purpose of When
04. Dragon Song
05. Devotion

Total time: 36:40

Exact Audio Copy V0.99 prebeta 4 from 23. January 2008

EAC extraction logfile from 15. December 2009, 22:25

John McLaughlin / Devotion

Used drive : HL-DT-STRW/DVD GCC-4242N Adapter: 1 ID: 0

Read mode : Secure
Utilize accurate stream : Yes
Defeat audio cache : Yes
Make use of C2 pointers : No

Read offset correction : 102
Overread into Lead-In and Lead-Out : No
Fill up missing offset samples with silence : Yes
Delete leading and trailing silent blocks : No
Null samples used in CRC calculations : Yes
Used interface : Native Win32 interface for Win NT & 2000

Used output format : Internal WAV Routines
Sample format : 44.100 Hz; 16 Bit; Stereo


TOC of the extracted CD

Track | Start | Length | Start sector | End sector
––––––––––––––––––––––––––––-
1 | 0:00.33 | 9:56.15 | 33 | 44747
2 | 9:56.48 | 5:17.35 | 44748 | 68557
3 | 15:14.08 | 4:45.15 | 68558 | 89947
4 | 19:59.23 | 4:14.45 | 89948 | 109042
5 | 24:13.68 | 11:26.07 | 109043 | 160499


Range status and errors

Selected range

Filename C:\_\EAC_Out\Out\John McLaughlin - Devotion\John McLaughlin - Devotion.wav

Peak level 69.0 %
Range quality 100.0 %
Copy CRC 749B4425
Copy OK

No errors occurred


AccurateRip summary

Track 1 accurately ripped (confidence 3) [56A07CBA]
Track 2 accurately ripped (confidence 3) [D2665E76]
Track 3 accurately ripped (confidence 3) [1E603A6F]
Track 4 accurately ripped (confidence 3) [2495AC46]
Track 5 accurately ripped (confidence 3) [51EBFCB9]

All tracks accurately ripped

End of status report

[CUETools log; Date: 23.08.2021 0:04:38; Version: 2.1.4]
Pregap length 00:00:33.
[CTDB TOCID: 0BolMcYC.Y7jL2YF1SpLiEnu1D8-] found.
Track | CTDB Status
1 | (24/25) Accurately ripped
2 | (24/25) Accurately ripped
3 | (25/25) Accurately ripped
4 | (24/25) Accurately ripped
5 | (24/25) Accurately ripped
[AccurateRip ID: 000736fe-0021020a-3b085c05] found.
Track [ CRC | V2 ] Status
01 [56a07cba|31a9aa9b] (06+09/15) Accurately ripped
02 [d2665e76|40c38401] (06+09/15) Accurately ripped
03 [1e603a6f|e6a021dd] (06+09/15) Accurately ripped
04 [2495ac46|1c16fc32] (06+09/15) Accurately ripped
05 [51ebfcb9|277495eb] (05+08/13) Accurately ripped

Track Peak [ CRC32 ] [W/O NULL] [ LOG ]
– 69,0 [749B4425] [61A1063B] CRC32
01 65,8 [2BC1D046] [8F3044F8]
02 63,6 [BC7F043A] [0E531B34]
03 54,1 [4465C8D5] [38E366A7]
04 63,2 [83E73D76] [9ECB5975]
05 69,0 [111EF54A] [F00C4EB9]

Thanks to barin99