Tags
Language
Tags
April 2024
Su Mo Tu We Th Fr Sa
31 1 2 3 4 5 6
7 8 9 10 11 12 13
14 15 16 17 18 19 20
21 22 23 24 25 26 27
28 29 30 1 2 3 4

John Mellencamp - The Best That I Could Do 1978-1988 (1997)

Posted By: popsakov
John Mellencamp - The Best That I Could Do 1978-1988 (1997)

John Mellencamp - The Best That I Could Do 1978-1988 (1997)
EAC Rip | FLAC (Img) + Cue + Log ~ 462 Mb | MP3 CBR320 ~ 171 Mb
Scans Included | 00:58:50 | RAR 5% Recovery
Rock | Mercury Records #P2-36738 | US

The Best That I Could Do is an appropriately self-deprecating title for John Mellencamp's greatest-hits collection, considering that the heartland rocker never seemed too convinced of his own worth. Of course, he had to struggle to get any respect after he was saddled with the stage name Johnny Cougar early in his career, but this 14-track collection proves that he was one of the best, unabashed straight-ahead rockers of the '80s. The 14 tracks here actually turn out to be a little too short to contain all of his great singles – songs like "Rain on the Scarecrow," "Rumbleseat," "Pop Singer," "Again Tonight," and "What If I Came Knocking" are left off the collection (there's nothing from 1988's Big Daddy at all) – but it's hard to argue with what's here. Over the course of the collection, such classic rock hits as "I Need a Lover," "Hurts So Good," "Jack and Diane," "Crumblin' Down," "Pink Houses," "Lonely Ol' Night," "Small Town," "Paper in Fire," "Cherry Bomb," and "Check It Out" are chronicled, with a new cover of Terry Reid's "Without Expression" added for good measure. It may fall short of being definitive, but only by a small margin, and it remains an excellent overview and introduction to Mellencamp's remarkably consistent body of work.

~ Stephen Thomas Erlewine, All Music

***************

John Mellencamp - The Best That I Could Do 1978-1988 (1997)

Track List:

01. I Need A Lover [5:38]
02. Ain't Even Done With The Night [4:38]
03. Hurts So Good [3:40]
04. Jack And Diane [4:16]
05. Crumblin' Down [3:35]
06. Pink Houses [4:44]
07. Authority Song [3:50]
08. Lonely Ol' Night [3:46]
09. Small Town [3:41]
10. R.O.C.K. In The U.S.A. [2:55]
11. Paper In Fire [3:52]
12. Cherry Bomb [4:49]
13. Check It Out [4:20]
14. Without Expression [5:06]

Exact Audio Copy V1.1 from 23. June 2015

EAC extraction logfile from 20. November 2016, 11:46

John Mellencamp / The Best That I Could Do (1978-1988)

Used drive : HL-DT-STDVDRAM GH22NS40 Adapter: 1 ID: 0

Read mode : Secure
Utilize accurate stream : Yes
Defeat audio cache : Yes
Make use of C2 pointers : No

Read offset correction : 667
Overread into Lead-In and Lead-Out : No
Fill up missing offset samples with silence : Yes
Delete leading and trailing silent blocks : No
Null samples used in CRC calculations : Yes
Used interface : Native Win32 interface for Win NT & 2000

Used output format : User Defined Encoder
Selected bitrate : 1024 kBit/s
Quality : High
Add ID3 tag : No
Command line compressor : C:\Program Files\Exact Audio Copy\Flac\flac.exe
Additional command line options : -V -8 -T "Date=%year%" -T "Genre=%genre%" %source%


TOC of the extracted CD

Track | Start | Length | Start sector | End sector
––––––––––––––––––––––––––––-
1 | 0:00.32 | 5:37.55 | 32 | 25361
2 | 5:38.12 | 4:38.13 | 25362 | 46224
3 | 10:16.25 | 3:39.52 | 46225 | 62701
4 | 13:56.02 | 4:15.50 | 62702 | 81876
5 | 18:11.52 | 3:35.15 | 81877 | 98016
6 | 21:46.67 | 4:44.25 | 98017 | 119341
7 | 26:31.17 | 3:49.45 | 119342 | 136561
8 | 30:20.62 | 3:45.45 | 136562 | 153481
9 | 34:06.32 | 3:40.68 | 153482 | 170049
10 | 37:47.25 | 2:55.35 | 170050 | 183209
11 | 40:42.60 | 3:51.72 | 183210 | 200606
12 | 44:34.57 | 4:49.13 | 200607 | 222294
13 | 49:23.70 | 4:20.10 | 222295 | 241804
14 | 53:44.05 | 5:05.72 | 241805 | 264751


Range status and errors

Selected range

Filename I:\Rips\John Mellencamp - The Best That I Could Do (1978-1988).wav

Peak level 100.0 %
Extraction speed 6.1 X
Range quality 100.0 %
Test CRC A6555F8B
Copy CRC A6555F8B
Copy OK

No errors occurred


AccurateRip summary

Track 1 accurately ripped (confidence 10) [0095DE95] (AR v2)
Track 2 accurately ripped (confidence 10) [F01D53BE] (AR v2)
Track 3 accurately ripped (confidence 10) [9D840CC6] (AR v2)
Track 4 accurately ripped (confidence 10) [59341C26] (AR v2)
Track 5 accurately ripped (confidence 10) [EC008E55] (AR v2)
Track 6 accurately ripped (confidence 10) [0DCF47EE] (AR v2)
Track 7 accurately ripped (confidence 10) [BCCE78C4] (AR v2)
Track 8 accurately ripped (confidence 10) [6D646102] (AR v2)
Track 9 accurately ripped (confidence 10) [70AA2445] (AR v2)
Track 10 accurately ripped (confidence 10) [A800757E] (AR v2)
Track 11 accurately ripped (confidence 10) [E4888103] (AR v2)
Track 12 accurately ripped (confidence 10) [9EB62295] (AR v2)
Track 13 accurately ripped (confidence 10) [EB9B99CF] (AR v2)
Track 14 accurately ripped (confidence 10) [07F8555D] (AR v2)

All tracks accurately ripped

End of status report

–– CUETools DB Plugin V2.1.6

[CTDB TOCID: rUwl6M65TV3fS_eGwsxLoyH4tII-] found
Submit result: already submitted
Track | CTDB Status
1 | (12/12) Accurately ripped
2 | (12/12) Accurately ripped
3 | (12/12) Accurately ripped
4 | (12/12) Accurately ripped
5 | (12/12) Accurately ripped
6 | (12/12) Accurately ripped
7 | (12/12) Accurately ripped
8 | (12/12) Accurately ripped
9 | (12/12) Accurately ripped
10 | (12/12) Accurately ripped
11 | (12/12) Accurately ripped
12 | (12/12) Accurately ripped
13 | (11/12) Accurately ripped
14 | (12/12) Accurately ripped


==== Log checksum 092F20925181A84AF12661D2BDF4DB77DA39D02F6F8F66F3BDB82F02245D8920 ====

foobar2000 1.2.6 / Dynamic Range Meter 1.1.1
log date: 2016-12-02 21:04:51

––––––––––––––––––––––––––––––––––––––––
Analyzed: John Mellencamp / The Best That I Could Do (1978-1988)
––––––––––––––––––––––––––––––––––––––––

DR Peak RMS Duration Track
––––––––––––––––––––––––––––––––––––––––
DR10 -0.18 dB -11.43 dB 5:38 01-I Need A Lover
DR12 -0.18 dB -13.69 dB 4:38 02-Ain't Even Done With The Night
DR11 -0.20 dB -12.51 dB 3:40 03-Hurts So Good
DR10 -0.18 dB -13.15 dB 4:16 04-Jack And Diane
DR9 -0.20 dB -10.69 dB 3:35 05-Crumblin' Down
DR10 0.00 dB -12.27 dB 4:44 06-Pink Houses
DR8 -0.68 dB -9.99 dB 3:50 07-Authority Song
DR9 -0.74 dB -11.21 dB 3:46 08-Lonely Ol' Night
DR8 -0.51 dB -10.16 dB 3:41 09-Small Town
DR9 -0.20 dB -11.50 dB 2:55 10-R.O.C.K. In The U.S.A.
DR10 -0.20 dB -12.70 dB 3:52 11-Paper In Fire
DR10 -0.20 dB -11.25 dB 4:49 12-Cherry Bomb
DR9 -0.20 dB -11.07 dB 4:20 13-Check It Out
DR10 0.00 dB -12.06 dB 5:06 14-Without Expression
––––––––––––––––––––––––––––––––––––––––

Number of tracks: 14
Official DR value: DR9

Samplerate: 44100 Hz
Channels: 2
Bits per sample: 16
Bitrate: 978 kbps
Codec: FLAC
================================================================================

[CUETools log; Date: 02.12.2016 21:04:24; Version: 2.1.5]
Pregap length 00:00:32.
HDCD: peak extend: none, transient filter: none, gain: none
[CTDB TOCID: rUwl6M65TV3fS_eGwsxLoyH4tII-] found.
Track | CTDB Status
1 | (13/13) Accurately ripped
2 | (13/13) Accurately ripped
3 | (13/13) Accurately ripped
4 | (13/13) Accurately ripped
5 | (13/13) Accurately ripped
6 | (13/13) Accurately ripped
7 | (13/13) Accurately ripped
8 | (13/13) Accurately ripped
9 | (13/13) Accurately ripped
10 | (13/13) Accurately ripped
11 | (13/13) Accurately ripped
12 | (13/13) Accurately ripped
13 | (12/13) Accurately ripped
14 | (13/13) Accurately ripped
[AccurateRip ID: 001e9d30-01423611-ca0dca0e] found.
Track [ CRC | V2 ] Status
01 [1f9cadc6|0095de95] (13+10/23) Accurately ripped
02 [22fc2ccd|f01d53be] (13+10/23) Accurately ripped
03 [73da483e|9d840cc6] (14+10/24) Accurately ripped
04 [edce3161|59341c26] (14+10/24) Accurately ripped
05 [0c43861d|ec008e55] (14+10/24) Accurately ripped
06 [7bb49ed3|0dcf47ee] (14+10/24) Accurately ripped
07 [6c5341e3|bcce78c4] (14+10/24) Accurately ripped
08 [62aecd95|6d646102] (14+10/24) Accurately ripped
09 [76c15067|70aa2445] (14+10/24) Accurately ripped
10 [191e0295|a800757e] (14+10/24) Accurately ripped
11 [869371ff|e4888103] (14+10/24) Accurately ripped
12 [60c15fdd|9eb62295] (14+10/24) Accurately ripped
13 [2a447349|eb9b99cf] (14+10/24) Accurately ripped
14 [b018ea94|07f8555d] (12+10/22) Accurately ripped

Track Peak [ CRC32 ] [W/O NULL] [ LOG ]
– 100,0 [A6555F8B] [CA87113C] CRC32
01 97,9 [937B72FE] [63540385]
02 97,9 [AC9B760F] [D3EF78AA]
03 97,7 [3C891A57] [354FE8F7]
04 97,9 [8E0E1832] [2BAE9B11]
05 97,7 [19EA8A49] [A4661D81]
06 100,0 [DB6C02C2] [32907399]
07 92,4 [77E10537] [1800C481]
08 91,8 [B2684917] [D84F48B4]
09 94,2 [6634CB48] [6B8F8DB4]
10 97,7 [329420E1] [1B19FFC7]
11 97,7 [3422F911] [EEC08784]
12 97,7 [E7AC141A] [22B7CD46]
13 97,7 [2ED0374B] [4FDD8B6F]
14 100,0 [7A648D4F] [BB11CBD7]

John Mellencamp - The Best That I Could Do 1978-1988 (1997)


All thanks go to powermet

>>> John Mellencamp in my Blog <<<

DOWNLOAD: