Tags
Language
Tags

John Carisi - Eddie Sauter - Christian Wolff - Stefan Wolpe - Counterpoise (2000)

Posted By: basa005
John Carisi - Eddie Sauter - Christian Wolff - Stefan Wolpe - Counterpoise (2000)

John Carisi - Eddie Sauter - Christian Wolff - Stefan Wolpe - Counterpoise (2000)
EAC RIP | APE + CUE + LOG | COVER + BOOK | RAR FILES (3% recovery) | 205 Mb
Classical | hat[now]ART 136

John Carisi - Eddie Sauter - Christian Wolff - Stefan Wolpe - Counterpoise (2000)

Tracklist:
01. Stefan Wolpe – Quartet for trumpet , tenor saxophone , percussion and piano (1950/54) 13:10
02. John Carisi – Saxophone quartet No.1 (1965) 7:38
03. John Carisi – Counterpoise No.1 for trumpet , baritone saxophone , percussion , and piano (1948) 5:04
04. Eddie Sauter – Saxophone Quartet No.1 (1977) 6:07
05. Christian Wolff – Exercise 26 & 27 (snare drum peace march 1 & 2) (1968) 8:34
06. Stefan Wolpe Blues – Stimmen aus dem Massengrab – Marsch (1929) for speaker , two saxophones , trumpet , two pianos & percussion (text: Erich Kastner) 9:52

It's interesting to note that the title chosen for this carefully plotted program of works, Counterpoise, refers to equivalent powers set in opposition creating a state of balance, and appears in the dictionary in between the words "counterpoint" and "counterpose." There is certainly a measured balance in the interrelated and contrasting material presented here, as well as in the personalities of the composers represented. Moreover, there is a palpable sense of poise (that is, equilibrium, assurance, and tact) in the music itself, which accounts for the equal degrees of spontaneity and inevitability-highlighting the counter-effect of creative tension-that result. — Art Lange


Exact Audio Copy V1.0 beta 2 from 29. April 2011

EAC extraction logfile from 14. October 2011, 14:47

Ensemble Accanto / Counterpoise

Used drive : TSSTcorpCDDVDW SE-S204N Adapter: 2 ID: 0

Read mode : Secure
Utilize accurate stream : Yes
Defeat audio cache : Yes
Make use of C2 pointers : No

Read offset correction : 6
Overread into Lead-In and Lead-Out : No
Fill up missing offset samples with silence : Yes
Delete leading and trailing silent blocks : No
Null samples used in CRC calculations : No
Used interface : Native Win32 interface for Win NT & 2000

Used output format : Internal WAV Routines
Sample format : 44.100 Hz; 16 Bit; Stereo


TOC of the extracted CD

Track | Start | Length | Start sector | End sector
––––––––––––––––––––––––––––-
1 | 0:00.00 | 13:18.62 | 0 | 59911
2 | 13:18.62 | 7:46.00 | 59912 | 94861
3 | 21:04.62 | 5:11.00 | 94862 | 118186
4 | 26:15.62 | 6:16.00 | 118187 | 146386
5 | 32:31.62 | 8:43.38 | 146387 | 185649
6 | 41:15.25 | 9:51.50 | 185650 | 230024


Range status and errors

Selected range

Filename C:\avaxhome\Ensemble Accanto - Counterpoise.wav

Peak level 92.1 %
Extraction speed 5.4 X
Range quality 99.9 %
Copy CRC A774A5E8
Copy OK

No errors occurred


AccurateRip summary

Track 1 not present in database
Track 2 not present in database
Track 3 not present in database
Track 4 not present in database
Track 5 not present in database
Track 6 not present in database

None of the tracks are present in the AccurateRip database

End of status report

==== Log checksum 79A05A017ABC73E04E1FEC612EBCA792B9F878F5ADAD02620860D455D966BC68 ====
megaupload
MU link

password: basa005