Subcategories

John Coltrane - Black Pearls [XRCD] (1958)

Posted By: uff
John Coltrane - Black Pearls [XRCD] (1958)

John Coltrane - Black Pearls [XRCD] (1958)
jazz | 1CD | EAC Rip | FLAC+CUE+LOG | cover | 280MB
JVC | 20bit K2 | RAR +5% recovery

AMG:
As is often the case with an artist as prolific as John Coltrane, not every release can be considered as essential. Black Pearls seems a bit ambiguous when placed in a more historical context. It was only three days later that Coltrane participated not as a leader, but rather a member, of the Miles Davis Sextet that recorded "Stella By Starlight" and "On Green Dolphin Street." There is an obvious disparity between these three mostly improvised and lengthy jams and the Davis session. This is in no way to insinuate that Coltrane's performance is anything less than par. Black Pearls indeed captures Coltrane at the height of perfecting the intense volley that would garner the name "sheets of sound." Featuring Donald Byrd (trumpet) and the Red Garland Trio — Garland (piano), Paul Chambers (bass), and Art Taylor (drums) — this is the same quintet that had mightily contributed to Lush Life and The Believers, as well as The Last Trane. This session would be their last together. The title track is a mid-tempo bop number that quite frankly fails to make a great melodic impact. It's not until Coltrane's indomitable solo that a direction is found and, for a short while, remains focused. Once the reins are passed to Byrd, Garland, Chambers, and to a lesser extent Taylor, the song meanders through some fairly vapid changes. Fortunately, the soloing from Byrd is more direct and is able to build and support Coltrane's equally impressive display. The difference is immeasurable as no holds are barred from Garland or Taylor — who is arguably at his prime. All told, this performance is well worth the price of admission. At 18-plus minutes, "Sweet Sapphire Blues" (penned by Prestige Records owner Robert Weinstock) is the longest track on Black Pearls. It is in essence a 12-bar blues jam. Coltrane's double- and triple-time solo is primal within this setting. The overemphatic backbeat allows for more group interaction, yielding a full and well-rounded union among the musicians that was sadly absent from the opening track.

EAC extraction logfile from 29. October 2005, 11:40 for CD
John Coltrane / Black Pearls

Used drive : _NEC CD-RW NR-9300A Adapter: 0 ID: 1
Read mode : Secure with NO C2, accurate stream, disable cache
Read offset correction : 691
Overread into Lead-In and Lead-Out : No

Used output format : Internal WAV Routines
44.100 Hz; 16 Bit; Stereo

Other options :
Fill up missing offset samples with silence : Yes
Delete leading and trailing silent blocks : No
Installed external ASPI interface


Track 1
Filename C:\Documents and Settings\Kevin\My Documents\FLAC\XRCD\John Coltrane - Black Pearls (1958)[flac](XRCD)\01 - Black Pearls.wav

Pre-gap length 0:00:02.00

Peak level 100.0 %
Track quality 100.0 %
Test CRC 00FBE7AF
Copy CRC 00FBE7AF
Copy OK

Track 2
Filename C:\Documents and Settings\Kevin\My Documents\FLAC\XRCD\John Coltrane - Black Pearls (1958)[flac](XRCD)\02 - Lover Come Back to Me.wav

Pre-gap length 0:00:03.37

Peak level 100.0 %
Track quality 100.0 %
Test CRC F7531A48
Copy CRC F7531A48
Copy OK

Track 3
Filename C:\Documents and Settings\Kevin\My Documents\FLAC\XRCD\John Coltrane - Black Pearls (1958)[flac](XRCD)\03 - Sweet Sapphire Blues.wav

Pre-gap length 0:00:02.44

Peak level 100.0 %
Track quality 100.0 %
Test CRC 4FF554CE
Copy CRC 4FF554CE
Copy OK

No errors occured


End of status report


1. Black Pearls
2. Lover Come Back To Me
3. Sweet Sapphire Blues

John Coltrane: Tenor Saxophone
Donald Byrd: Trumpet
Red Garland: Piano
Paul Chambers: Bass
Arthur Taylor: Drums

Recorded in Hackensack, NJ; May 23, 1958
Recording Engineer: Rudy Van Gelder

links:

hotfile
part1 part2 part3
filefactory
part1 part2 part3

pass: zazzzazz


plz no mirrors