Tags
Language
Tags

John Coltrane - The John Coltrane Quartet Plays (1965) [Reissue 1987]

Posted By: gribovar
John Coltrane - The John Coltrane Quartet Plays (1965) [Reissue 1987]

John Coltrane - The John Coltrane Quartet Plays (1965) [Reissue 1987]
XLD Rip | FLAC (tracks+.cue+log) - 228 MB | MP3 CBR 320 kbps (LAME 3.93) - 89 MB | Covers - 17 MB
Genre: Avant-Garde Jazz, Post-Bop | RAR 3% Rec. | Label: Impulse!/MCA Records (254 619-2)

One of the turning points in the career of John Coltrane came in 1965. The great saxophonist, whose playing was always very explorative and searching, crossed the line into atonality during that year, playing very free improvisations (after stating quick throwaway themes) that were full of passion and fury. This particular studio album has two standards (a stirring "Chim Chim Cheree" and "Nature Boy") along with two recent Coltrane originals ("Brazilia" and "Song of Praise"). Art Davis plays the second bass on "Nature Boy," but otherwise this set (a perfect introduction for listeners to Coltrane's last period) features the classic quartet comprised of the leader, pianist McCoy Tyner, bassist Jimmy Garrison, and drummer Elvin Jones.
Tracklist:
01. Chim Chim Cheree
02. Brazilia
03. Nature Boy
04. Song of Praise

Total time: 37:49

X Lossless Decoder version 20170729 (150.3)

XLD extraction logfile from 2018-02-15 15:14:31 +0100

John Coltrane / The John Coltrane Quartet Plays [Impulse! 254 619-2]

Used drive : PLEXTOR DVDR PX-755A (revision 1.06)
Media type : Pressed CD

Ripper mode : XLD Secure Ripper
Disable audio cache : OK for the drive with a cache less than 1375KiB
Make use of C2 pointers : NO
Read offset correction : 30
Max retry count : 100
Gap status : Analyzed, Appended (except HTOA)

TOC of the extracted CD
Track | Start | Length | Start sector | End sector
––––––––––––––––––––––––––––-
1 | 00:00:00 | 06:59:50 | 0 | 31474
2 | 06:59:50 | 12:55:62 | 31475 | 89661
3 | 19:55:37 | 08:03:60 | 89662 | 125946
4 | 27:59:22 | 09:49:55 | 125947 | 170176

AccurateRip Summary (DiscID: 00065ded-0019bc52-2b08dd04)
Track 01 : OK (v1+v2, confidence 4/4)
Track 02 : OK (v1+v2, confidence 4/4)
Track 03 : OK (v1+v2, confidence 4/4)
Track 04 : OK (v1+v2, confidence 4/4)
->All tracks accurately ripped.

All Tracks
Album gain : -1.07 dB
Peak : 0.914917
Statistics
Read error : 0
Jitter error (maybe fixed) : 0
Retry sector count : 0
Damaged sector count : 0

Track 01
Filename : /John Coltrane - The John Coltrane Quartet Plays [Impulse! 254 619-2]/01 Chim Chim Cheree.flac
Pre-gap length : 00:02:00

Track gain : -0.86 dB
Peak : 0.777740
CRC32 hash (test run) : 8531107B
CRC32 hash : 8531107B
CRC32 hash (skip zero) : 37001504
AccurateRip v1 signature : 27C78788
AccurateRip v2 signature : 5A3757BB
->Accurately ripped (v1+v2, confidence 2+2/4)
Statistics
Read error : 0
Jitter error (maybe fixed) : 0
Retry sector count : 0
Damaged sector count : 0

Track 02
Filename : /John Coltrane - The John Coltrane Quartet Plays [Impulse! 254 619-2]/02 Brazilia.flac
Pre-gap length : 00:03:33

Track gain : -1.64 dB
Peak : 0.914917
CRC32 hash (test run) : E63E4660
CRC32 hash : E63E4660
CRC32 hash (skip zero) : 8276CF4C
AccurateRip v1 signature : E2824EC1
AccurateRip v2 signature : 8D572CE1
->Accurately ripped (v1+v2, confidence 2+2/4)
Statistics
Read error : 0
Jitter error (maybe fixed) : 0
Retry sector count : 0
Damaged sector count : 0

Track 03
Filename : /John Coltrane - The John Coltrane Quartet Plays [Impulse! 254 619-2]/03 Nature Boy.flac
Pre-gap length : 00:02:22

Track gain : -0.87 dB
Peak : 0.846466
CRC32 hash (test run) : 3052F674
CRC32 hash : 3052F674
CRC32 hash (skip zero) : 9043F058
AccurateRip v1 signature : 282B748B
AccurateRip v2 signature : 9F698035
->Accurately ripped (v1+v2, confidence 2+2/4)
Statistics
Read error : 0
Jitter error (maybe fixed) : 0
Retry sector count : 0
Damaged sector count : 0

Track 04
Filename : /John Coltrane - The John Coltrane Quartet Plays [Impulse! 254 619-2]/04 Song of Praise.flac
Pre-gap length : 00:02:55

Track gain : -0.23 dB
Peak : 0.845642
CRC32 hash (test run) : 164338B1
CRC32 hash : 164338B1
CRC32 hash (skip zero) : CF24D6A4
AccurateRip v1 signature : 6C8C4513
AccurateRip v2 signature : 2319329A
->Accurately ripped (v1+v2, confidence 2+2/4)
Statistics
Read error : 0
Jitter error (maybe fixed) : 0
Retry sector count : 0
Damaged sector count : 0

No errors occurred

End of status report

––-BEGIN XLD SIGNATURE––-
BxBHN8NikHxNmrDLkRLq_GDyLRbbL_YdLov9mxDSbiwRwkds2AczItM2.VbjfYfvXr9sJCfKpiuwqAuuvVk5SrwRmERdkXXf_5GmcEW
––-END XLD SIGNATURE––-

[CUETools log; Date: 18.02.2021 15:48:33; Version: 2.1.4]
[CTDB TOCID: A.nZRcCs09V36pmO0s.7802Dq4U-] found.
Track | CTDB Status
1 | (7/7) Accurately ripped
2 | (6/7) Accurately ripped
3 | (6/7) Accurately ripped
4 | (7/7) Accurately ripped
[AccurateRip ID: 00065ded-0019bc52-2b08dd04] found.
Track [ CRC | V2 ] Status
01 [27c78788|5a3757bb] (2+3/5) Accurately ripped
02 [e2824ec1|8d572ce1] (2+3/5) Accurately ripped
03 [282b748b|9f698035] (2+3/5) Accurately ripped
04 [6c8c4513|2319329a] (2+3/5) Accurately ripped

Track Peak [ CRC32 ] [W/O NULL]
– 91,4 [A7467CDB] [F7F1D8BD]
01 77,7 [8531107B] [37001504]
02 91,4 [E63E4660] [8276CF4C]
03 84,6 [3052F674] [9043F058]
04 84,5 [164338B1] [CF24D6A4]

Thanks to asnikkelbaard

See also: