Tags
Language
Tags

John Patitucci - Line By Line (2006) {Concord}

Posted By: tiburon
John Patitucci - Line By Line (2006) {Concord}

John Patitucci - Line By Line (2006) {Concord}
EAC 0.99pb4 | FLAC Image level 8 | Cue+Log | Full Scans 300dpi | 389MB + 5% Recovery
MP3 CBR 320 Kbps | 166MB + 5% Recovery
Genre: Jazz, Fusion, Post-Bop
John Patitucci - Line By Line (2006) {Concord}

John Patitucci's Line by Line is mostly a quiet and thoughtful affair. The performances often feature close interplay between the bassist and guitarist Adam Rogers, with stimulating support from drummer Brian Blade and occasional guest appearances by the great tenor Chris Potter. The music is adventurous but often lyrical, with Patitucci being a key soloist but not completely dominating the performances, giving his sidemen plenty of space of their own.
Track List
01. The Root 4:10
02. Agitato 4:14
03. Circular 6:29
04. Folklore 6:25
05. Dry September 5:53
06. Nana 3:26
07. Theme and Variations for 6-String Bass and Strings 9:37
08. Line By Line 6:56
09. Evidence 5:56
10. Jesus Is On The Mainline 3:18
11. Incarnation 3:57
12. Soaring 3:51
13. Tone Poem 2:58
14. Up With The Lark 5:17

musicians
John Patitucci - double bass, 6-string electric bass
Brian Blade - drums
Adam Rogers - electric and nylon-string guitars
Chris Potter - tenor sax
Elizabeth Lim-Dutton - violin
Lawrence Dutton - viola
Jeremy McCoy - double Bass
Sachi Patitucci - cello
Richard Rood - violin

Produced by John Patitucci


Exact Audio Copy V0.99 prebeta 4 from 23. January 2008

EAC extraction logfile from 10. January 2009, 12:51

John Patitucci / Line by Line

Used drive : PIONEER DVD-RW DVR-112D Adapter: 0 ID: 0

Read mode : Secure
Utilize accurate stream : Yes
Defeat audio cache : Yes
Make use of C2 pointers : No

Read offset correction : 48
Overread into Lead-In and Lead-Out : No
Fill up missing offset samples with silence : Yes
Delete leading and trailing silent blocks : No
Null samples used in CRC calculations : Yes
Used interface : Installed external ASPI interface

Used output format : User Defined Encoder
Selected bitrate : 320 kBit/s
Quality : High
Add ID3 tag : Yes
Command line compressor : C:\Program Files\Exact Audio Copy\Flac\flac.exe
Additional command line options : -V -8 -T "artist=%a" -T "title=%t" -T "album=%g" -T "date=%y" -T "tracknumber=%n" -T "genre=%m" %s


TOC of the extracted CD

Track | Start | Length | Start sector | End sector
––––––––––––––––––––––––––––-
1 | 0:00.00 | 4:08.59 | 0 | 18658
2 | 4:08.59 | 4:12.04 | 18659 | 37562
3 | 8:20.63 | 6:28.54 | 37563 | 66716
4 | 14:49.42 | 6:26.22 | 66717 | 95688
5 | 21:15.64 | 5:54.30 | 95689 | 122268
6 | 27:10.19 | 3:27.06 | 122269 | 137799
7 | 30:37.25 | 9:37.73 | 137800 | 181147
8 | 40:15.23 | 6:53.52 | 181148 | 212174
9 | 47:09.00 | 5:58.07 | 212175 | 239031
10 | 53:07.07 | 3:18.17 | 239032 | 253898
11 | 56:25.24 | 3:56.48 | 253899 | 271646
12 | 60:21.72 | 3:51.54 | 271647 | 289025
13 | 64:13.51 | 2:53.18 | 289026 | 302018
14 | 67:06.69 | 5:19.65 | 302019 | 326008


Range status and errors

Selected range

Filename D:\music\rip\John Patitucci - Line by Line (2006) {Concord, 0888072301337}\John Patitucci - Line by Line.wav

Peak level 100.0 %
Range quality 100.0 %
Test CRC F6426171
Copy CRC F6426171
Copy OK

No errors occurred


AccurateRip summary

Track 1 accurately ripped (confidence 3) [A1F96001]
Track 2 accurately ripped (confidence 3) [952713F3]
Track 3 accurately ripped (confidence 3) [7FF62BBB]
Track 4 accurately ripped (confidence 3) [57A136B1]
Track 5 accurately ripped (confidence 3) [EA4BF901]
Track 6 accurately ripped (confidence 3) [59EAAAF5]
Track 7 accurately ripped (confidence 3) [E7B94529]
Track 8 accurately ripped (confidence 3) [30C114A0]
Track 9 accurately ripped (confidence 3) [846A0E31]
Track 10 accurately ripped (confidence 3) [BD782454]
Track 11 accurately ripped (confidence 3) [CB9CB8EC]
Track 12 accurately ripped (confidence 3) [3D37C4C2]
Track 13 accurately ripped (confidence 3) [3E6357EB]
Track 14 accurately ripped (confidence 3) [5A268775]

All tracks accurately ripped

End of status report


––––––––––––––––––––––––––––––––––––––––
Analyzed: John Patitucci / Line by Line
––––––––––––––––––––––––––––––––––––––––

DR Peak RMS Duration Track
––––––––––––––––––––––––––––––––––––––––
DR9 -0.10 dB -13.17 dB 4:09 01-The Root
DR10 -0.10 dB -12.65 dB 4:12 02-Agitato
DR13 0.00 dB -16.73 dB 6:29 03-Circular
DR12 0.00 dB -15.03 dB 6:26 04-Folklore
DR13 -1.61 dB -19.17 dB 5:54 05-Dry September
DR12 -0.25 dB -19.38 dB 3:27 06-Nana
DR11 -0.10 dB -14.57 dB 9:38 07-Theme and Variations for 6-Strings Bass and Strings
DR11 0.00 dB -14.47 dB 6:54 08-Line by Line
DR10 -0.10 dB -13.08 dB 5:58 09-Evidence
DR12 -2.56 dB -17.72 dB 3:18 10-Jesus Is on the Mainline
DR12 -5.63 dB -22.52 dB 3:57 11-Incarnation
DR14 -1.48 dB -19.71 dB 3:52 12-Soaring
DR13 -5.13 dB -22.60 dB 2:53 13-Tone Poem
DR12 -0.23 dB -17.49 dB 5:20 14-Up with the Lark
––––––––––––––––––––––––––––––––––––––––

Number of tracks: 14
Official DR value: DR12

Samplerate: 44100 Hz
Channels: 2
Bits per sample: 16
Bitrate: 691 kbps
Codec: FLAC
================================================================================

John Patitucci - Line By Line (2006) {Concord}
John Patitucci - Line By Line (2006) {Concord}
John Patitucci - Line By Line (2006) {Concord}


Thanks to the original ripper