Tags
Language
Tags

John Scofield - Piety Street (2009) {Emarcy}

Posted By: tiburon
John Scofield - Piety Street (2009) {Emarcy}

John Scofield - Piety Street (2009) {Emarcy}
EAC 0.99pb4 | FLAC tracks level 8 | Cue+Log+M3U | Full Scans 150dpi | 362MB + 5% Recovery
Genre: Jazz, Blues

As a leader, guitarist, and composer John Scofield has made many different kinds of records over the course of his long career, as well as played on dozens more as a sideman to people like Miles Davis and Charles Mingus, to mention just two. His last offering, and his first for Emarcy, was This Means That, an adventurous blend of straight-ahead blowing and funk-oriented numbers that worked beautifully and yielded a slew of critical acclaim. Piety Street is a different story altogether. Scofield has assembled a crack band of more roots and groove-oriented sidemen to cut his version of a gospel album. He's backed by keyboardist and vocalist Jon Cleary (from Bonnie Raitt's fine road band), New Orleans super bassist George Porter, Jr., drummer Ricky Fataar (also of the Raitt band), Crescent City club band session vocalist John Boutté (whose singing is a staple of the city's vibrant music scene), and New Orleans drummer and percussionist Shannon Powell (formerly of the Harry Connick Orchestra). There are 13 cuts on Piety Street, ranging from well-known gospel standards such as " Sometimes I Feel Like a Motherless Child," "His Eye Is on the Sparrow," "Walk with Me," and "I'll Fly Away" to classics within the genre, such as Dorothy Love Coates' "That's Enough," and "99 and a Half," the Rev. James Cleveland's "Something's Got a Hold on Me," and Thomas A. Dorsey's "Never Turn Back," with a couple of originals thrown in for measure. The temptation on a set like this to insert all sorts of improvisational touches, complex arrangements, and/or jamming opportunities is great, but to his credit, Scofield resists completely. These are songs and he treats them as such – the vocalists are an obvious nod to this but the arrangements and instrumental interludes go even further. Everything from post-bop jazz, funk, blues, and reggae are grafted onto these songs and the transition is seamless. Scofield's own playing is ever present but understated, and Cleary and Porter are such an intensely focused rhythm team that their backdrops are drenched in grooves and soul. While it's true this is gospel music re-visioned by Scofield, it's still a gospel record, and carries within it the heart of that music's great traditions – melody, complex harmonics, and lyricism. This is a winner all the way through.
Track List
01. That's Enough 3:46
02. Motherless Child 5:25
03. It's a Big Army 5:32
04. His Eye Is On The Sparrow 4:15
05. Something's Got A Hold On Me 4:48
06. The Old Ship of Zion 4:27
07. Ninety Nine And A Half 4:08
08. Just A Little While To Stay Here 5:59
09. Never Turn Back 4:42
10. Walk With Me 5:11
11. But I Like The Message 3:29
12. The Angel Of Death 6:43
13. I'll Fly Away 3:45

musicians
John Scofield - Ibanez guitars
Jon Cleary - lead vocals all tracks exept 5, 6, 9, piano and organ, rhythm guitar on 13
George Porter,Jr. - bass
Ricky Fataar - drums
John Boutte - lead vocals on 5, 6, 9
Shannon Powel - tambourine,drums on track 10

Recorded at Piety Street Studios,New Olreans
Mixed at Avatar Studio,NYC

Produced by John Scofield and Mark Bingham


Exact Audio Copy V0.99 prebeta 4 from 23. January 2008

EAC extraction logfile from 1. June 2009, 18:24

John Scofield / Piety Street

Used drive : HL-DT-STDVDRAM GH20NS10 Adapter: 2 ID: 0

Read mode : Secure
Utilize accurate stream : Yes
Defeat audio cache : Yes
Make use of C2 pointers : No

Read offset correction : 667
Overread into Lead-In and Lead-Out : No
Fill up missing offset samples with silence : Yes
Delete leading and trailing silent blocks : No
Null samples used in CRC calculations : Yes
Used interface : Native Win32 interface for Win NT & 2000
Gap handling : Appended to previous track

Used output format : User Defined Encoder
Selected bitrate : 1024 kBit/s
Quality : High
Add ID3 tag : No
Command line compressor : C:\Program Files\Exact Audio Copy\FLAC\FLAC.EXE
Additional command line options : -8 -V -T "ARTIST=%a" -T "TITLE=%t" -T "ALBUM=%g" -T "DATE=%y" -T "TRACKNUMBER=%n" -T "TOTALTRACKS=%x" -T "GENRE=%m" -T "ALBUMARTIST=%v" -T "ALBUM ARTIST=%v" -T "COMMENT=EAC V0.99 prebeta 4, Secure Mode, Test & Copy, Accurat


TOC of the extracted CD

Track | Start | Length | Start sector | End sector
––––––––––––––––––––––––––––-
1 | 0:00.00 | 3:46.40 | 0 | 16989
2 | 3:46.40 | 5:24.47 | 16990 | 41336
3 | 9:11.12 | 5:32.19 | 41337 | 66255
4 | 14:43.31 | 4:15.03 | 66256 | 85383
5 | 18:58.34 | 4:47.65 | 85384 | 106973
6 | 23:46.24 | 4:26.49 | 106974 | 126972
7 | 28:12.73 | 4:08.48 | 126973 | 145620
8 | 32:21.46 | 5:59.17 | 145621 | 172562
9 | 38:20.63 | 4:41.47 | 172563 | 193684
10 | 43:02.35 | 5:11.44 | 193685 | 217053
11 | 48:14.04 | 3:29.47 | 217054 | 232775
12 | 51:43.51 | 6:43.11 | 232776 | 263011
13 | 58:26.62 | 3:45.14 | 263012 | 279900


Track 1

Filename D:\John Scofield - Piety Street (2009) [FLAC]\01 - That's Enough.wav

Pre-gap length 0:00:02.00

Peak level 96.7 %
Track quality 100.0 %
Test CRC 96FD9EB3
Copy CRC 96FD9EB3
Cannot be verified as accurate (confidence 4) [BDB2AA82], AccurateRip returned [07734329]
Copy OK

Track 2

Filename D:\John Scofield - Piety Street (2009) [FLAC]\02 - Motherless Child.wav

Peak level 96.8 %
Track quality 100.0 %
Test CRC FFD0720B
Copy CRC FFD0720B
Cannot be verified as accurate (confidence 4) [0A625672], AccurateRip returned [60969C3B]
Copy OK

Track 3

Filename D:\John Scofield - Piety Street (2009) [FLAC]\03 - Its's A Big Army.wav

Peak level 96.2 %
Track quality 100.0 %
Test CRC E89DFB60
Copy CRC E89DFB60
Cannot be verified as accurate (confidence 4) [4FABEB1B], AccurateRip returned [43E41C65]
Copy OK

Track 4

Filename D:\John Scofield - Piety Street (2009) [FLAC]\04 - His Eye Is On The Sparrow.wav

Peak level 97.3 %
Track quality 99.9 %
Test CRC 5BD90C77
Copy CRC 5BD90C77
Cannot be verified as accurate (confidence 4) [D7CB5585], AccurateRip returned [47C2EC59]
Copy OK

Track 5

Filename D:\John Scofield - Piety Street (2009) [FLAC]\05 - Something's Got A Hold On Me.wav

Peak level 95.3 %
Track quality 99.9 %
Test CRC 15E4606E
Copy CRC 15E4606E
Cannot be verified as accurate (confidence 4) [63349734], AccurateRip returned [76E36D1D]
Copy OK

Track 6

Filename D:\John Scofield - Piety Street (2009) [FLAC]\06 - The Old Ship Of Zion.wav

Peak level 96.5 %
Track quality 99.9 %
Test CRC 5000B7DB
Copy CRC 5000B7DB
Cannot be verified as accurate (confidence 4) [0FE7BC9D], AccurateRip returned [E16C4221]
Copy OK

Track 7

Filename D:\John Scofield - Piety Street (2009) [FLAC]\07 - 99 And A Half.wav

Peak level 96.8 %
Track quality 100.0 %
Test CRC C7A03802
Copy CRC C7A03802
Cannot be verified as accurate (confidence 4) [0FDD6EAC], AccurateRip returned [7784D940]
Copy OK

Track 8

Filename D:\John Scofield - Piety Street (2009) [FLAC]\08 - Just A Little While To Stay Here.wav

Peak level 95.9 %
Track quality 100.0 %
Test CRC D9213CCF
Copy CRC D9213CCF
Cannot be verified as accurate (confidence 4) [4983DA01], AccurateRip returned [53997AEB]
Copy OK

Track 9

Filename D:\John Scofield - Piety Street (2009) [FLAC]\09 - Never Turn Back.wav

Peak level 97.1 %
Track quality 100.0 %
Test CRC 217E3EBF
Copy CRC 217E3EBF
Cannot be verified as accurate (confidence 4) [98A45A40], AccurateRip returned [07B23E24]
Copy OK

Track 10

Filename D:\John Scofield - Piety Street (2009) [FLAC]\10 - Walk With Me.wav

Peak level 95.6 %
Track quality 100.0 %
Test CRC 42E1795F
Copy CRC 42E1795F
Cannot be verified as accurate (confidence 4) [A01ECAC5], AccurateRip returned [7EC301E4]
Copy OK

Track 11

Filename D:\John Scofield - Piety Street (2009) [FLAC]\11 - But I Like The Message.wav

Peak level 96.7 %
Track quality 100.0 %
Test CRC 027FB59B
Copy CRC 027FB59B
Cannot be verified as accurate (confidence 4) [7B19773B], AccurateRip returned [9B1413C1]
Copy OK

Track 12

Filename D:\John Scofield - Piety Street (2009) [FLAC]\12 - The Angel Of Death.wav

Peak level 95.9 %
Track quality 99.9 %
Test CRC 30D3AFA0
Copy CRC 30D3AFA0
Cannot be verified as accurate (confidence 4) [F116F18D], AccurateRip returned [CFF3754D]
Copy OK

Track 13

Filename D:\John Scofield - Piety Street (2009) [FLAC]\13 - I'll Fly Away.wav

Peak level 95.4 %
Track quality 100.0 %
Test CRC E080262A
Copy CRC E080262A
Cannot be verified as accurate (confidence 4) [DB4242B3], AccurateRip returned [C978AF4C]
Copy OK


No tracks could be verified as accurate
You may have a different pressing from the one(s) in the database

No errors occurred

End of status report


––––––––––––––––––––––––––––––––––––––––
Analyzed: John Scofield / Piety Street
––––––––––––––––––––––––––––––––––––––––

DR Peak RMS Duration Track
––––––––––––––––––––––––––––––––––––––––
DR8 -0.29 dB -10.28 dB 3:47 01-That's Enough
DR9 -0.27 dB -11.70 dB 5:25 02-Motherless Child
DR9 -0.34 dB -11.57 dB 5:32 03-Its's A Big Army
DR9 -0.24 dB -11.61 dB 4:15 04-His Eye Is On The Sparrow
DR10 -0.41 dB -11.93 dB 4:48 05-Something's Got A Hold On Me
DR10 -0.30 dB -12.45 dB 4:27 06-The Old Ship Of Zion
DR10 -0.28 dB -11.67 dB 4:09 07-99 And A Half
DR9 -0.36 dB -12.27 dB 5:59 08-Just A Little While To Stay Here
DR10 -0.25 dB -12.40 dB 4:42 09-Never Turn Back
DR10 -0.39 dB -12.42 dB 5:12 10-Walk With Me
DR10 -0.29 dB -11.67 dB 3:30 11-But I Like The Message
DR10 -0.36 dB -12.71 dB 6:43 12-The Angel Of Death
DR11 -0.41 dB -13.47 dB 3:45 13-I'll Fly Away
––––––––––––––––––––––––––––––––––––––––

Number of tracks: 13
Official DR value: DR10

Samplerate: 44100 Hz
Channels: 2
Bits per sample: 16
Bitrate: 738 kbps
Codec: FLAC
================================================================================

John Scofield - Piety Street (2009) {Emarcy}
John Scofield - Piety Street (2009) {Emarcy}
John Scofield - Piety Street (2009) {Emarcy}