Tags
Language
Tags

John Scofield - Swallow Tales (2020) {ECM 2679}

Posted By: tiburon
John Scofield - Swallow Tales (2020) {ECM 2679}

John Scofield - Swallow Tales (2020) {ECM 2679}
EAC 1.3 | FLAC tracks level 8 | Cue+Log+M3U | Full Scans 300dpi | 300MB + 5% Recovery
MP3 CBR 320 Kbps | 132MB + 5% Recovery
Genre: Jazz, Post-Bop

Guitarist John Scofield celebrates the music of his friend and mentor Steve Swallow in an outgoing and spirited recording, made in a day in New York in March 2019 - “old school” style as Scofield says, while acknowledging that more than forty years of preparation led up to it. John was a 20-year-old student at Berklee when he first met and played with the bassist, and they have continued ever since. “I love these songs”, says Scofield of the selection of Swallow compositions explored here – a broad range including classics such as “Hullo Bolinas”, “Eiderdown”, “Falling Grace” and “Radio”, as well as lesser-known works. The rapport between Scofield and Swallow is evident in every moment. John: “Sometimes when we play it’s like one big guitar, the bass part and my part together.” Behind the drum kit, Bill Stewart, a close associate of Scofield’s since the early 90s, is alert to all the implications of the interaction. “What Bill does is more than ‘playing the drums,’” Scofield says. “He’s a melodic voice in the music, while also swinging really hard.”
Track List
1. She Was Young 9:29
2. Falling Grace 5:24
3. Portsmouth Figurations 3:31
4. Awful Coffee 9:24
5. Eiderdown 7:10
6. Hullo Bolinas 4:11
7. Away 4:50
8. In F 4:30
9. Radio 4:21

musicians
John Scofield - guitar
Bill Stewart - drums
Steve Swallow - bass

Produced by Manfred Eicher


Exact Audio Copy V1.3 from 2. September 2016

EAC extraction logfile from 20. February 2021, 14:43

John Scofield / Swallow Tales

Used drive : HL-DT-STDVDRAM GH20NS10 Adapter: 1 ID: 0

Read mode : Secure
Utilize accurate stream : Yes
Defeat audio cache : Yes
Make use of C2 pointers : No

Read offset correction : 667
Overread into Lead-In and Lead-Out : No
Fill up missing offset samples with silence : Yes
Delete leading and trailing silent blocks : No
Null samples used in CRC calculations : Yes
Used interface : Native Win32 interface for Win NT & 2000
Gap handling : Appended to previous track

Used output format : User Defined Encoder
Selected bitrate : 1024 kBit/s
Quality : High
Add ID3 tag : No
Command line compressor : C:\Program Files\Exact Audio Copy\Flac\flac.exe
Additional command line options : -8 -V -T "ARTIST=%artist%" -T "TITLE=%title%" -T "ALBUM=%albumtitle%" -T "DATE=%year%" -T "TRACKNUMBER=%tracknr%" -T "TOTALTRACKS=%numtracks%" -T "GENRE=%genre%" -T "ALBUMARTIST=%albumartist%" -T "ALBUM ARTIST=%albumartist%" -T "COMMENT=EAC Secure Mode, Test & Copy, AccurateRip, FLAC -8" %source%


TOC of the extracted CD

Track | Start | Length | Start sector | End sector
––––––––––––––––––––––––––––-
1 | 0:00.00 | 9:33.57 | 0 | 43031
2 | 9:33.57 | 5:27.73 | 43032 | 67629
3 | 15:01.55 | 3:31.34 | 67630 | 83488
4 | 18:33.14 | 9:28.21 | 83489 | 126109
5 | 28:01.35 | 7:13.57 | 126110 | 158641
6 | 35:15.17 | 4:15.39 | 158642 | 177805
7 | 39:30.56 | 4:54.08 | 177806 | 199863
8 | 44:24.64 | 4:34.02 | 199864 | 220415
9 | 48:58.66 | 4:21.70 | 220416 | 240060


Track 1

Filename F:\John Scofield - Swallow Tales (2020) [FLAC]\01 - She Was Young.wav

Pre-gap length 0:00:02.00

Peak level 89.9 %
Extraction speed 5.2 X
Track quality 100.0 %
Test CRC 1F8EB181
Copy CRC 1F8EB181
Cannot be verified as accurate (confidence 26) [168C812E], AccurateRip returned [AAC0BF98] (AR v2)
Copy OK

Track 2

Filename F:\John Scofield - Swallow Tales (2020) [FLAC]\02 - Falling Grace.wav

Peak level 73.6 %
Extraction speed 4.9 X
Track quality 99.9 %
Test CRC EAC293A5
Copy CRC EAC293A5
Cannot be verified as accurate (confidence 26) [9F12DF84], AccurateRip returned [D9B513B2] (AR v2)
Copy OK

Track 3

Filename F:\John Scofield - Swallow Tales (2020) [FLAC]\03 - Pourtsmouth Figurations.wav

Peak level 79.8 %
Extraction speed 4.6 X
Track quality 99.9 %
Test CRC C0108BA9
Copy CRC C0108BA9
Cannot be verified as accurate (confidence 26) [39FFFB12], AccurateRip returned [E110BAE7] (AR v2)
Copy OK

Track 4

Filename F:\John Scofield - Swallow Tales (2020) [FLAC]\04 - Awful Coffee.wav

Peak level 74.3 %
Extraction speed 6.6 X
Track quality 100.0 %
Test CRC 4BBCDE4C
Copy CRC 4BBCDE4C
Cannot be verified as accurate (confidence 26) [9079C54A], AccurateRip returned [34C9002D] (AR v2)
Copy OK

Track 5

Filename F:\John Scofield - Swallow Tales (2020) [FLAC]\05 - Eiderdown.wav

Peak level 76.6 %
Extraction speed 7.0 X
Track quality 100.0 %
Test CRC BCCF0C64
Copy CRC BCCF0C64
Cannot be verified as accurate (confidence 26) [A1733B55], AccurateRip returned [7134DAD2] (AR v2)
Copy OK

Track 6

Filename F:\John Scofield - Swallow Tales (2020) [FLAC]\06 - Hullo Bolinas.wav

Peak level 63.6 %
Extraction speed 6.9 X
Track quality 100.0 %
Test CRC 0F632484
Copy CRC 0F632484
Cannot be verified as accurate (confidence 26) [134D99F8], AccurateRip returned [80C6CD9B] (AR v2)
Copy OK

Track 7

Filename F:\John Scofield - Swallow Tales (2020) [FLAC]\07 - Away.wav

Peak level 39.5 %
Extraction speed 6.3 X
Track quality 99.9 %
Test CRC F8367608
Copy CRC F8367608
Cannot be verified as accurate (confidence 26) [5C8D762F], AccurateRip returned [FD50DB08] (AR v2)
Copy OK

Track 8

Filename F:\John Scofield - Swallow Tales (2020) [FLAC]\08 - In F.wav

Peak level 74.9 %
Extraction speed 7.5 X
Track quality 100.0 %
Test CRC 650F1B19
Copy CRC 650F1B19
Cannot be verified as accurate (confidence 26) [634CC5F6], AccurateRip returned [CE0A41B5] (AR v2)
Copy OK

Track 9

Filename F:\John Scofield - Swallow Tales (2020) [FLAC]\09 - Radio.wav

Peak level 79.5 %
Extraction speed 6.6 X
Track quality 99.9 %
Test CRC C8262009
Copy CRC C8262009
Cannot be verified as accurate (confidence 26) [D0EE9CB1], AccurateRip returned [F91782A2] (AR v2)
Copy OK


No tracks could be verified as accurate
You may have a different pressing from the one(s) in the database

No errors occurred

End of status report

–– CUETools DB Plugin V2.1.6

[CTDB TOCID: IMzAxfakSDPepSu5Ov5n2QUrmQY-] found
Submit result: IMzAxfakSDPepSu5Ov5n2QUrmQY- has been confirmed
Track | CTDB Status
1 | (121/122) Accurately ripped
2 | (122/122) Accurately ripped
3 | (122/122) Accurately ripped
4 | (122/122) Accurately ripped
5 | (122/122) Accurately ripped
6 | (122/122) Accurately ripped
7 | (122/122) Accurately ripped
8 | (122/122) Accurately ripped
9 | (121/122) Accurately ripped


==== Log checksum B3097BD28E475C024DA8282CB6FD97AAEF9C941D5B9D95A8B6BF7D8461B57C4D ====


foobar2000 1.3.13 / Dynamic Range Meter 1.1.1
log date: 2021-02-20 16:55:39

––––––––––––––––––––––––––––––––––––––––
Analyzed: John Scofield / Swallow Tales
––––––––––––––––––––––––––––––––––––––––

DR Peak RMS Duration Track
––––––––––––––––––––––––––––––––––––––––
DR14 -0.92 dB -19.16 dB 9:34 01-She Was Young
DR12 -2.66 dB -18.06 dB 5:28 02-Falling Grace
DR13 -1.96 dB -17.09 dB 3:31 03-Pourtsmouth Figurations
DR13 -2.57 dB -18.97 dB 9:28 04-Awful Coffee
DR12 -2.31 dB -16.82 dB 7:14 05-Eiderdown
DR12 -3.92 dB -20.46 dB 4:16 06-Hullo Bolinas
DR12 -8.06 dB -24.09 dB 4:54 07-Away
DR13 -2.51 dB -18.30 dB 4:34 08-In F
DR12 -1.99 dB -17.24 dB 4:22 09-Radio
––––––––––––––––––––––––––––––––––––––––

Number of tracks: 9
Official DR value: DR13

Samplerate: 44100 Hz
Channels: 2
Bits per sample: 16
Bitrate: 809 kbps
Codec: FLAC
================================================================================

John Scofield - Swallow Tales (2020) {ECM 2679}
John Scofield - Swallow Tales (2020) {ECM 2679}