Tags
Language
Tags

John Scofield - Time On My Hands (1990) (Re-up)

Posted By: gribovar
John Scofield - Time On My Hands (1990) (Re-up)

John Scofield - Time On My Hands (1990)
EAC Rip | FLAC (image+.cue+log) - 377 MB | MP3 CBR 320 kbps (LAME 3.93) - 149 MB | Covers - 120 MB
Genre: Contemporary Jazz, Post-Bop | RAR 3% Rec. | Label: Blue Note (CDP 7 92894 2)

John Scofield has turned the corner from journeyman jazz guitarist to become one of the most inventive and witty players on the contemporary scene. This date, his first for the Blue Note label, builds on a discography following several recordings for the Gramavision label, and also progresses this contemporary jazz music into an individualism that can only bode well for his future efforts. Teamed with the rising-star saxophonist Joe Lovano and the bulletproof rhythm team of bassist Charlie Haden and drummer Jack DeJohnette, Scofield is emerging as a player of distinction on the electric guitar, and a composer whose mirthful ideas add spark and vigor to his newfound musical setting. In this co-production with Peter Erskine, Sco has found his melodic stride in making music that is bright and clever without being overly intellectual, retaining a soulful quality enriched by the deep-rooted, bluesy tenor sax of Lovano. What is most refreshing is that this music has broken free of clichés from the earlier original fusion movement, and what Scofield might have accomplished prior. "Farmacology" is an excellent example of this, more in the hard bop vein and echoing both ringing country twang and the unique voicings of Ornette Coleman. There's rambling neo-bop and good-time fun in the unison of guitar and tenor sax during "Wabash III," a lighter, elegant, but free and melodic tone in 6/8 time for "Flower Power," and squeaky clean, sweet, easygoing swing demonstrated on "Since You Asked." Haden and DeJohnette are so well matched as a rhythm team that it's easy to take them for granted, while hard to ignore their brilliance. They load up on New Orleans-style blues while Scofield doles out amusing and fractured lines for "So Sue Me," collectively move to a sleek and sneaky stance on "Let's Say We Did," and rip up a driven, forceful neo-bop for the linear melody of the witty "Stranger to the Light." Even though it's a first-time issue on CD, there are three bonus tracks, including the soul song shuffle "Time and Tide," a free, loose association that identifies "Be Hear Now," and the big-time, rock & roll-flavored, squawky "Fat Lip." It's hard to fathom this being anything other than a sustainable new direction for Scofield's music, one that he can enhance as bandmembers come and go in the not too distant future.
Tracklist:
01. Wabash III
02. Since You Asked
03. So Sue Me
04. Let's Say We Did
05. Flower Power
06. Stranger To The Light
07. Nocturnal Mission
08. Farmacology
09. Time And Tide (Bonus track)
10. Be Hear Now (Bonus track)
11. Fat Lip (Bonus track)

Total time: 01:03:13

Exact Audio Copy V1.0 beta 3 from 29. August 2011

EAC extraction logfile from 22. July 2012, 17:45

John Scofield / Time On My Hands

Used drive : PIONEER DVD-RW DVR-218L Adapter: 1 ID: 0

Read mode : Secure
Utilize accurate stream : Yes
Defeat audio cache : Yes
Make use of C2 pointers : No

Read offset correction : 6
Overread into Lead-In and Lead-Out : No
Fill up missing offset samples with silence : Yes
Delete leading and trailing silent blocks : No
Null samples used in CRC calculations : Yes
Used interface : Native Win32 interface for Win NT & 2000

Used output format : User Defined Encoder
Selected bitrate : 896 kBit/s
Quality : High
Add ID3 tag : No
Command line compressor : C:\Program Files\Exact Audio Copy\wavpack\wavpack.exe
Additional command line options : -hlmx2 %source% %dest%


TOC of the extracted CD

Track | Start | Length | Start sector | End sector
––––––––––––––––––––––––––––-
1 | 0:00.33 | 6:22.67 | 33 | 28749
2 | 6:23.25 | 6:13.00 | 28750 | 56724
3 | 12:36.25 | 6:01.65 | 56725 | 83864
4 | 18:38.15 | 4:26.30 | 83865 | 103844
5 | 23:04.45 | 5:00.38 | 103845 | 126382
6 | 28:05.08 | 7:32.27 | 126383 | 160309
7 | 35:37.35 | 4:16.55 | 160310 | 179564
8 | 39:54.15 | 6:44.25 | 179565 | 209889
9 | 46:38.40 | 5:53.03 | 209890 | 236367
10 | 52:31.43 | 6:54.47 | 236368 | 267464
11 | 59:26.15 | 3:46.23 | 267465 | 284437


Range status and errors

Selected range

Filename C:\Documents and Settings\empireisky\Мои документы\John Scofield - Time On My Hands\John Scofield - Time On My Hands.wav

Peak level 100.0 %
Extraction speed 1.5 X
Range quality 100.0 %
Test CRC 30FDE13B
Copy CRC 30FDE13B
Copy OK

No errors occurred


AccurateRip summary

Track 1 accurately ripped (confidence 4) [D7289E5A] (AR v2)
Track 2 accurately ripped (confidence 4) [A2CF7353] (AR v2)
Track 3 accurately ripped (confidence 4) [5881F0BA] (AR v2)
Track 4 accurately ripped (confidence 4) [7D8C9AFA] (AR v2)
Track 5 accurately ripped (confidence 4) [E5135B10] (AR v2)
Track 6 accurately ripped (confidence 4) [B72E4E05] (AR v2)
Track 7 accurately ripped (confidence 4) [709E1CAB] (AR v2)
Track 8 accurately ripped (confidence 3) [9AACA2DA] (AR v2)
Track 9 accurately ripped (confidence 4) [AB80B0D6] (AR v2)
Track 10 accurately ripped (confidence 3) [CFA39B57] (AR v2)
Track 11 accurately ripped (confidence 3) [96A2CE1C] (AR v2)

All tracks accurately ripped

End of status report

–– CUETools DB Plugin V2.1.3

[CTDB TOCID: sW6oExpfsxw7Xkd86s0k7f3lQFE-] disk not present in database, Submit result: discs with pregaps not supported in this protocol version


==== Log checksum B22E28AF9F9264117C6DED05CB125C1C543BB98E968F7794B891AAD6F02CEB4F ====

[CUETools log; Date: 19.05.2022 10:49:29; Version: 2.1.4]
Pregap length 00:00:33.
[CTDB TOCID: sW6oExpfsxw7Xkd86s0k7f3lQFE-] found.
Track | CTDB Status
1 | (57/58) Accurately ripped
2 | (57/58) Accurately ripped
3 | (57/58) Accurately ripped
4 | (57/58) Accurately ripped
5 | (57/58) Accurately ripped
6 | (56/58) Accurately ripped
7 | (57/58) Accurately ripped
8 | (57/58) Accurately ripped
9 | (54/58) Accurately ripped
10 | (56/58) Accurately ripped
11 | (57/58) Accurately ripped
[AccurateRip ID: 001a83a5-00e4fed2-a10ed00b] found.
Track [ CRC | V2 ] Status
01 [9c549e7d|d7289e5a] (17+35/55) Accurately ripped
02 [bfd30be8|a2cf7353] (17+35/55) Accurately ripped
03 [6b615a9e|5881f0ba] (17+34/54) Accurately ripped
04 [25bcd96e|7d8c9afa] (17+35/55) Accurately ripped
05 [89eea2fb|e5135b10] (17+34/54) Accurately ripped
06 [5824c811|b72e4e05] (17+33/53) Accurately ripped
07 [dd4b4756|709e1cab] (16+34/53) Accurately ripped
08 [67843fc5|9aaca2da] (17+34/54) Accurately ripped
09 [497a226f|ab80b0d6] (17+35/55) Accurately ripped
10 [e8ac86ab|cfa39b57] (17+33/53) Accurately ripped
11 [81e315fa|96a2ce1c] (17+30/50) Accurately ripped
Offsetted by -664:
01 [4d4b5bbd] (03/55) Accurately ripped
02 [d8a6b268] (03/55) Accurately ripped
03 [5a76b3de] (03/54) Accurately ripped
04 [bdb68846] (03/55) Accurately ripped
05 [8fa1222b] (03/54) Accurately ripped
06 [9bff45c9] (03/53) Accurately ripped
07 [7ed45e46] (03/53) Accurately ripped
08 [9e9f29dd] (03/54) Accurately ripped
09 [9cd44dbf] (03/55) Accurately ripped
10 [657af9cb] (03/53) Accurately ripped
11 [74c71e22] (03/50) Accurately ripped

Track Peak [ CRC32 ] [W/O NULL] [ LOG ]
– 100,0 [30FDE13B] [C3F5693C] CRC32
01 97,3 [18C7418C] [70753C44]
02 93,0 [5AD5A540] [99842A89]
03 100,0 [D6A45E2E] [34583BBC]
04 100,0 [B852C175] [89FBE60B]
05 99,0 [5459D258] [C6FBAC05]
06 97,6 [12E9E514] [B0671C65]
07 78,3 [9A865DF4] [F5EEC265]
08 100,0 [00A4810D] [EA1DEF4A]
09 65,7 [8E92464A] [3182B5F1]
10 84,0 [70C13569] [2DB3FBC2]
11 90,0 [767CEAF6] [8ADE90E3]

Thanks to arizonadream

See also: