Subcategories

John Zorn - Masada v5_Hei (1995)

Posted By: uff
John Zorn - Masada v5_Hei (1995)

John Zorn - Masada v5_Hei (1995)
jazz | 1CD | EAC Rip | FLAC+CUE+LOG | cover | 328MB
DIW | RAR +5% recovery

AMG:
Hei, the fifth release from John Zorn's Masada Quartet, shows the band at their tightest and most agile. In sound and design, it is much like the other nine releases from the Quartet, but it is rivaled only by Masada, Vol 3: Gimmel and Masada, Vol. 6: Vav for the musical acumen and togetherness of the players. A Jewish version of John Coltrane's A Love Supreme, Zorn here continues to explore issues of Jewish heritage and identity in the assimilated and diaspora Jewish world. The two opening tracks, "Paran" and "Halisah," show the prodigious talent of the band's frontmen, with Zorn on alto sax and Dave Douglas on trumpet as they groove through Ornette Coleman and Gerry Mulligan-inspired selections from the Masada songbook with a couple of helpings of the Middle East thrown in. These tracks set the tone for what will be the theme of the album, later picked up on with "Neshamah" and "Hafla'ah." While this album is not as aggressive or as transgress as some other Zorn projects, most notably Naked City or The Parachute Years, Zorn and Douglas still prove that they can screech with the best of them on tracks such as "Hobah" as they assert a new Jewish identity. At times, the stellar rhythm section of the Quartet, manned by Joey Baron on drums and Greg Cohen on bass, threatens to overshadow the brass. This is especially true on "Beeroth," the jewel of an album already glimmering in the desert, as Baron plays like a man released from a cage. While more melodic than not, Hei shows that the man known for his outfit of camouflage pants stands alongside the Israeli army as living proof that Jews can fight. ű

EAC extraction logfile from 12. February 2006, 10:59 for CD
John Zorn-Masada / Hei (Five)

Used drive : SONY CD-RW CRX300E Adapter: 1 ID: 0
Read mode : Secure with NO C2, accurate stream, disable cache
Read offset correction : 6
Overread into Lead-In and Lead-Out : No

Used output format : C:\Program Files\FLAC\bin\flac.exe (User Defined Encoder)
320 kBit/s
Additional command line options : -5 -V -T "ARTIST=%a" -T "TITLE=%t" -T "ALBUM=%g" -T "DATE=%y" -T "TRACKNUMBER=%n" -T "GENRE=%m" -T "COMMENT=EAC Flac 1.1.2 -5" %s

Other options :
Fill up missing offset samples with silence : Yes
Delete leading and trailing silent blocks : No
Native Win32 interface for Win NT & 2000


Track 1
Filename C:\CDRIP\01 - Paran.wav

Pre-gap length 0:00:02.00

Peak level 60.4 %
Track quality 100.0 %
Test CRC D36854AC
Copy CRC D36854AC
Copy OK

Track 2
Filename C:\CDRIP\02 - Halisah.wav

Peak level 98.8 %
Track quality 100.0 %
Test CRC E1F26FEB
Copy CRC E1F26FEB
Copy OK

Track 3
Filename C:\CDRIP\03 - Yoreh.wav

Peak level 39.4 %
Track quality 100.0 %
Test CRC A723F987
Copy CRC A723F987
Copy OK

Track 4
Filename C:\CDRIP\04 - Beeroth.wav

Peak level 98.8 %
Track quality 100.0 %
Test CRC 2242215A
Copy CRC 2242215A
Copy OK

Track 5
Filename C:\CDRIP\05 - Hobah.wav

Peak level 98.8 %
Track quality 100.0 %
Test CRC 3B2FB195
Copy CRC 3B2FB195
Copy OK

Track 6
Filename C:\CDRIP\06 - Neshamah.wav

Peak level 35.3 %
Track quality 100.0 %
Test CRC CD00373C
Copy CRC CD00373C
Copy OK

Track 7
Filename C:\CDRIP\07 - Lakum.wav

Peak level 88.2 %
Track quality 100.0 %
Test CRC D0C42881
Copy CRC D0C42881
Copy OK

Track 8
Filename C:\CDRIP\08 - Makedah.wav

Peak level 71.9 %
Track quality 100.0 %
Test CRC 36941699
Copy CRC 36941699
Copy OK

Track 9
Filename C:\CDRIP\09 - Hafla'ah.wav

Peak level 98.9 %
Track quality 100.0 %
Test CRC A9DC8C33
Copy CRC A9DC8C33
Copy OK

No errors occured


End of status report

Personnel
John Zorn - Alto Sax
Dave Douglas - Trumpet
Greg Cohen - Bass
Joey Baron - Drums

Tracks
1 Paran Zorn 5:12
2 Halisah Zorn 6:27
3 Yoreh Zorn 6:50
4 Beeroth Zorn 4:12
5 Hobah Zorn 11:38
6 Neshamah Zorn 6:05
7 Lakum Zorn 3:11
8 Makedah Zorn 8:35
9 Hafla'ah Zorn 4:55

links:

hotfile
part1 part2 part3 part4
filefactory
part1 part2 part3 part4

pass: zazzzazz


plz no mirrors

John Zorn - Masada v6_Vav (1995)