Subcategories

Jonas Hellborg - Octave Of The Holy Innocents (1993) {Day Eight Music}

Posted By: tiburon
Jonas Hellborg - Octave Of The Holy Innocents (1993) {Day Eight Music}

Jonas Hellborg - Octave Of The Holy Innocents (1993) {Day Eight Music}
EAC 0.99pb4 | FLAC Image level 8 | Cue+Log | Full Scans 300dpi | 267MB + 5% Recovery
MP3 CBR 320 Kbps | 129MB + 5% Recovery
Genre: Fusion, Post-Bop
Jonas Hellborg - Octave Of The Holy Innocents (1993) {Day Eight Music}

Those familiar with the respective musicians discographies might normally expect this affair to be a turbocharged, jazz/fusion set also featuring wacko, prog metal type characteristics. Such is not the case with this production, as these artists opt for the "unplugged" route. On the other hand, there's no lack of excitement here, as this acoustic-based power trio generates quite a bit of momentum in concert with a few ethereally enacted dreamscapes. On this release, Jonas Hellborg uses a custom made acoustic bass guitar. The electrified and generally dazzling, heavy metal-like inclinations of guitarist Buckethead are tempered into an acoustic format here, as drummer Michael Shrieve lays down a series of torrid backbeats to complement his hard-hitting, polyrhythmic fills. However, most of the album's highlights reside within Hellborg and Buckethead's deft plucking, and uncanny implementations of counter melodies, sparked by reverberating flows. They explore odd-tunings to coincide with several high-octane movements, as Hellborg even slaps his bass strings on occasion, thus injecting techniques normally used by electric bassists. Yet it's all about the sparkling chemistry that prevails throughout this wonderfully conceived and executed project!
Track List
1. Rana and Fara (15:00)
2. Death that sleeps in them (5:22)
3. The past is a different country, I don't live there anymore (9:14)
4. Child King (5:47)
5. Kidogo (7:13)

All songs by Jonas Hellborg

musicians
Jonas Hellborg - acoustic bass guitar
Buckethead - acoustic guitar
Michael Shrieve - drums

Produced by Jonas Hellborg


Exact Audio Copy V0.99 prebeta 4 from 23. January 2008

EAC extraction logfile from 12. March 2008, 9:20

Jonas Hellborg, Buckethead, Michael Shrieve / Octave of the Holy Innocents

Used drive : PIONEER DVD-RW DVR-212D Adapter: 1 ID: 0

Read mode : Secure
Utilize accurate stream : Yes
Defeat audio cache : Yes
Make use of C2 pointers : No

Read offset correction : 48
Overread into Lead-In and Lead-Out : No
Fill up missing offset samples with silence : Yes
Delete leading and trailing silent blocks : No
Null samples used in CRC calculations : No
Used interface : Native Win32 interface for Win NT & 2000

Used output format : Internal WAV Routines
Sample format : 44.100 Hz; 16 Bit; Stereo


TOC of the extracted CD

Track | Start | Length | Start sector | End sector
––––––––––––––––––––––––––––-
1 | 0:00.00 | 15:06.68 | 0 | 68017
2 | 15:06.68 | 5:25.07 | 68018 | 92399
3 | 20:32.00 | 9:15.55 | 92400 | 134079
4 | 29:47.55 | 5:50.45 | 134080 | 160374
5 | 35:38.25 | 7:12.28 | 160375 | 192802


Range status and errors

Selected range

Filename D:\Jonas Hellborg - Octave of the Holy Innocents.wav

Peak level 92.1 %
Range quality 100.0 %
Copy CRC 5B9AB836
Copy OK

No errors occurred


AccurateRip summary

Track 1 accurately ripped (confidence 1) [DCB7B015]
Track 2 accurately ripped (confidence 1) [A8F89AF1]
Track 3 accurately ripped (confidence 1) [2D9B5C51]
Track 4 accurately ripped (confidence 1) [64B4F0EE]
Track 5 accurately ripped (confidence 1) [74638931]

All tracks accurately ripped

End of status report


––––––––––––––––––––––––––––––––––––––––
Analyzed: Jonas Hellborg, Buckethead, Michael Shrieve / Octave of the Holy Innocents
––––––––––––––––––––––––––––––––––––––––

DR Peak RMS Duration Track
––––––––––––––––––––––––––––––––––––––––
DR13 -0.72 dB -17.21 dB 15:07 01-Rana and Fara
DR12 -0.71 dB -14.50 dB 5:25 02-Death that sleeps in them
DR13 -2.43 dB -20.69 dB 9:16 03-The past is a different country, I don't live there anymore
DR14 -1.29 dB -17.78 dB 5:51 04-Child King
DR13 -0.73 dB -16.19 dB 7:12 05-Kidogo
––––––––––––––––––––––––––––––––––––––––

Number of tracks: 5
Official DR value: DR13

Samplerate: 44100 Hz
Channels: 2
Bits per sample: 16
Bitrate: 771 kbps
Codec: FLAC
================================================================================

Jonas Hellborg - Octave Of The Holy Innocents (1993) {Day Eight Music}
Jonas Hellborg - Octave Of The Holy Innocents (1993) {Day Eight Music}
Jonas Hellborg - Octave Of The Holy Innocents (1993) {Day Eight Music}


Thanks to the original ripper