Subcategories

Jordan Rudess - Listen (1993)

Posted By: Andi_Deris
Jordan Rudess - Listen (1993)

Jordan Rudess - Listen (1993)
EAC Rip | FLAC: Image+Cue+Log | 430 Mb | MP3 CBR 320 kbps | 140 Mb | 01:00:19
Invincible Records | INVCD1000
Progressive Rock, Crossover Prog

This is Rudess' second studio album, his first being Arrival released in 1988. In 1994 Jordan was named "Best New Talent" by Keyboard Magazine. The award was given to him based upon his live performances and this album.

Jordan Rudess - Listen (1993)




Track Listing

01. Listen To The Voice (03:52)
02. Inspiration (05:15)
03. Beyond The Shoreline (04:33)
04. Fade Away (04:32)
05. It's A Mystery (06:47)
06. Feel The Magic (06:26)
07. Invisible Child (05:59)
08. Across The Sky (07:18)
09. Take Time (07:48)
10. Danielle (05:19)
11. Boogie Wacky Woogie (02:32)

Produced by Liv Singh Khalsa

Musicians

• Jordan Rudess - Keyboards, Vocals
• Barbara Bock - Vocals
• Jim Simmons - Bass
• Chris Amelar - Guitar
• Ken Mary- Drums

Exact Audio Copy V0.99 prebeta 5 from 4. May 2009

EAC extraction logfile from 24. November 2009, 14:52

Jordan Rudess / Listen

Used drive : Optiarc DVD+-RW AD-5540A Adapter: 1 ID: 0

Read mode : Secure
Utilize accurate stream : Yes
Defeat audio cache : Yes
Make use of C2 pointers : No

Read offset correction : 48
Overread into Lead-In and Lead-Out : No
Fill up missing offset samples with silence : Yes
Delete leading and trailing silent blocks : No
Null samples used in CRC calculations : Yes
Used interface : Installed external ASPI interface

Used output format : Internal WAV Routines
Sample format : 44.100 Hz; 16 Bit; Stereo


TOC of the extracted CD

Track | Start | Length | Start sector | End sector
––––––––––––––––––––––––––––-
1 | 0:00.00 | 3:51.73 | 0 | 17397
2 | 3:51.73 | 5:14.52 | 17398 | 40999
3 | 9:06.50 | 4:33.18 | 41000 | 61492
4 | 13:39.68 | 4:31.57 | 61493 | 81874
5 | 18:11.50 | 6:46.70 | 81875 | 112394
6 | 24:58.45 | 6:25.50 | 112395 | 141319
7 | 31:24.20 | 5:58.45 | 141320 | 168214
8 | 37:22.65 | 7:17.40 | 168215 | 201029
9 | 44:40.30 | 7:47.38 | 201030 | 236092
10 | 52:27.68 | 5:18.70 | 236093 | 260012
11 | 57:46.63 | 2:31.42 | 260013 | 271379


Range status and errors

Selected range

Filename I:\Music\My Rips\Jordan Rudess 1993 - Listen\cdimage.wav

Peak level 100.0 %
Range quality 99.9 %
Copy CRC 3D68DC3E
Copy OK

No errors occurred


AccurateRip summary

Track 1 accurately ripped (confidence 3) [B1617A26]
Track 2 accurately ripped (confidence 3) [886098EE]
Track 3 accurately ripped (confidence 3) [5762AF25]
Track 4 accurately ripped (confidence 3) [34F3A4C0]
Track 5 accurately ripped (confidence 3) [7C765C82]
Track 6 accurately ripped (confidence 3) [167A015A]
Track 7 accurately ripped (confidence 3) [83E852B1]
Track 8 accurately ripped (confidence 3) [5DD17173]
Track 9 accurately ripped (confidence 3) [62E75B78]
Track 10 accurately ripped (confidence 3) [CD618FA9]
Track 11 accurately ripped (confidence 3) [47FD4B00]

All tracks accurately ripped

End of status report


Many thanks to the original uploader: IvanZS


7 for 4 2001 Contact
7 for 4 2004 Time
7 for 4 2008 Diffusion
7 for 4 2014 Splash

The D Project 2006 Shimering Lights
The D Project 2008 The Sagarmatha Dilemma
The D Project 2011 Big Face
The D Project 2014 Making Sense

Dream Theater 1989 When Dream And Day Unite [Japan (mini LP) SHM-CD 2013]
Dream Theater 1992 Images And Words [Japanese Ed. 1997]
Dream Theater 2004 Live At Budokan [Japanese Ed.] 3xCD
Dream Theater 2004 Double Feature - Images And Words: Live In Tokyo / 5 Years In A Livetime [2xDVD9]
Dream Theater 2006 Dark Side Of The Moon (Official Bootleg) 2xCD
Dream Theater 2006 Dark Side Of The Moon (Official Bootleg) [DVD5]
Dream Theater 2013 Dream Theater [Japanese Ed.]
Dream Theater 2016 The Astonishing [2CD, Digipak]

Flying Colors 2012 Flying Colors [Limited Ed.]
Flying Colors 2014 Second Nature [Digipak]

Jordan Rudess 2001 Feeding The Wheel
Jordan Rudess 2002 4NYC
Jordan Rudess 2004 Rhythm Of Time
Jordan Rudess 2006 Prime Cuts
Jordan Rudess 2007 The Road Home [Digipak]

Liquid Tension Experiment 1998 Liquid Tension Experiment
Liquid Tension Experiment 1999 Liquid Tension Experiment 2
Liquid Trio Experiment 2007 Spontaneous Combustion
Liquid Tension Experiment 2009 LTE Live 2008 [Limited Ed. Boxset, 6 CDs]

Paul Gilbert 1998 Flying Dog [Japanese Ed.]
Paul Gilbert 2005 Space Ship Live [DVD]
Paul Gilbert & Freddie Nelson 2009 United States
Paul Gilbert 2010 Fuzz Universe
Paul Gilbert 2012 Vibrato
Paul Gilbert 2014 Stone Pushing Uphill Man

The Prog Collective 2012 The Prog Collective
The Prog Collective 2013 Epilogue [Digipak]

Seventh Key 2001 Seventh Key
Seventh Key 2004 The Raging Fire [Japanese Ed.]
Seventh Key 2005 Live In Atlanta
Seventh Key 2013 I Will Survive
Seventh Key 2013 I Will Survive [Japanese Ed. 2014]

Stick Men 2010 Soup
Stick Men 2011 Absalom
Stick Men 2012 Open
Stick Men 2013 Deep

Tony Levin / David Torn / Alan White 2011 Levin Torn White

Transatlantic 2000 SMPTe [Japan HQCD, 2014] 2xCD
Transatlantic 2001 Bridge Across Forever [Japan HQCD, 2014] 2xCD
Transatlantic 2009 The Whirlwind [Japan HQCD, 2014] 2xCD
Transatlantic 2014 Kaleidoscope [Japan HQCD] 2xCD

V.A. 1999 Voices: A Tribute To Dream Theater [2CD]




Password: pass