Tags
Language
Tags

Jordi Savall, Le Concert des Nations, La Capella Reial de Catalunya - Vivaldi: Juditha Triumphans (2019)

Posted By: ArlegZ
Jordi Savall, Le Concert des Nations, La Capella Reial de Catalunya - Vivaldi: Juditha Triumphans (2019)

Jordi Savall, Le Concert des Nations, La Capella Reial de Catalunya - Vivaldi: Juditha Triumphans (2019)
EAC | FLAC | Image (Cue & Log) ~ 901 Mb | Total time: 75:56+64:37 | Scans included
Classical | Label: Alia Vox | # AVSA9935 | Recorded: 2006

‘Judith triumphant over the barbarians of Holofernes’ is the only survivor of the four oratorios that Vivaldi is known to have composed. The work was commissioned to celebrate the victory of the Republic of Venice over the Turks during the siege of Corfu. All characters, male and female, are interpreted by women (originally the singers of the Ospedale della Pietà in Venice). Although the rest of the oratorio survives completely intact, the overture has been lost and Jordi Savall has selected two existing concertos as introduction, of which the key, mode and no doubt date of composition coincide most closely with the subject of the oratorio.
The oratorio Juditha triumphans marks the climax of Vivaldi’s vocal production. The great beauty of its arias and choral parts, the compact dramatic quality of its recitatives and the richness of instrumentation all single it out as one of the most intense and fascinating examples of the genre.

Performer:
Judith - Marianne Beate Kielland, mezzo-soprano
Vagaus - Rachel Redmond, soprano
Holopherne - Marina de Liso, mezzo-soprano
Abra - Lucía Martín-Cartón, soprano
Ozias - Kristin Mulders, mezzo-soprano
La Capella Reial de Catalunya
Le Concert des Nations
Conductor - Jordi Savall

Track List:
CD1:
01. Concerto en Ré majeur per la Solennità di San Lorenzo, RV 562: Andante – Allegro
02. Concerto en Ré majeur Op. 3, nº 9, RV 230: Larghetto
Juditha Triumphans Devicta Holofernis Barbarie (Venise, 1716)
Sacrum militare oratorium, RV 644
PARS PRIOR
03. Chœur des soldats assyriens : Arma, cædes, vindictæ, furores
04. Récitatif (Holopherne) : Felix en fausta dies
05. Aria (Holopherne) : Nil arma, nil bella
06. Récitatif (Vagaus, Holopherne) : Mi Dux, Domine mi
07. Aria (Vagaus) : Matrona inimica
08. Récitatif (Holopherne, Vagaus) : Huc accedat Matrona
09. Aria (Judith) : Quo cum Patriæ
10. Récitatif (Abra) : Ne timeas non
11. Aria (Abra) : Vultus tui vago splendori
12. Récitatif (Abra, Judith) : Vide, humilis prostrata
13. Aria (Vagaus) & Chœur des soldats assyriens : O quam vaga, venusta
14. Récitatif (Vagaus) : Quem vides prope
15. Aria (Vagaus) : Quamvis ferro, et ense gravis
16. Récitatif (Holopherne, Judith) : Quid cerno! Oculi mei
17. Aria (Judith) : Quanto magis generosa
18. Récitatif (Holopherne, Judith) : Magna, o fœmina petis
19. Aria (Holopherne) : Sede, o cara, dilecta speciosa
20. Récitatif (Judith, Holopherne) : Tu Judex es
21. Aria (Judith) : Agitata infido flatu
22. Récitatif (Holopherne) : In tentorio supernæ
23. Aria (Vagaus) & Chœur des serviteurs : O servi volate
24. Récitatif (Vagaus, Abra) : Tu quoque hebraica ancilla
25. Aria (Judith) : Veni, veni, me sequere fida
26. Récitatif (Abra) : Venio, Juditha, venio
27. Aria (Abra) : Fulgeat sol frontis decoræ
28. Récitatif (Abra) : In Urbe interim pia
29. Chœur des femmes de Béthulie : Mundi Rector de Cælo
CD2:
PARS ALTERA
01. Récitatif (Ozias) : Summi Regis in mente
02. Aria (Ozias) : O Sydera, o stellæ
03. Récitatif (Ozias, Holopherne) : Jam sævientis in hostem
04. Aria (Holopherne) : Nox obscura tenebrosa
05. Récitatif (Holopherne, Judith) : Belligeræe meæ sorti
06. Aria (Judith) : Transit ætas, volant anni
07. Récitatif (Holopherne, Judith) : Hæc in crastinum serva
08. Aria (Holopherne) : Noli, o cara, te adorantis
09. Récitatif (Judith, Holopherne) : Tibi dona salutis
10. Chœur des soldats ivres : Plena nectare non mero
11. Récitatif (Holopherne) : Tormenta mentis tuæ
12. Aria (Judith) : Vivat in pace
13. Récitatif (Judith) : Sic in Pace inter hostes
14. Aria (Vagaus) : Umbræ caræ
15. Récitatif (Vagaus, Judith, Abra) : Quae fortunata es tu
16. Aria (Abra) : Non ita reducem
17. Récitatif (Abra) : Jam pergo, postes claudo
18. Recitativo accompagnato (Judith) : Summe Astrorum Creator
19. Aria (Judith) : In somno profundo
20. Recitativo accompagnato (Judith) : Impii, indigni Tiranni
21. Récitatif (Judith, Abra) : Abra, Abra accipe munus
22. Aria (Abra) : Si fulgida per te
23. Récitatif (Vagaus) : Jam non procul ab axe
24. Aria (Vagaus) : Armatæ face
25. Récitatif (Ozias) : Quam insolita luce
26. Aria (Ozias) : Gaude felix Bethulia lætare
27. Recitativo accompagnato (Ozias) : Ita decreto æterno
28. Chœur des Judéens : Salve invicta Juditha formosa


Exact Audio Copy V1.2 from 12. August 2016

EAC extraction logfile from 10. October 2019, 22:58

Jordi Savall, Le Concert des Nations / Juditha Triumphans (Disc 1 of 2)

Used drive : MATSHITADVD-RAM UJ8G6 Adapter: 1 ID: 0

Read mode : Secure
Utilize accurate stream : Yes
Defeat audio cache : Yes
Make use of C2 pointers : No

Read offset correction : 103
Overread into Lead-In and Lead-Out : No
Fill up missing offset samples with silence : Yes
Delete leading and trailing silent blocks : No
Null samples used in CRC calculations : Yes
Used interface : Native Win32 interface for Win NT & 2000

Used output format : User Defined Encoder
Selected bitrate : 768 kBit/s
Quality : High
Add ID3 tag : No
Command line compressor : C:\Program Files (x86)\Exact Audio Copy\Flac\flac.exe
Additional command line options : -6 -V -T "ARTIST=%artist%" -T "TITLE=%title%" -T "ALBUM=%albumtitle%" -T "DATE=%year%" -T "TRACKNUMBER=%tracknr%" -T "GENRE=%genre%" -T "COMMENT=%comment%" -T "BAND=%albuminterpret%" -T "ALBUMARTIST=%albuminterpret%" -T "DISCNUMBER=%cdnumber%" -T "TOTALDISCS=%totalcds%" -T "TOTALTRACKS=%numtracks%" %hascover%–picture="%coverfile%"%hascover% %source% -o %dest% -T "RIPPER=Roy@Susato"


TOC of the extracted CD

Track | Start | Length | Start sector | End sector
––––––––––––––––––––––––––––-
1 | 0:00.00 | 5:55.13 | 0 | 26637
2 | 5:55.13 | 2:30.40 | 26638 | 37927
3 | 8:25.53 | 4:00.73 | 37928 | 56000
4 | 12:26.51 | 0:44.12 | 56001 | 59312
5 | 13:10.63 | 3:22.04 | 59313 | 74466
6 | 16:32.67 | 0:28.63 | 74467 | 76629
7 | 17:01.55 | 4:32.03 | 76630 | 97032
8 | 21:33.58 | 1:07.28 | 97033 | 102085
9 | 22:41.11 | 3:46.74 | 102086 | 119109
10 | 26:28.10 | 0:16.59 | 119110 | 120368
11 | 26:44.69 | 3:07.49 | 120369 | 134442
12 | 29:52.43 | 0:32.72 | 134443 | 136914
13 | 30:25.40 | 1:30.38 | 136915 | 143702
14 | 31:56.03 | 0:26.67 | 143703 | 145719
15 | 32:22.70 | 3:25.71 | 145720 | 161165
16 | 35:48.66 | 1:43.36 | 161166 | 168926
17 | 37:32.27 | 7:26.48 | 168927 | 202424
18 | 44:59.00 | 1:00.08 | 202425 | 206932
19 | 45:59.08 | 3:14.66 | 206933 | 221548
20 | 49:13.74 | 1:17.13 | 221549 | 227336
21 | 50:31.12 | 3:47.50 | 227337 | 244411
22 | 54:18.62 | 0:34.09 | 244412 | 246970
23 | 54:52.71 | 4:04.05 | 246971 | 265275
24 | 58:57.01 | 0:48.08 | 265276 | 268883
25 | 59:45.09 | 6:27.35 | 268884 | 297943
26 | 66:12.44 | 0:14.15 | 297944 | 299008
27 | 66:26.59 | 4:56.44 | 299009 | 321252
28 | 71:23.28 | 0:32.22 | 321253 | 323674
29 | 71:55.50 | 3:55.54 | 323675 | 341353


Range status and errors

Selected range

Filename C:\Users\Roy\Music\VIVALDI - Juditha Triumphans (2018) [Savall; AliaVox]\CD (FLAC + CUE)\CD 1\Antonio Vivaldi - Juditha Triumphans (Disc 1 of 2).wav

Peak level 73.6 %
Extraction speed 2.7 X
Range quality 99.9 %
Test CRC E767910E
Copy CRC E767910E
Copy OK

No errors occurred


AccurateRip summary

Track 1 not present in database
Track 2 not present in database
Track 3 not present in database
Track 4 not present in database
Track 5 not present in database
Track 6 not present in database
Track 7 not present in database
Track 8 not present in database
Track 9 not present in database
Track 10 not present in database
Track 11 not present in database
Track 12 not present in database
Track 13 not present in database
Track 14 not present in database
Track 15 not present in database
Track 16 not present in database
Track 17 not present in database
Track 18 not present in database
Track 19 not present in database
Track 20 not present in database
Track 21 not present in database
Track 22 not present in database
Track 23 not present in database
Track 24 not present in database
Track 25 not present in database
Track 26 not present in database
Track 27 not present in database
Track 28 not present in database
Track 29 not present in database

None of the tracks are present in the AccurateRip database

End of status report

–– CUETools DB Plugin V2.1.6

[CTDB TOCID: ERE8BA.p6aKypcmgZYumH1tw8Qg-] disk not present in database
Submit result: ERE8BA.p6aKypcmgZYumH1tw8Qg- has been uploaded


==== Log checksum 38517C64CB23E34146FFAB4DEDE87502CD04D8757B541F63FCE9D82337498D90 ====


Exact Audio Copy V1.2 from 12. August 2016

EAC extraction logfile from 10. October 2019, 23:58

Jordi Savall, Le Concert des Nations / Antonio Vivaldi - Juditha Triumphans (Disc 2 of 2)

Used drive : MATSHITADVD-RAM UJ8G6 Adapter: 1 ID: 0

Read mode : Secure
Utilize accurate stream : Yes
Defeat audio cache : Yes
Make use of C2 pointers : No

Read offset correction : 103
Overread into Lead-In and Lead-Out : No
Fill up missing offset samples with silence : Yes
Delete leading and trailing silent blocks : No
Null samples used in CRC calculations : Yes
Used interface : Native Win32 interface for Win NT & 2000

Used output format : User Defined Encoder
Selected bitrate : 768 kBit/s
Quality : High
Add ID3 tag : No
Command line compressor : C:\Program Files (x86)\Exact Audio Copy\Flac\flac.exe
Additional command line options : -6 -V -T "ARTIST=%artist%" -T "TITLE=%title%" -T "ALBUM=%albumtitle%" -T "DATE=%year%" -T "TRACKNUMBER=%tracknr%" -T "GENRE=%genre%" -T "COMMENT=%comment%" -T "BAND=%albuminterpret%" -T "ALBUMARTIST=%albuminterpret%" -T "DISCNUMBER=%cdnumber%" -T "TOTALDISCS=%totalcds%" -T "TOTALTRACKS=%numtracks%" %hascover%–picture="%coverfile%"%hascover% %source% -o %dest% -T "RIPPER=Roy@Susato"


TOC of the extracted CD

Track | Start | Length | Start sector | End sector
––––––––––––––––––––––––––––-
1 | 0:00.00 | 1:15.54 | 0 | 5678
2 | 1:15.54 | 4:18.29 | 5679 | 25057
3 | 5:34.08 | 0:58.22 | 25058 | 29429
4 | 6:32.30 | 6:13.48 | 29430 | 57452
5 | 12:46.03 | 1:12.72 | 57453 | 62924
6 | 13:59.00 | 4:20.59 | 62925 | 82483
7 | 18:19.59 | 0:41.12 | 82484 | 85570
8 | 19:00.71 | 5:25.04 | 85571 | 109949
9 | 24:26.00 | 0:22.39 | 109950 | 111638
10 | 24:48.39 | 1:15.07 | 111639 | 117270
11 | 26:03.46 | 0:25.45 | 117271 | 119190
12 | 26:29.16 | 3:59.54 | 119191 | 137169
13 | 30:28.70 | 0:40.74 | 137170 | 140243
14 | 31:09.69 | 5:14.18 | 140244 | 163811
15 | 36:24.12 | 1:41.24 | 163812 | 171410
16 | 38:05.36 | 3:36.55 | 171411 | 187665
17 | 41:42.16 | 0:14.69 | 187666 | 188784
18 | 41:57.10 | 1:15.19 | 188785 | 194428
19 | 43:12.29 | 4:29.10 | 194429 | 214613
20 | 47:41.39 | 0:47.27 | 214614 | 218165
21 | 48:28.66 | 0:41.28 | 218166 | 221268
22 | 49:10.19 | 3:12.13 | 221269 | 235681
23 | 52:22.32 | 1:15.02 | 235682 | 241308
24 | 53:37.34 | 3:03.39 | 241309 | 255072
25 | 56:40.73 | 1:16.69 | 255073 | 260841
26 | 57:57.67 | 3:28.42 | 260842 | 276483
27 | 61:26.34 | 1:12.02 | 276484 | 281885
28 | 62:38.36 | 1:56.59 | 281886 | 290644


Range status and errors

Selected range

Filename C:\Users\Roy\Music\VIVALDI - Juditha Triumphans (2018) [Savall; AliaVox]\CD (FLAC + CUE)\CD 2\Antonio Vivaldi - Juditha Triumphans (Disc 2 of 2).wav

Peak level 72.5 %
Extraction speed 2.6 X
Range quality 100.0 %
Test CRC F509C4C8
Copy CRC F509C4C8
Copy OK

No errors occurred


AccurateRip summary

Track 1 not present in database
Track 2 not present in database
Track 3 not present in database
Track 4 not present in database
Track 5 not present in database
Track 6 not present in database
Track 7 not present in database
Track 8 not present in database
Track 9 not present in database
Track 10 not present in database
Track 11 not present in database
Track 12 not present in database
Track 13 not present in database
Track 14 not present in database
Track 15 not present in database
Track 16 not present in database
Track 17 not present in database
Track 18 not present in database
Track 19 not present in database
Track 20 not present in database
Track 21 not present in database
Track 22 not present in database
Track 23 not present in database
Track 24 not present in database
Track 25 not present in database
Track 26 not present in database
Track 27 not present in database
Track 28 not present in database

None of the tracks are present in the AccurateRip database

End of status report

–– CUETools DB Plugin V2.1.6

[CTDB TOCID: Vu2EoKUhm05nSmFQzTwpnn334og-] disk not present in database
Submit result: Vu2EoKUhm05nSmFQzTwpnn334og- has been uploaded


==== Log checksum 07A7291D3227B1B1C5C47B069BA241B00837B0899E49B54EDB6E4E149016404B ====

Jordi Savall, Le Concert des Nations, La Capella Reial de Catalunya - Vivaldi: Juditha Triumphans (2019)

Thanks to the original releaser