Tags
Language
Tags

Jordi Savall - Tobias Hume: Musicall Humors, London 1605 (2004)

Posted By: ArlegZ
Jordi Savall - Tobias Hume: Musicall Humors, London 1605 (2004)

Jordi Savall - Tobias Hume: Musicall Humors, London 1605 (2004)
EAC | FLAC | Image (Cue & Log) ~ 472 Mb | Total time: 69:54 | Scans included
Classical | Label: Alia Vox ‎‎| AV9837 | Recorded: 2004

Tobias Hume (c.1570-1645) was a professional soldier and a ‘gentleman’ (read amateur) composer, and virtuoso of the bass viol. His Musicall Humors (1605), a large collection of solo pieces, is the first publication devoted to the lyra viol, a style of playing that treated the instrument polyphonically, like a lute. Hume reveals himself as a distinct, even eccentric, personality, and an inventive composer, expanding the viol’s normal range with such unusual devices as col legno (‘Drum this with the backe of your Bow’). Jordi Savall’s cultivated, elegant style is very appropriate for much of the music; occasionally he adopts a more earthy manner to great effect – for example in A Souldiers Resolution, with its trumpet and drum imitations. When Captain Hume’s Humors become more reflective, in a piece like Beccus an Hungarian Lord, Savall uses varied bow strokes and dynamic shadings with great artistry, to bring out the music’s dignified, sombre character.
In characterising the music so strongly, Savall’s rhythms are often very free; the rushing scalic divisions and lingering approaches to cadences balance one another, and prevent the music ever seeming stiff or mechanical. But with such improvisatory freedom it’s often quite difficult to follow the basic metre – this is especially so in the Pavanes, where I longed to hear the stately dance measure more clearly emphasised. But I’m very grateful to Savall for extending the Hume discography so effectively and stylishly. It’s a finely produced disc, too, with a fascinating essay about the composer by David Pinto.
–Duncan Druce

Performer:
Jordi Savall, viola da gamba

Track List:
01. A humorous Pavin (Musical Humors, 43)
02. Captaine Humes Galliard
03. My hope is decayed (No 7 in Musical Humors)
04. Captaine Humes Pauin (No 46 in Musical Humors)
05. Hark! Hark! (No 10 in Musical Humors)
06. Souldiers Galliard, A 9 (No 48 in Musical Humors)
07. The Spirit of Gambo (Musical Humors, 4)
08. A Pauin (No 42 in Musical Humors)
09. Touche me lightly (No 38 in Musical Humors)
10. Beccus, an Hungarian Lord his delight (No 95 in Musical Humors)
11. Second part, The (No 96 in Musical Humors)
12. Love's Farewell (No 47 in Musicall Humors, 1605)
13. Duke of Holstones Almaine, The (No 6 in Musical Humors)
14. Death, for chamber ensemble (No. 12, "Musical Humors")
15. Life (No 13 in Musical Humors)
16. A Question (Musical Humors, 25)
17. An Answere (Musical Humors, 26)
18. The new Cut (Musical Humors, 27)
19. A Souldiers Resolution, (No 11 in Musical Humors)
20. Good againe (No 14 in Musical Humors)


Exact Audio Copy V1.4 from 3. February 2020

EAC extraction logfile from 23. February 2020, 17:12

Jordi Savall / Tobias Hume - Musicall Humors

Used drive : HL-DT-STBD-RE WH16NS40 Adapter: 1 ID: 0

Read mode : Secure
Utilize accurate stream : Yes
Defeat audio cache : Yes
Make use of C2 pointers : No

Read offset correction : 6
Overread into Lead-In and Lead-Out : No
Fill up missing offset samples with silence : Yes
Delete leading and trailing silent blocks : No
Null samples used in CRC calculations : Yes
Used interface : Native Win32 interface for Win NT & 2000

Used output format : User Defined Encoder
Selected bitrate : 1024 kBit/s
Quality : High
Add ID3 tag : No
Command line compressor : C:\Program Files (x86)\Exact Audio Copy\FLAC\FLAC.EXE
Additional command line options : -6 -V -T "ARTIST=%artist%" -T "TITLE=%title%" -T "ALBUM=%albumtitle%" -T "DATE=%year%" -T "TRACKNUMBER=%tracknr%" -T "GENRE=%genre%" -T "COMMENT=%comment%" -T "BAND=%albuminterpret%" -T "ALBUMARTIST=%albuminterpret%" -T "COMPOSER=%composer%" %haslyrics%–tag-from-file=LYRICS="%lyricsfile%"%haslyrics% -T "DISCNUMBER=%cdnumber%" -T "TOTALDISCS=%totalcds%" -T "TOTALTRACKS=%numtracks%" %hascover%–picture="%coverfile%"%hascover% %source% -o %dest%


TOC of the extracted CD

Track | Start | Length | Start sector | End sector
––––––––––––––––––––––––––––-
1 | 0:00.01 | 4:29.38 | 1 | 20213
2 | 4:29.39 | 3:05.47 | 20214 | 34135
3 | 7:35.11 | 2:44.60 | 34136 | 46495
4 | 10:19.71 | 7:20.71 | 46496 | 79566
5 | 17:40.67 | 2:01.21 | 79567 | 88662
6 | 19:42.13 | 1:24.25 | 88663 | 94987
7 | 21:06.38 | 3:07.09 | 94988 | 109021
8 | 24:13.47 | 5:29.56 | 109022 | 133752
9 | 29:43.28 | 2:51.17 | 133753 | 146594
10 | 32:34.45 | 3:07.59 | 146595 | 160678
11 | 35:42.29 | 2:33.02 | 160679 | 172155
12 | 38:15.31 | 3:40.26 | 172156 | 188681
13 | 41:55.57 | 2:40.67 | 188682 | 200748
14 | 44:36.49 | 5:23.54 | 200749 | 225027
15 | 50:00.28 | 1:56.21 | 225028 | 233748
16 | 51:56.49 | 2:36.49 | 233749 | 245497
17 | 54:33.23 | 3:43.37 | 245498 | 262259
18 | 58:16.60 | 2:33.46 | 262260 | 273780
19 | 60:50.31 | 3:46.60 | 273781 | 290790
20 | 64:37.16 | 5:07.23 | 290791 | 313838


Range status and errors

Selected range

Filename C:\Users\Grant\Desktop\Jordi Savall - Tobias Hume - Musicall Humors.wav

Peak level 99.3 %
Extraction speed 8.7 X
Range quality 99.9 %
Test CRC 8048FE8A
Copy CRC 8048FE8A
Copy OK

No errors occurred


AccurateRip summary

Track 1 accurately ripped (confidence 4) [9B4926CD] (AR v2)
Track 2 accurately ripped (confidence 4) [2CCFB20A] (AR v2)
Track 3 accurately ripped (confidence 4) [240FED16] (AR v2)
Track 4 accurately ripped (confidence 4) [2DCBA97C] (AR v2)
Track 5 accurately ripped (confidence 4) [DB843D70] (AR v2)
Track 6 accurately ripped (confidence 4) [704F0693] (AR v2)
Track 7 accurately ripped (confidence 4) [F3BD6EC8] (AR v2)
Track 8 accurately ripped (confidence 4) [4379581D] (AR v2)
Track 9 accurately ripped (confidence 4) [AFB98003] (AR v2)
Track 10 accurately ripped (confidence 4) [ACE902A7] (AR v2)
Track 11 accurately ripped (confidence 4) [F4DE2E75] (AR v2)
Track 12 accurately ripped (confidence 4) [7AD7EB48] (AR v2)
Track 13 accurately ripped (confidence 4) [95FABFD1] (AR v2)
Track 14 accurately ripped (confidence 4) [3E2F4187] (AR v2)
Track 15 accurately ripped (confidence 4) [371FFEBB] (AR v2)
Track 16 accurately ripped (confidence 4) [4B0B5747] (AR v2)
Track 17 accurately ripped (confidence 4) [1A5E2727] (AR v2)
Track 18 accurately ripped (confidence 4) [437C0CA1] (AR v2)
Track 19 accurately ripped (confidence 4) [29F68C20] (AR v2)
Track 20 accurately ripped (confidence 4) [92532136] (AR v2)

All tracks accurately ripped

End of status report

–– CUETools DB Plugin V2.1.6

[CTDB TOCID: WRIJBJqHNonEtZllQn24.Q9jTxs-] found
Submit result: WRIJBJqHNonEtZllQn24.Q9jTxs- has been confirmed
Track | CTDB Status
1 | (42/42) Accurately ripped
2 | (42/42) Accurately ripped
3 | (42/42) Accurately ripped
4 | (42/42) Accurately ripped
5 | (42/42) Accurately ripped
6 | (42/42) Accurately ripped
7 | (42/42) Accurately ripped
8 | (42/42) Accurately ripped
9 | (42/42) Accurately ripped
10 | (42/42) Accurately ripped
11 | (42/42) Accurately ripped
12 | (42/42) Accurately ripped
13 | (42/42) Accurately ripped
14 | (41/42) Accurately ripped, or (1/42) differs in 6 samples @05:03:27-05:03:28
15 | (41/42) Accurately ripped
16 | (41/42) Accurately ripped
17 | (42/42) Accurately ripped
18 | (42/42) Accurately ripped
19 | (42/42) Accurately ripped
20 | (42/42) Accurately ripped


==== Log checksum 7561D114D69E30E15919D4CE54BD03CC0EDEB36841647417AFCD8CD4FCF9E96C ====

Jordi Savall - Tobias Hume: Musicall Humors, London 1605 (2004)

Thanks to the original releaser