Tags
Language
Tags

Jos van Immerseel - The Accent Recordings 1979-1986: Mozart, Beethoven, Clementi, Rossini (2015)

Posted By: tirexiss
Jos van Immerseel - The Accent Recordings 1979-1986: Mozart, Beethoven, Clementi, Rossini (2015)

Jos van Immerseel - The Accent Recordings 1979-1986: Mozart, Beethoven, Clementi, Rossini (2015)
EAC | FLAC (image+.cue, log) | Covers Included | 06:53:23 | 1,48 Gb
Genre: Classical | Label: Accent | Catalog: ACC 24311

A leader of the movement for historically informed performances, Jos van Immerseel has been active in performances of Renaissance and Baroque music, but he has concentrated on piano music of the Classical and Romantic eras, performing and recording much of the keyboard repertoire on period instruments. This eight-CD box set from Accent contains van Immerseel's recordings from 1979 to 1986, played on a variety of original pianofortes and modern reproductions, and with period instruments in the works for ensembles. The first three discs are devoted to keyboard pieces by Clementi, Mozart, and Beethoven, and van Immerseel's performances are energetic and robust, despite the curiously brittle sound of his pianofortes, which at times seem closer in timbre to a harpsichord. The remaining discs show van Immerseel in the company of other artists, in works by Mozart, Beethoven, Schumann, Kalliwoda, Pixis, Donizetti, Bellini, Schubert, and Rossini, whose Petite Messe Solennelle closes the set. Issued in 2015 to celebrate van Immerseel's 70th birthday, this set is an affordable introduction to his artistry and to the field of authentic period practices.

Jos van Immerseel - The Accent Recordings 1979-1986: Mozart, Beethoven, Clementi, Rossini (2015)

Track List:

CD1 - Clementi - Sonatas for the Pianoforte
Muzio Clementi (1752-1832)
[1]-[3] Sonata Op.24 No.2 in B flat major
[4]-[6] Sonata Op.25 No.5 in F sharp minor
[7]-[9] Sonata Op.37 No.2 in G major
[10]-[12] Sonata Op.13 No.6 in F minor

Exact Audio Copy V1.1 from 23. June 2015

EAC extraction logfile from 12. June 2016, 21:30

Jos van Immerseel / Clementi - Sonatas for the Pianoforte

Used drive : HL-DT-STDVDRAM GU70N Adapter: 1 ID: 0

Read mode : Secure
Utilize accurate stream : Yes
Defeat audio cache : Yes
Make use of C2 pointers : No

Read offset correction : 48
Overread into Lead-In and Lead-Out : No
Fill up missing offset samples with silence : Yes
Delete leading and trailing silent blocks : No
Null samples used in CRC calculations : Yes
Used interface : Native Win32 interface for Win NT & 2000

Used output format : User Defined Encoder
Selected bitrate : 128 kBit/s
Quality : High
Add ID3 tag : No
Command line compressor : C:\Program Files (x86)\Exact Audio Copy\Flac\flac.exe
Additional command line options : -V -8 -T "Date=%year%" -T "Genre=%genre%" %source%


TOC of the extracted CD

Track | Start | Length | Start sector | End sector
––––––––––––––––––––––––––––-
1 | 0:00.00 | 3:46.03 | 0 | 16952
2 | 3:46.03 | 4:58.55 | 16953 | 39357
3 | 8:44.58 | 3:34.25 | 39358 | 55432
4 | 12:19.08 | 6:27.32 | 55433 | 84489
5 | 18:46.40 | 4:27.38 | 84490 | 104552
6 | 23:14.03 | 3:18.47 | 104553 | 119449
7 | 26:32.50 | 4:50.23 | 119450 | 141222
8 | 31:22.73 | 3:04.52 | 141223 | 155074
9 | 34:27.50 | 4:06.18 | 155075 | 173542
10 | 38:33.68 | 3:45.62 | 173543 | 190479
11 | 42:19.55 | 6:22.48 | 190480 | 219177
12 | 48:42.28 | 3:20.37 | 219178 | 234214


Range status and errors

Selected range

Filename C:\temp\Jos van Immerseel - The Accent Recordings 1979-1986\CD1 - Clementi - Sonatas for the Pianoforte\Clementi - Sonatas for the Pianoforte.wav

Peak level 86.5 %
Extraction speed 4.9 X
Range quality 100.0 %
Test CRC 502F8CAD
Copy CRC 502F8CAD
Copy OK

No errors occurred


AccurateRip summary

Track 1 cannot be verified as accurate (confidence 3) [DC876C3A], AccurateRip returned [746F02FE] (AR v2)
Track 2 cannot be verified as accurate (confidence 3) [81FD24FB], AccurateRip returned [F641F021] (AR v2)
Track 3 cannot be verified as accurate (confidence 3) [F302F117], AccurateRip returned [A4D98A25] (AR v2)
Track 4 cannot be verified as accurate (confidence 3) [061C6EC8], AccurateRip returned [2041AE8D] (AR v2)
Track 5 cannot be verified as accurate (confidence 3) [9E041C10], AccurateRip returned [A75A680F] (AR v2)
Track 6 cannot be verified as accurate (confidence 3) [88F813F8], AccurateRip returned [47516975] (AR v2)
Track 7 cannot be verified as accurate (confidence 3) [ADA9ABE4], AccurateRip returned [170833B3] (AR v2)
Track 8 cannot be verified as accurate (confidence 3) [AAF16324], AccurateRip returned [6F429670] (AR v2)
Track 9 cannot be verified as accurate (confidence 3) [1CE5E6E6], AccurateRip returned [B794474A] (AR v2)
Track 10 cannot be verified as accurate (confidence 3) [13DD1A96], AccurateRip returned [82521BFD] (AR v2)
Track 11 cannot be verified as accurate (confidence 3) [0E5A9330], AccurateRip returned [BE61FD10] (AR v2)
Track 12 cannot be verified as accurate (confidence 3) [4B54241F], AccurateRip returned [9E1EEDC4] (AR v2)

No tracks could be verified as accurate
You may have a different pressing from the one(s) in the database

End of status report

==== Log checksum F05813054C60D1A0247E6C545FEE0F15B6D1BC6423F894570221826A8195AD6B ====

[CUETools log; Date: 24.07.2017 16:28:33; Version: 2.1.5]
[CTDB TOCID: uREAoiswfKDPizBRdrKv2t6oVeQ-] found.
Track | CTDB Status
1 | (9/9) Accurately ripped
2 | (9/9) Accurately ripped
3 | (8/9) Accurately ripped
4 | (9/9) Accurately ripped
5 | (9/9) Accurately ripped
6 | (9/9) Accurately ripped
7 | (9/9) Accurately ripped
8 | (9/9) Accurately ripped
9 | (9/9) Accurately ripped
10 | (8/9) Accurately ripped
11 | (9/9) Accurately ripped
12 | (9/9) Accurately ripped
[AccurateRip ID: 001767ff-00da0f2b-a70c320c] found.
Track [ CRC | V2 ] Status
01 [af279b35|dc876c3a] (00+00/10) No match
02 [479f8f02|81fd24fb] (00+00/10) No match
03 [2d0efaa7|f302f117] (00+00/10) No match
04 [f934fa06|061c6ec8] (00+00/10) No match
05 [e570492d|9e041c10] (00+00/10) No match
06 [e44ac758|88f813f8] (00+00/10) No match
07 [530dfc39|ada9abe4] (00+00/10) No match
08 [2e937318|aaf16324] (00+00/10) No match
09 [65611328|1ce5e6e6] (00+00/10) No match
10 [93e114c2|13dd1a96] (00+00/10) No match
11 [43f3dd50|0e5a9330] (00+00/10) No match
12 [a1f0fba5|4b54241f] (00+00/10) No match
Offsetted by 18:
01 [746f02fe] (03/10) Accurately ripped
02 [f641f021] (03/10) Accurately ripped
03 [a4d98a25] (03/10) Accurately ripped
04 [2041ae8d] (03/10) Accurately ripped
05 [a75a680f] (03/10) Accurately ripped
06 [47516975] (03/10) Accurately ripped
07 [170833b3] (03/10) Accurately ripped
08 [6f429670] (03/10) Accurately ripped
09 [b794474a] (03/10) Accurately ripped
10 [82521bfd] (03/10) Accurately ripped
11 [be61fd10] (03/10) Accurately ripped
12 [9e1eedc4] (03/10) Accurately ripped
Offsetted by 48:
01 [339c27f3] (03/10) Accurately ripped
02 [47ec6d57] (03/10) Accurately ripped
03 [65577cf8] (03/10) Accurately ripped
04 [dae3b869] (03/10) Accurately ripped
05 [d7954a53] (03/10) Accurately ripped
06 [fc1a16d3] (03/10) Accurately ripped
07 [5eeb8ee2] (03/10) Accurately ripped
08 [ef012161] (03/10) Accurately ripped
09 [35243ad2] (03/10) Accurately ripped
10 [a58f1e84] (03/10) Accurately ripped
11 [f6b76c95] (03/10) Accurately ripped
12 [f9dcd60a] (03/10) Accurately ripped

Track Peak [ CRC32 ] [W/O NULL] [ LOG ]
– 86,5 [502F8CAD] [FFC83BEC] CRC32
01 86,5 [F38F5635] [1C111AF5]
02 52,1 [DBF53E6A] [D3BF045B]
03 73,1 [1C9420A1] [1AC6EB54]
04 70,3 [8D061278] [F5507ADB]
05 55,3 [D562AFED] [47130537]
06 74,3 [D1B84B9C] [51DF5384]
07 59,5 [765ECCC9] [4851B03F]
08 32,0 [14D6F104] [B634431B]
09 62,6 [910D53B2] [DB46E2FE]
10 56,0 [C0A70966] [628900D3]
11 54,6 [31D80CBE] [0A33E2BF]
12 65,9 [BEE2022A] [69618105]

CD2 - Mozart - Works for Pianoforte
Wolfgang Amadeus Mozart
[1] Fantasia in C minor, K475
[2]-[4] Sonata in C minor, K457
[5] Fantasia in D minor, K397
[6] Twelve Variations on 'Ah, vous dirai-je, Maman', K265
[7] Rondo in A minor, K511

Exact Audio Copy V1.1 from 23. June 2015

EAC extraction logfile from 20. June 2016, 22:11

Jos van Immerseel / Mozart - Works for Pianoforte

Used drive : HL-DT-STDVDRAM GU70N Adapter: 1 ID: 0

Read mode : Secure
Utilize accurate stream : Yes
Defeat audio cache : Yes
Make use of C2 pointers : No

Read offset correction : 48
Overread into Lead-In and Lead-Out : No
Fill up missing offset samples with silence : Yes
Delete leading and trailing silent blocks : No
Null samples used in CRC calculations : Yes
Used interface : Native Win32 interface for Win NT & 2000

Used output format : User Defined Encoder
Selected bitrate : 128 kBit/s
Quality : High
Add ID3 tag : No
Command line compressor : C:\Program Files (x86)\Exact Audio Copy\Flac\flac.exe
Additional command line options : -V -8 -T "Date=%year%" -T "Genre=%genre%" %source%


TOC of the extracted CD

Track | Start | Length | Start sector | End sector
––––––––––––––––––––––––––––-
1 | 0:00.32 | 12:08.13 | 32 | 54644
2 | 12:08.45 | 4:57.25 | 54645 | 76944
3 | 17:05.70 | 9:29.00 | 76945 | 119619
4 | 26:34.70 | 4:59.37 | 119620 | 142081
5 | 31:34.32 | 5:53.38 | 142082 | 168594
6 | 37:27.70 | 13:02.00 | 168595 | 227244
7 | 50:29.70 | 12:35.00 | 227245 | 283869


Range status and errors

Selected range

Filename C:\temp\Jos van Immerseel - The Accent Recordings 1979-1986\CD2 - Mozart - Works for Pianoforte\Mozart - Works for Pianoforte.wav

Peak level 94.1 %
Extraction speed 2.1 X
Range quality 100.0 %
Test CRC AE83D952
Copy CRC AE83D952
Copy OK

No errors occurred


AccurateRip summary

Track 1 cannot be verified as accurate (confidence 3) [2E82721B], AccurateRip returned [81940D4D] (AR v2)
Track 2 cannot be verified as accurate (confidence 3) [382CD50E], AccurateRip returned [844BDE36] (AR v2)
Track 3 cannot be verified as accurate (confidence 3) [8F3549ED], AccurateRip returned [23292CBC] (AR v2)
Track 4 cannot be verified as accurate (confidence 3) [5CCB95F0], AccurateRip returned [354BE662] (AR v2)
Track 5 cannot be verified as accurate (confidence 3) [FDCF484D], AccurateRip returned [8C65A95A] (AR v2)
Track 6 cannot be verified as accurate (confidence 3) [F53E3D07], AccurateRip returned [072C3186] (AR v2)
Track 7 cannot be verified as accurate (confidence 3) [4F947910], AccurateRip returned [509F3D84] (AR v2)

No tracks could be verified as accurate
You may have a different pressing from the one(s) in the database

End of status report

==== Log checksum 1856EEB0D3D2E29BBF1332CE4EAD613A36A312E607DBD9BD92C085B459E7AA47 ====

[CUETools log; Date: 24.07.2017 16:29:00; Version: 2.1.5]
Pregap length 00:00:32.
[CTDB TOCID: CG5ziv0ir04W1AiOqHu9eAteUP0-] found.
Track | CTDB Status
1 | (9/9) Accurately ripped
2 | (9/9) Accurately ripped
3 | (9/9) Accurately ripped
4 | (7/9) Accurately ripped
5 | (7/9) Accurately ripped
6 | (9/9) Accurately ripped
7 | (9/9) Accurately ripped
[AccurateRip ID: 00105f8a-0061b0f4-5b0ec807] found.
Track [ CRC | V2 ] Status
01 [93dbd7f8|2e82721b] (00+02/10) Accurately ripped
02 [9e301460|382cd50e] (00+02/09) Accurately ripped
03 [5363b724|8f3549ed] (00+02/10) Accurately ripped
04 [d8edf6f4|5ccb95f0] (00+02/10) Accurately ripped
05 [4067815b|fdcf484d] (00+02/10) Accurately ripped
06 [6833b217|f53e3d07] (00+02/10) Accurately ripped
07 [90476a40|4f947910] (00+02/10) Accurately ripped
Offsetted by -662:
01 [ffeab731] (02/10) Accurately ripped
02 [6803a280] (02/09) Accurately ripped
03 [e5b4e5f1] (02/10) Accurately ripped
04 [84368fa8] (02/10) Accurately ripped
05 [d1631e37] (02/10) Accurately ripped
06 [c11fac97] (02/10) Accurately ripped
07 [03269d2c] (02/10) Accurately ripped
Offsetted by 18:
01 [f865f251] (00/10) No match (V2 was not tested)
02 [f16f7f61] (00/09) No match (V2 was not tested)
03 [f37b4948] (00/10) No match (V2 was not tested)
04 [b3eb96bc] (00/10) No match (V2 was not tested)
05 [c8b0526d] (00/10) No match (V2 was not tested)
06 [8af0330a] (00/10) No match (V2 was not tested)
07 [7fcdc426] (00/10) No match (V2 was not tested)

Track Peak [ CRC32 ] [W/O NULL] [ LOG ]
– 94,1 [AE83D952] [4157CD69] CRC32
01 89,7 [39A6E53D] [326441ED]
02 71,1 [FF417FFB] [C78E556B]
03 54,0 [6FB1283E] [0DF8976D]
04 91,3 [24DF0BB1] [6842391D]
05 91,2 [BBA375D8] [F6AB38EA]
06 94,1 [419FC865] [3A2E75EB]
07 62,4 [E782FD1E] [692FBD1A]

CD3 - Beethoven - Works for Pianoforte
Ludwig van Beethoven
[1]-[3] Sonata, Op.27 No.2 'Mondschein'
[4]-[9] Six Bagatelles, Op.126
[10]-[12] Grande Sonate Pathetique, Op.13
[13] Andante, WoO 57

Exact Audio Copy V1.1 from 23. June 2015

EAC extraction logfile from 21. June 2016, 10:12

Jos van Immerseel / Beethoven - Works for Pianoforte

Used drive : HL-DT-STDVDRAM GU70N Adapter: 1 ID: 0

Read mode : Secure
Utilize accurate stream : Yes
Defeat audio cache : Yes
Make use of C2 pointers : No

Read offset correction : 48
Overread into Lead-In and Lead-Out : No
Fill up missing offset samples with silence : Yes
Delete leading and trailing silent blocks : No
Null samples used in CRC calculations : Yes
Used interface : Native Win32 interface for Win NT & 2000

Used output format : User Defined Encoder
Selected bitrate : 128 kBit/s
Quality : High
Add ID3 tag : No
Command line compressor : C:\Program Files (x86)\Exact Audio Copy\Flac\flac.exe
Additional command line options : -V -8 -T "Date=%year%" -T "Genre=%genre%" %source%


TOC of the extracted CD

Track | Start | Length | Start sector | End sector
––––––––––––––––––––––––––––-
1 | 0:00.00 | 5:38.72 | 0 | 25421
2 | 5:38.72 | 2:25.43 | 25422 | 36339
3 | 8:04.40 | 7:16.70 | 36340 | 69109
4 | 15:21.35 | 3:43.70 | 69110 | 85904
5 | 19:05.30 | 2:45.25 | 85905 | 98304
6 | 21:50.55 | 2:32.17 | 98305 | 109721
7 | 24:22.72 | 4:23.33 | 109722 | 129479
8 | 28:46.30 | 2:18.40 | 129480 | 139869
9 | 31:04.70 | 3:22.35 | 139870 | 155054
10 | 34:27.30 | 8:20.00 | 155055 | 192554
11 | 42:47.30 | 4:28.22 | 192555 | 212676
12 | 47:15.52 | 4:41.25 | 212677 | 233776
13 | 51:57.02 | 9:55.35 | 233777 | 278436


Range status and errors

Selected range

Filename C:\temp\Jos van Immerseel - The Accent Recordings 1979-1986\CD3 - Beethoven - Works for Pianoforte\Beethoven - Works for Pianoforte.wav

Peak level 96.1 %
Extraction speed 5.0 X
Range quality 100.0 %
Test CRC 3513D4E9
Copy CRC 3513D4E9
Copy OK

No errors occurred


AccurateRip summary

Track 1 cannot be verified as accurate (confidence 5) [78196C90], AccurateRip returned [0398BBF7] (AR v2)
Track 2 cannot be verified as accurate (confidence 5) [555B8B62], AccurateRip returned [EA4C2D34] (AR v2)
Track 3 cannot be verified as accurate (confidence 5) [D7A22C82], AccurateRip returned [1A6F3EE3] (AR v2)
Track 4 cannot be verified as accurate (confidence 5) [FA90E34B], AccurateRip returned [D41C84EF] (AR v2)
Track 5 cannot be verified as accurate (confidence 5) [AD80A414], AccurateRip returned [F8F5613F] (AR v2)
Track 6 cannot be verified as accurate (confidence 5) [387F5013], AccurateRip returned [5D83FB23] (AR v2)
Track 7 cannot be verified as accurate (confidence 5) [F1EC74BD], AccurateRip returned [CB6C8A2D] (AR v2)
Track 8 cannot be verified as accurate (confidence 5) [D7BFA8CB], AccurateRip returned [1AAA0BE7] (AR v2)
Track 9 cannot be verified as accurate (confidence 5) [591B0262], AccurateRip returned [C3DFE553] (AR v2)
Track 10 cannot be verified as accurate (confidence 5) [416B7E12], AccurateRip returned [F2615A64] (AR v2)
Track 11 cannot be verified as accurate (confidence 5) [4E3C8E64], AccurateRip returned [676002F2] (AR v2)
Track 12 cannot be verified as accurate (confidence 4) [F9545F13], AccurateRip returned [580BCCB4] (AR v2)
Track 13 cannot be verified as accurate (confidence 5) [6CC7D65F], AccurateRip returned [D6024D87] (AR v2)

No tracks could be verified as accurate
You may have a different pressing from the one(s) in the database

End of status report

==== Log checksum DA1612C0473363DA853502B4D59474B14044B2D6F1E4BA04E5B972B5BC0EC252 ====

[CUETools log; Date: 24.07.2017 16:29:22; Version: 2.1.5]
[CTDB TOCID: VAlXPUUsDPqwwKT83WKQ6NV3n2g-] found.
Track | CTDB Status
1 | (10/10) Accurately ripped
2 | (10/10) Accurately ripped
3 | (10/10) Accurately ripped
4 | (10/10) Accurately ripped
5 | (10/10) Accurately ripped
6 | (10/10) Accurately ripped
7 | (10/10) Accurately ripped
8 | (10/10) Accurately ripped
9 | (10/10) Accurately ripped
10 | (10/10) Accurately ripped
11 | (10/10) Accurately ripped
12 | ( 9/10) Accurately ripped, or (1/10) differs in 5 samples @01:02:67,02:21:00
13 | (10/10) Accurately ripped
[AccurateRip ID: 001af4ff-010db85e-bc0e800d] found.
Track [ CRC | V2 ] Status
01 [5315b4c2|78196c90] (00+00/12) No match
02 [44aaa7f0|555b8b62] (00+00/12) No match
03 [c7e15225|d7a22c82] (00+00/12) No match
04 [1e205bb2|fa90e34b] (00+00/12) No match
05 [419e9e82|ad80a414] (00+00/12) No match
06 [672b13ee|387f5013] (00+00/12) No match
07 [b656cda2|f1ec74bd] (00+00/12) No match
08 [a6510118|d7bfa8cb] (00+00/12) No match
09 [732f5191|591b0262] (00+00/12) No match
10 [d20dcb45|416b7e12] (00+00/12) No match
11 [ef1c628e|4e3c8e64] (00+00/12) No match
12 [545c290e|f9545f13] (00+00/11) No match
13 [09591702|6cc7d65f] (00+00/12) No match
Offsetted by 712:
01 [5a241be0] (04/12) Accurately ripped
02 [a0b480f2] (04/12) Accurately ripped
03 [a5c038ab] (04/12) Accurately ripped
04 [50958829] (04/12) Accurately ripped
05 [e0cedb3f] (04/12) Accurately ripped
06 [a0b901e6] (04/12) Accurately ripped
07 [0d4eca51] (04/12) Accurately ripped
08 [cda7b930] (04/12) Accurately ripped
09 [1f416794] (04/12) Accurately ripped
10 [560a3c31] (04/12) Accurately ripped
11 [4635c05a] (04/12) Accurately ripped
12 [580bccb4] (04/11) Accurately ripped
13 [9c8b7597] (04/12) Accurately ripped
Offsetted by 18:
01 [b47daf1d] (00/12) No match (V2 was not tested)
02 [29d3cdde] (00/12) No match (V2 was not tested)
03 [692e06ad] (00/12) No match (V2 was not tested)
04 [b266c362] (00/12) No match (V2 was not tested)
05 [159a7a72] (00/12) No match (V2 was not tested)
06 [0cd6c576] (00/12) No match (V2 was not tested)
07 [5ff3bef4] (00/12) No match (V2 was not tested)
08 [cb4e4f65] (00/12) No match (V2 was not tested)
09 [18aa6542] (00/12) No match (V2 was not tested)
10 [645ec833] (00/12) No match (V2 was not tested)
11 [12f6bafc] (00/12) No match (V2 was not tested)
12 [7997676d] (00/11) No match (V2 was not tested)
13 [c8232867] (00/12) No match (V2 was not tested)
Offsetted by 48:
01 [36030f99] (00/12) No match (V2 was not tested)
02 [a06ca96b] (00/12) No match (V2 was not tested)
03 [8eaf7d8c] (00/12) No match (V2 was not tested)
04 [3c614731] (00/12) No match (V2 was not tested)
05 [c8368bf0] (00/12) No match (V2 was not tested)
06 [7452b7cb] (00/12) No match (V2 was not tested)
07 [600d23d9] (00/12) No match (V2 was not tested)
08 [117dbe22] (00/12) No match (V2 was not tested)
09 [f9310b15] (00/12) No match (V2 was not tested)
10 [08a1c1cd] (00/12) No match (V2 was not tested)
11 [e26a0ebb] (00/12) No match (V2 was not tested)
12 [d9ebc5f6] (00/11) No match (V2 was not tested)
13 [e1cb3cc1] (00/12) No match (V2 was not tested)

Track Peak [ CRC32 ] [W/O NULL] [ LOG ]
– 96,1 [3513D4E9] [3FBBA5C6] CRC32
01 12,0 [1DD8746B] [62CD63FC]
02 17,6 [6A8880CE] [A218C030]
03 96,1 [6A3AFE00] [0FBA4819]
04 39,6 [AA36C42B] [150E40A9]
05 35,7 [356235A5] [A64231F5]
06 26,5 [10DABE55] [1E9F64FE]
07 48,3 [A6983F71] [CD2B8A31]
08 32,2 [E9C0D7E8] [197D9E8C]
09 42,5 [87505D80] [6F88C3AA]
10 53,1 [62D468AB] [F85F0864]
11 34,3 [F04A91D3] [2208050F]
12 38,4 [CF0D37E9] [2EE70791]
13 47,3 [B5FE0036] [70945527]

CD4 - Mozart, Beethoven - Piano Quintets
Wolfgang Amadeus Mozart
[1]-[3] Quintet in E flat major, K452
Ludwig van Beethoven
[4]-[6] Quintet in E flat major, Op.16
Jos van Immerseel pianoforte
Octophorus
Paul Dombrecht oboe
Elmar Schmid clarinet in B
Piet Dombrecht horn
Danny Bond bassoon

Exact Audio Copy V1.1 from 23. June 2015

EAC extraction logfile from 22. June 2016, 1:53

Jos van Immerseel, Octophorus / Mozart, Beethoven - Piano Quintets

Used drive : HL-DT-STDVDRAM GU70N Adapter: 1 ID: 0

Read mode : Secure
Utilize accurate stream : Yes
Defeat audio cache : Yes
Make use of C2 pointers : No

Read offset correction : 48
Overread into Lead-In and Lead-Out : No
Fill up missing offset samples with silence : Yes
Delete leading and trailing silent blocks : No
Null samples used in CRC calculations : Yes
Used interface : Native Win32 interface for Win NT & 2000

Used output format : User Defined Encoder
Selected bitrate : 128 kBit/s
Quality : High
Add ID3 tag : No
Command line compressor : C:\Program Files (x86)\Exact Audio Copy\Flac\flac.exe
Additional command line options : -V -8 -T "Date=%year%" -T "Genre=%genre%" %source%


TOC of the extracted CD

Track | Start | Length | Start sector | End sector
––––––––––––––––––––––––––––-
1 | 0:00.33 | 10:22.60 | 33 | 46742
2 | 10:23.18 | 8:07.42 | 46743 | 83309
3 | 18:30.60 | 5:54.48 | 83310 | 109907
4 | 24:25.33 | 13:28.50 | 109908 | 170557
5 | 37:54.08 | 7:26.07 | 170558 | 204014
6 | 45:20.15 | 6:07.68 | 204015 | 231607


Range status and errors

Selected range

Filename C:\temp\Jos van Immerseel - The Accent Recordings 1979-1986\CD4 - Mozart, Beethoven - Piano Quintets\Mozart, Beethoven - Piano Quintets.wav

Peak level 81.1 %
Extraction speed 4.8 X
Range quality 100.0 %
Test CRC A1992348
Copy CRC A1992348
Copy OK

No errors occurred


AccurateRip summary

Track 1 cannot be verified as accurate (confidence 5) [F41D4A6A], AccurateRip returned [925306B6] (AR v2)
Track 2 cannot be verified as accurate (confidence 5) [CC8891D6], AccurateRip returned [9B3E902B] (AR v2)
Track 3 cannot be verified as accurate (confidence 5) [23824E6D], AccurateRip returned [43C9F809] (AR v2)
Track 4 cannot be verified as accurate (confidence 5) [1362F87D], AccurateRip returned [0E6E59BD] (AR v2)
Track 5 cannot be verified as accurate (confidence 5) [0EB45B03], AccurateRip returned [4EFCF768] (AR v2)
Track 6 cannot be verified as accurate (confidence 5) [4EA8B472], AccurateRip returned [5E629037] (AR v2)

No tracks could be verified as accurate
You may have a different pressing from the one(s) in the database

End of status report

==== Log checksum CF9D5C00811D982AE6CE6CC34844B518807628929931ACF298EE87F5970F69C2 ====

[CUETools log; Date: 24.07.2017 16:29:46; Version: 2.1.5]
Pregap length 00:00:33.
[CTDB TOCID: HjkjO_riKJQQ1MEB1SeFm0fDOsQ-] found.
Track | CTDB Status
1 | (16/16) Accurately ripped
2 | (16/16) Accurately ripped
3 | (16/16) Accurately ripped
4 | (16/16) Accurately ripped
5 | (16/16) Accurately ripped
6 | (16/16) Accurately ripped
[AccurateRip ID: 000ce95f-004460c1-440c1006] found.
Track [ CRC | V2 ] Status
01 [7d3c4d5a|f41d4a6a] (00+00/18) No match
02 [c4329690|cc8891d6] (00+00/18) No match
03 [a4be53ad|23824e6d] (00+00/18) No match
04 [6a3c4331|1362f87d] (00+00/17) No match
05 [c61ffb78|0eb45b03] (00+00/18) No match
06 [b97a3bde|4ea8b472] (00+00/18) No match
Offsetted by 18:
01 [93a8e9fb] (03/18) Accurately ripped
02 [4d6c8641] (03/18) Accurately ripped
03 [e33a24df] (03/18) Accurately ripped
04 [cbb5159d] (03/17) Accurately ripped
05 [9f31e0b5] (03/18) Accurately ripped
06 [bf60d985] (03/18) Accurately ripped
Offsetted by 116:
01 [bde367c6] (04/18) Accurately ripped
02 [496930ec] (04/18) Accurately ripped
03 [f9b45de5] (04/18) Accurately ripped
04 [2a6c3ab4] (03/17) Accurately ripped
05 [cfea3a5e] (04/18) Accurately ripped
06 [be1683d5] (04/18) Accurately ripped

Track Peak [ CRC32 ] [W/O NULL] [ LOG ]
– 81,1 [A1992348] [DA7BB309] CRC32
01 71,1 [0BE7A057] [87D614BD]
02 81,1 [838C913C] [B0786087]
03 71,6 [1844777C] [80C2CA65]
04 77,3 [447BD1E9] [3061723D]
05 47,9 [A5B7B80A] [7D16DE34]
06 60,3 [4335AF2F] [3AEA5267]

CD5 - The Virtuoso Romantic Oboe
Robert Schumann (1810-1856)
[1]-[3] Three Romances for Oboe and Piano, Op.94
Johann Wenzel Kalliwoda (1801-1866)
[4] Morceau de Salon for Oboe and Piano, Op.228
Johann Peter Pixis (1788-1874)
[5]-[7] Grand Sonata for Oboe and Piano, Op.5
Robert Schumann
[8] Mondnacht, Op.39 No.5
Paul Dombrecht oboe
Jos van Immerseel pianoforte

Exact Audio Copy V1.1 from 23. June 2015

EAC extraction logfile from 22. June 2016, 21:45

Paul Dombrecht, Jos van Immerseel / The Virtuoso Romantic Oboe

Used drive : HL-DT-STDVDRAM GU70N Adapter: 1 ID: 0

Read mode : Secure
Utilize accurate stream : Yes
Defeat audio cache : Yes
Make use of C2 pointers : No

Read offset correction : 48
Overread into Lead-In and Lead-Out : No
Fill up missing offset samples with silence : Yes
Delete leading and trailing silent blocks : No
Null samples used in CRC calculations : Yes
Used interface : Native Win32 interface for Win NT & 2000

Used output format : User Defined Encoder
Selected bitrate : 128 kBit/s
Quality : High
Add ID3 tag : No
Command line compressor : C:\Program Files (x86)\Exact Audio Copy\Flac\flac.exe
Additional command line options : -V -8 -T "Date=%year%" -T "Genre=%genre%" %source%


TOC of the extracted CD

Track | Start | Length | Start sector | End sector
––––––––––––––––––––––––––––-
1 | 0:00.00 | 4:10.47 | 0 | 18796
2 | 4:10.47 | 4:46.35 | 18797 | 40281
3 | 8:57.07 | 5:33.68 | 40282 | 65324
4 | 14:31.00 | 9:57.00 | 65325 | 110099
5 | 24:28.00 | 8:43.20 | 110100 | 149344
6 | 33:11.20 | 6:37.15 | 149345 | 179134
7 | 39:48.35 | 7:38.40 | 179135 | 213524
8 | 47:27.00 | 4:16.55 | 213525 | 232779


Range status and errors

Selected range

Filename C:\temp\Jos van Immerseel - The Accent Recordings 1979-1986\CD5 - The Virtuoso Romantic Oboe\The Virtuoso Romantic Oboe.wav

Peak level 97.1 %
Extraction speed 4.9 X
Range quality 100.0 %
Test CRC 33BE9DB9
Copy CRC 33BE9DB9
Copy OK

No errors occurred


AccurateRip summary

Track 1 cannot be verified as accurate (confidence 3) [AC33AEF3], AccurateRip returned [C9CEB378] (AR v2)
Track 2 cannot be verified as accurate (confidence 3) [28E0C34E], AccurateRip returned [39E4EB00] (AR v2)
Track 3 cannot be verified as accurate (confidence 3) [19AB3B92], AccurateRip returned [82FC0753] (AR v2)
Track 4 cannot be verified as accurate (confidence 3) [D49754A8], AccurateRip returned [1B122A3A] (AR v2)
Track 5 cannot be verified as accurate (confidence 3) [1F18448E], AccurateRip returned [70DAAC95] (AR v2)
Track 6 cannot be verified as accurate (confidence 3) [ED841A61], AccurateRip returned [3D0A99C9] (AR v2)
Track 7 cannot be verified as accurate (confidence 3) [E4C7D57F], AccurateRip returned [7B2F9B04] (AR v2)
Track 8 cannot be verified as accurate (confidence 3) [395196BF], AccurateRip returned [75158D64] (AR v2)

No tracks could be verified as accurate
You may have a different pressing from the one(s) in the database

End of status report

==== Log checksum F3ED96AE9288B771F24D65D5DFC95A521C04348FF12D11F4AC3A9E51B19B6E64 ====

[CUETools log; Date: 24.07.2017 16:30:09; Version: 2.1.5]
[CTDB TOCID: 83VLeABqeJp0aHNPZXrujNVKpfs-] found.
Track | CTDB Status
1 | (6/6) Accurately ripped
2 | (6/6) Accurately ripped
3 | (5/6) Accurately ripped
4 | (5/6) Accurately ripped
5 | (5/6) Accurately ripped
6 | (5/6) Accurately ripped
7 | (5/6) Accurately ripped
8 | (5/6) Accurately ripped
[AccurateRip ID: 000f6689-0069a4d4-750c1f08] found.
Track [ CRC | V2 ] Status
01 [a56de6ca|ac33aef3] (00+00/10) No match
02 [ecd4db9c|28e0c34e] (00+00/10) No match
03 [0af369b4|19ab3b92] (00+00/10) No match
04 [4fb1dbbb|d49754a8] (00+00/10) No match
05 [61defb22|1f18448e] (00+00/10) No match
06 [868d4511|ed841a61] (00+00/09) No match
07 [4b11dd30|e4c7d57f] (00+00/10) No match
08 [158b9605|395196bf] (00+00/10) No match
Offsetted by 685:
01 [a6711077] (02/10) Accurately ripped
02 [0522a26b] (02/10) Accurately ripped
03 [5bd1ea2b] (02/10) Accurately ripped
04 [acdb96f3] (02/10) Accurately ripped
05 [d38b4bc0] (02/10) Accurately ripped
06 [ff64f3b2] (02/09) Accurately ripped
07 [5318f642] (02/10) Accurately ripped
08 [471590e4] (02/10) Accurately ripped
Offsetted by -12:
01 [93dac1a5] (00/10) No match (V2 was not tested)
02 [385725fe] (00/10) No match (V2 was not tested)
03 [a91fbbf5] (00/10) No match (V2 was not tested)
04 [ff569edd] (00/10) No match (V2 was not tested)
05 [3e9c4d74] (00/10) No match (V2 was not tested)
06 [3d155744] (00/09) No match (V2 was not tested)
07 [8b480ad6] (00/10) No match (V2 was not tested)
08 [95aeda97] (00/10) No match (V2 was not tested)
Offsetted by 18:
01 [a11c090d] (00/10) No match (V2 was not tested)
02 [4a076274] (00/10) No match (V2 was not tested)
03 [da77f50b] (00/10) No match (V2 was not tested)
04 [b4a603c3] (00/10) No match (V2 was not tested)
05 [0821909c] (00/10) No match (V2 was not tested)
06 [fcd9578e] (00/09) No match (V2 was not tested)
07 [a89c589f] (00/10) No match (V2 was not tested)
08 [928d7d62] (00/10) No match (V2 was not tested)

Track Peak [ CRC32 ] [W/O NULL] [ LOG ]
– 97,1 [33BE9DB9] [E66B2FF4] CRC32
01 68,8 [D457BDA2] [1B06DAA9]
02 60,9 [FF49C755] [01EAB8CA]
03 55,7 [8A6E1353] [6C2E83BA]
04 97,1 [C072B5FA] [C8A58BF5]
05 97,1 [9C20D581] [8FCA9E6B]
06 61,0 [AA46805C] [A36BD20E]
07 97,1 [7364D61F] [72E33CFC]
08 50,3 [3A7912F7] [A1F7DF6B]

CD6 - Ariete e Cavatine
Gaetano Donizetti (1797-1848)
[1] Voga, voga, il vento tace (Il Barcaiolo)
[2] Era l'ora che i cieli lente, lente (Il pescatore)
[3] Ah! rammenta, o bella Irene
Vincenzo Bellini (1801-1835)
[4] Arietta 'Dolente immagine di fille mia'
[5] Arietta 'Quando verrà quel di'
[6] Arietta 'Vaga luna, che inargenti'
Franz Schubert (1797-1828)
[7] Da voi, cari lumi
[8] Guarda che bianca luna
Gioachino Rossini (1792-1868)
[9] Tu che accendi questo core - Di tanti palpiti (Tancredi)
Ludwig van Beethoven (1770-1827)
[10] Beato quei che fido amor
[11] In questa tomba oscura
[12] T'intendo, si, mio cor
René Jacobs countertenor
Jos van Immerseel pianoforte

Exact Audio Copy V1.1 from 23. June 2015

EAC extraction logfile from 2. July 2016, 1:05

René Jacobs, Jos van Immerseel / Ariette e Cavatine

Used drive : HL-DT-STDVDRAM GU70N Adapter: 1 ID: 0

Read mode : Secure
Utilize accurate stream : Yes
Defeat audio cache : Yes
Make use of C2 pointers : No

Read offset correction : 48
Overread into Lead-In and Lead-Out : No
Fill up missing offset samples with silence : Yes
Delete leading and trailing silent blocks : No
Null samples used in CRC calculations : Yes
Used interface : Native Win32 interface for Win NT & 2000

Used output format : User Defined Encoder
Selected bitrate : 128 kBit/s
Quality : High
Add ID3 tag : No
Command line compressor : C:\Program Files (x86)\Exact Audio Copy\Flac\flac.exe
Additional command line options : -V -8 -T "Date=%year%" -T "Genre=%genre%" %source%


TOC of the extracted CD

Track | Start | Length | Start sector | End sector
––––––––––––––––––––––––––––-
1 | 0:00.00 | 2:47.74 | 0 | 12598
2 | 2:47.74 | 9:22.67 | 12599 | 54815
3 | 12:10.66 | 4:25.17 | 54816 | 74707
4 | 16:36.08 | 3:13.44 | 74708 | 89226
5 | 19:49.52 | 2:11.15 | 89227 | 99066
6 | 22:00.67 | 3:41.45 | 99067 | 115686
7 | 25:42.37 | 2:09.69 | 115687 | 125430
8 | 27:52.31 | 4:13.61 | 125431 | 144466
9 | 32:06.17 | 7:16.28 | 144467 | 177194
10 | 39:22.45 | 2:54.70 | 177195 | 190314
11 | 42:17.40 | 2:44.36 | 190315 | 202650
12 | 45:02.01 | 2:34.34 | 202651 | 214234


Range status and errors

Selected range

Filename C:\temp\Jos van Immerseel - The Accent Recordings 1979-1986\CD6 - Ariete e Cavatine\Ariette e Cavatine.wav

Peak level 99.0 %
Extraction speed 4.7 X
Range quality 100.0 %
Test CRC BBA3DF25
Copy CRC BBA3DF25
Copy OK

No errors occurred


AccurateRip summary

Track 1 cannot be verified as accurate (confidence 2) [3CB39CF0], AccurateRip returned [421ABBDB] (AR v2)
Track 2 cannot be verified as accurate (confidence 2) [B31C53EA], AccurateRip returned [F525A779] (AR v2)
Track 3 cannot be verified as accurate (confidence 2) [A9981703], AccurateRip returned [B08553F4] (AR v2)
Track 4 cannot be verified as accurate (confidence 2) [15C4C96A], AccurateRip returned [51EF8F89] (AR v2)
Track 5 cannot be verified as accurate (confidence 2) [AD301188], AccurateRip returned [6F018759] (AR v2)
Track 6 cannot be verified as accurate (confidence 2) [BDE3BBE2], AccurateRip returned [7C7DC6FB] (AR v2)
Track 7 cannot be verified as accurate (confidence 2) [0EBF5A93], AccurateRip returned [30CBC058] (AR v2)
Track 8 cannot be verified as accurate (confidence 2) [F09DB21F], AccurateRip returned [28EF6239] (AR v2)
Track 9 cannot be verified as accurate (confidence 2) [D3263F73], AccurateRip returned [582F7764] (AR v2)
Track 10 cannot be verified as accurate (confidence 2) [34C0B589], AccurateRip returned [27D92268] (AR v2)
Track 11 cannot be verified as accurate (confidence 2) [8DFE577C], AccurateRip returned [85A08886] (AR v2)
Track 12 cannot be verified as accurate (confidence 2) [48F3CD0C], AccurateRip returned [5FCFB849] (AR v2)

No tracks could be verified as accurate
You may have a different pressing from the one(s) in the database

End of status report

==== Log checksum 22F0D791FB47647C5893124B3B463A1620CFB4A758B7D70805D67175EFA626EB ====

[CUETools log; Date: 24.07.2017 16:30:31; Version: 2.1.5]
[CTDB TOCID: oI2T1RF3aG2d8e5vT_k4Ywrjmbs-] found.
Track | CTDB Status
1 | (3/3) Accurately ripped
2 | (3/3) Accurately ripped
3 | (3/3) Accurately ripped
4 | (3/3) Accurately ripped
5 | (3/3) Accurately ripped
6 | (3/3) Accurately ripped
7 | (3/3) Accurately ripped
8 | (3/3) Accurately ripped
9 | (3/3) Accurately ripped
10 | (3/3) Accurately ripped
11 | (3/3) Accurately ripped
12 | (3/3) Accurately ripped
[AccurateRip ID: 0016e4ee-00d16c56-af0b280c] found.
Track [ CRC | V2 ] Status
01 [57d561c6|3cb39cf0] (0+0/2) No match
02 [dea1f9cb|b31c53ea] (0+0/2) No match
03 [1893008b|a9981703] (0+0/2) No match
04 [292f17e5|15c4c96a] (0+0/2) No match
05 [96d2f4ab|ad301188] (0+0/2) No match
06 [f0d4250a|bde3bbe2] (0+0/2) No match
07 [7c36d5a2|0ebf5a93] (0+0/2) No match
08 [f3962b19|f09db21f] (0+0/2) No match
09 [21d15ba6|d3263f73] (0+0/2) No match
10 [e5e0c05e|34c0b589] (0+0/2) No match
11 [b96d229f|8dfe577c] (0+0/2) No match
12 [0b17f481|48f3cd0c] (0+0/2) No match
Offsetted by 18:
01 [6138aa1a] (0/2) No match (V2 was not tested)
02 [2e2d10c1] (0/2) No match (V2 was not tested)
03 [25d63515] (0/2) No match (V2 was not tested)
04 [69f06d5d] (0/2) No match (V2 was not tested)
05 [5baed26b] (0/2) No match (V2 was not tested)
06 [b4b4af84] (0/2) No match (V2 was not tested)
07 [a1396530] (0/2) No match (V2 was not tested)
08 [31dc46dd] (0/2) No match (V2 was not tested)
09 [b145a0e2] (0/2) No match (V2 was not tested)
10 [dd1a21b8] (0/2) No match (V2 was not tested)
11 [b4f949ab] (0/2) No match (V2 was not tested)
12 [25a7dc77] (0/2) No match (V2 was not tested)

Track Peak [ CRC32 ] [W/O NULL] [ LOG ]
– 99,0 [BBA3DF25] [1AD1D9AB] CRC32
01 99,0 [B1CE33F3] [CECF5BFA]
02 80,1 [9743E094] [340863F9]
03 99,0 [71AF8BE4] [4A71764A]
04 36,1 [C85747BD] [765F1128]
05 66,6 [0A9187AB] [52D56BB2]
06 74,0 [9CD21734] [FDD02231]
07 95,0 [2A056986] [BD2910A5]
08 59,2 [0813DAEF] [880055AE]
09 99,0 [AECAF230] [15ECC7FE]
10 70,1 [2927732F] [48807839]
11 87,3 [33B88168] [35C0356F]
12 51,0 [753E4EB2] [D37F211E]

CD7-CD8 - Rossini - Petite Messe Solennelle
Gioachino Rossini
Petite Messe Solennelle
CD7
[1]-[3] Kyrie
[4]-[10] Gloria

Exact Audio Copy V1.1 from 23. June 2015

EAC extraction logfile from 2. July 2016, 1:58

Mireille Capelle, Catherine Patriasz, Joseph Cornwell, Jelle Draijer, Nederlands Kamerkoor, Jos van Immerseel / Rossini - Petite Messe Solennelle - CD1

Used drive : HL-DT-STDVDRAM GU70N Adapter: 1 ID: 0

Read mode : Secure
Utilize accurate stream : Yes
Defeat audio cache : Yes
Make use of C2 pointers : No

Read offset correction : 48
Overread into Lead-In and Lead-Out : No
Fill up missing offset samples with silence : Yes
Delete leading and trailing silent blocks : No
Null samples used in CRC calculations : Yes
Used interface : Native Win32 interface for Win NT & 2000

Used output format : User Defined Encoder
Selected bitrate : 128 kBit/s
Quality : High
Add ID3 tag : No
Command line compressor : C:\Program Files (x86)\Exact Audio Copy\Flac\flac.exe
Additional command line options : -V -8 -T "Date=%year%" -T "Genre=%genre%" %source%


TOC of the extracted CD

Track | Start | Length | Start sector | End sector
––––––––––––––––––––––––––––-
1 | 0:00.33 | 2:16.60 | 33 | 10292
2 | 2:17.18 | 1:50.02 | 10293 | 18544
3 | 4:07.20 | 2:11.10 | 18545 | 28379
4 | 6:18.30 | 0:44.48 | 28380 | 31727
5 | 7:03.03 | 2:29.12 | 31728 | 42914
6 | 9:32.15 | 4:48.55 | 42915 | 64569
7 | 14:20.70 | 6:03.63 | 64570 | 91857
8 | 20:24.58 | 7:11.67 | 91858 | 124249
9 | 27:36.50 | 7:30.58 | 124250 | 158057
10 | 35:07.33 | 5:48.00 | 158058 | 184157


Range status and errors

Selected range

Filename C:\temp\Jos van Immerseel - The Accent Recordings 1979-1986\CD7 - Rossini - Petite Messe Solennelle\Rossini - Petite Messe Solennelle - CD1.wav

Peak level 71.4 %
Extraction speed 4.6 X
Range quality 100.0 %
Test CRC D84A069C
Copy CRC D84A069C
Copy OK

No errors occurred


AccurateRip summary

Track 1 cannot be verified as accurate (confidence 5) [505B15EE], AccurateRip returned [E1C16E91] (AR v2)
Track 2 cannot be verified as accurate (confidence 5) [8C72EA7F], AccurateRip returned [912827E3] (AR v2)
Track 3 cannot be verified as accurate (confidence 5) [7B6E1B7A], AccurateRip returned [FB7960F6] (AR v2)
Track 4 cannot be verified as accurate (confidence 5) [3ADE0753], AccurateRip returned [86C0C655] (AR v2)
Track 5 cannot be verified as accurate (confidence 5) [27C3631B], AccurateRip returned [B064AEA0] (AR v2)
Track 6 cannot be verified as accurate (confidence 5) [8126F4E3], AccurateRip returned [1A2013D1] (AR v2)
Track 7 cannot be verified as accurate (confidence 5) [DC7FE859], AccurateRip returned [6F439379] (AR v2)
Track 8 cannot be verified as accurate (confidence 5) [5832D87D], AccurateRip returned [3BC889F6] (AR v2)
Track 9 cannot be verified as accurate (confidence 5) [08708552], AccurateRip returned [5BDD05D1] (AR v2)
Track 10 cannot be verified as accurate (confidence 5) [B7B46A3A], AccurateRip returned [B4886464] (AR v2)

No tracks could be verified as accurate
You may have a different pressing from the one(s) in the database

End of status report

==== Log checksum 193210C6099A64BD8BB969AC96DB58AAC131EE4C75621EF326B1DDC503D27872 ====

[CUETools log; Date: 24.07.2017 16:30:52; Version: 2.1.5]
Pregap length 00:00:33.
[CTDB TOCID: ZBAOEawAqfphyK9g9K5Jg3mA8.I-] found.
Track | CTDB Status
1 | (7/7) Accurately ripped
2 | (7/7) Accurately ripped
3 | (7/7) Accurately ripped
4 | (7/7) Accurately ripped
5 | (7/7) Accurately ripped
6 | (7/7) Accurately ripped
7 | (7/7) Accurately ripped
8 | (7/7) Accurately ripped
9 | (7/7) Accurately ripped
10 | (7/7) Accurately ripped
[AccurateRip ID: 000b8464-0063724e-7f09970a] found.
Track [ CRC | V2 ] Status
01 [9fff7607|505b15ee] (00+00/10) No match
02 [74b6fc54|8c72ea7f] (00+00/10) No match
03 [3d8cdf46|7b6e1b7a] (00+00/10) No match
04 [4a3461d0|3ade0753] (00+00/10) No match
05 [09691820|27c3631b] (00+00/10) No match
06 [1fd3ff40|8126f4e3] (00+00/10) No match
07 [404de784|dc7fe859] (00+00/10) No match
08 [d4997394|5832d87d] (00+00/10) No match
09 [e2fe2516|08708552] (00+00/10) No match
10 [bc25dcb4|b7b46a3a] (00+00/10) No match
Offsetted by 18:
01 [75a119a7] (03/10) Accurately ripped
02 [6f7dac5c] (03/10) Accurately ripped
03 [3dc8716a] (03/10) Accurately ripped
04 [b9c47aa5] (03/10) Accurately ripped
05 [0fb9c401] (03/10) Accurately ripped
06 [4b81fd5c] (03/10) Accurately ripped
07 [183961b0] (03/10) Accurately ripped
08 [4dc95d69] (03/10) Accurately ripped
09 [ce78b16f] (03/10) Accurately ripped
10 [ba112022] (03/10) Accurately ripped
Offsetted by 685:
01 [48801cd0] (02/10) Accurately ripped
02 [7e0a13ab] (02/10) Accurately ripped
03 [19999f9e] (02/10) Accurately ripped
04 [1cbcd664] (02/10) Accurately ripped
05 [fd598ea9] (02/10) Accurately ripped
06 [148130c5] (02/10) Accurately ripped
07 [6c0e6659] (02/10) Accurately ripped
08 [69c527d2] (02/10) Accurately ripped
09 [ff349ef3] (02/10) Accurately ripped
10 [21bc9ef6] (02/10) Accurately ripped
Offsetted by 9:
01 [331fdf8d] (00/10) No match (V2 was not tested)
02 [79f3773a] (00/10) No match (V2 was not tested)
03 [bc2793c9] (00/10) No match (V2 was not tested)
04 [959b877c] (00/10) No match (V2 was not tested)
05 [906c4aad] (00/10) No match (V2 was not tested)
06 [bc7f0865] (00/10) No match (V2 was not tested)
07 [cf1b3a51] (00/10) No match (V2 was not tested)
08 [bda9f5e1] (00/10) No match (V2 was not tested)
09 [376fc49a] (00/10) No match (V2 was not tested)
10 [b514784d] (00/10) No match (V2 was not tested)

Track Peak [ CRC32 ] [W/O NULL] [ LOG ]
– 71,4 [D84A069C] [C63AC8D9] CRC32
01 26,8 [0BA1CB13] [CD9C9390]
02 15,3 [772E7611] [968A8B97]
03 22,0 [4C2B3092] [C6354182]
04 50,9 [B51957D5] [5C04FE50]
05 15,2 [331E0BBF] [A40844FA]
06 29,1 [547213EA] [82EFE6B5]
07 40,7 [4386A1AB] [44BFDFAA]
08 40,6 [7B013470] [F60CF106]
09 29,3 [C9EAF5F4] [3F4DBFF1]
10 71,4 [58E3A6A4] [93AD7824]

CD8
[1]-[4] Credo
[5] Prelude Religieux
[6] Ritournelle pour le Sanctus
[7] Sanctus
[8] O Salutaris
[9] Agnus Dei
Mireille Capelle soprano
Catherine Patriasz mezzo-soprano
Joseph Cornwell tenor
Jelle Draijer bass
Nederlands Kamerkoor
Jos van Immerseel conductor from the piano

Exact Audio Copy V1.1 from 23. June 2015

EAC extraction logfile from 2. July 2016, 2:25

Mireille Capelle, Catherine Patriasz, Joseph Cornwell, Jelle Draijer, Nederlands Kamerkoor, Jos van Immerseel / Rossini - Petite Messe Solennelle - CD2

Used drive : HL-DT-STDVDRAM GU70N Adapter: 1 ID: 0

Read mode : Secure
Utilize accurate stream : Yes
Defeat audio cache : Yes
Make use of C2 pointers : No

Read offset correction : 48
Overread into Lead-In and Lead-Out : No
Fill up missing offset samples with silence : Yes
Delete leading and trailing silent blocks : No
Null samples used in CRC calculations : Yes
Used interface : Native Win32 interface for Win NT & 2000

Used output format : User Defined Encoder
Selected bitrate : 128 kBit/s
Quality : High
Add ID3 tag : No
Command line compressor : C:\Program Files (x86)\Exact Audio Copy\Flac\flac.exe
Additional command line options : -V -8 -T "Date=%year%" -T "Genre=%genre%" %source%


TOC of the extracted CD

Track | Start | Length | Start sector | End sector
––––––––––––––––––––––––––––-
1 | 0:00.33 | 4:49.07 | 33 | 21714
2 | 4:49.40 | 3:25.23 | 21715 | 37112
3 | 8:14.63 | 5:01.17 | 37113 | 59704
4 | 13:16.05 | 3:50.00 | 59705 | 76954
5 | 17:06.05 | 9:34.13 | 76955 | 120017
6 | 26:40.18 | 0:28.37 | 120018 | 122154
7 | 27:08.55 | 3:47.38 | 122155 | 139217
8 | 30:56.18 | 5:16.70 | 139218 | 162987
9 | 36:13.13 | 8:30.20 | 162988 | 201257


Range status and errors

Selected range

Filename C:\temp\Jos van Immerseel - The Accent Recordings 1979-1986\CD8 - Rossini - Petite Messe Solennelle\Rossini - Petite Messe Solennelle - CD2.wav

Peak level 68.0 %
Extraction speed 4.7 X
Range quality 100.0 %
Test CRC 01554AE5
Copy CRC 01554AE5
Copy OK

No errors occurred


AccurateRip summary

Track 1 cannot be verified as accurate (confidence 6) [121C4EFE], AccurateRip returned [F8C83CCA] (AR v2)
Track 2 cannot be verified as accurate (confidence 6) [EC627F32], AccurateRip returned [EFF158EC] (AR v2)
Track 3 cannot be verified as accurate (confidence 6) [FF4A81A8], AccurateRip returned [689743AB] (AR v2)
Track 4 cannot be verified as accurate (confidence 6) [E38E1126], AccurateRip returned [49B24139] (AR v2)
Track 5 cannot be verified as accurate (confidence 6) [B967B87B], AccurateRip returned [F92DF46E] (AR v2)
Track 6 cannot be verified as accurate (confidence 6) [9E2A8A11], AccurateRip returned [298E83D5] (AR v2)
Track 7 cannot be verified as accurate (confidence 6) [10C04E53], AccurateRip returned [E966B274] (AR v2)
Track 8 cannot be verified as accurate (confidence 6) [69BB65CE], AccurateRip returned [347AD018] (AR v2)
Track 9 cannot be verified as accurate (confidence 6) [82C6E2B8], AccurateRip returned [582636C2] (AR v2)

No tracks could be verified as accurate
You may have a different pressing from the one(s) in the database

End of status report

==== Log checksum 39135910AB5FB84482C871A0DBFF66AF61A0CC0B4F24E080956A130031C7B808 ====

[CUETools log; Date: 24.07.2017 16:31:11; Version: 2.1.5]
Pregap length 00:00:33.
[CTDB TOCID: pB5MPTQcIaPerBUz66Yagdb7nB8-] found.
Track | CTDB Status
1 | (6/7) Accurately ripped, or (1/7) differs in 3 samples @00:29:08
2 | (7/7) Accurately ripped
3 | (7/7) Accurately ripped
4 | (7/7) Accurately ripped
5 | (7/7) Accurately ripped
6 | (7/7) Accurately ripped
7 | (7/7) Accurately ripped
8 | (7/7) Accurately ripped
9 | (7/7) Accurately ripped
[AccurateRip ID: 000e5c66-0069fff6-7c0a7b09] found.
Track [ CRC | V2 ] Status
01 [e0062717|121c4efe] (00+00/12) No match
02 [fb504e4b|ec627f32] (00+00/12) No match
03 [0020dfcd|ff4a81a8] (00+00/12) No match
04 [c733abc6|e38e1126] (00+00/12) No match
05 [bcb94b89|b967b87b] (00+00/12) No match
06 [ef136388|9e2a8a11] (00+00/12) No match
07 [d2c7e509|10c04e53] (00+00/12) No match
08 [1a98f582|69bb65ce] (00+00/12) No match
09 [2b801412|82c6e2b8] (00+00/12) No match
Offsetted by 18:
01 [c0706b37] (03/12) Accurately ripped
02 [fa809a79] (03/12) Accurately ripped
03 [62dd284f] (03/12) Accurately ripped
04 [2c76c423] (03/12) Accurately ripped
05 [f0c09912] (03/12) Accurately ripped
06 [7b27ff2c] (03/12) Accurately ripped
07 [a6b15fa4] (03/12) Accurately ripped
08 [debb1152] (03/12) Accurately ripped
09 [0e52b491] (03/12) Accurately ripped
Offsetted by 685:
01 [0ef4239f] (03/12) Accurately ripped
02 [f28abfd9] (03/12) Accurately ripped
03 [de1e5525] (03/12) Accurately ripped
04 [6df950ff] (03/12) Accurately ripped
05 [9d4a4e23] (03/12) Accurately ripped
06 [98bda605] (03/12) Accurately ripped
07 [06eb9a0e] (03/12) Accurately ripped
08 [d4b4cb74] (03/12) Accurately ripped
09 [93d97d8d] (03/12) Accurately ripped

Track Peak [ CRC32 ] [W/O NULL] [ LOG ]
– 68,0 [01554AE5] [E96F3FED] CRC32
01 59,4 [8A091AB3] [8A9F18A6]
02 35,5 [191F4D2D] [CD757B9C]
03 57,6 [F3AB455E] [79C7FEBC]
04 68,0 [7495E2E8] [C8F5084C]
05 25,2 [E61A4B6B] [31FDE2BD]
06 6,1 [C77E3254] [03B320AA]
07 57,3 [5F6C892A] [B32C5398]
08 51,5 [35D88203] [3B66D2B9]
09 59,8 [C688D28D] [F33D7818]

Thanks to the Original ripper A-Z!

Download: