Subcategories

Jos Van Veldhoven, Netherlands Bach Society - Johann Sebastian Bach: Matthäus-Passion / St. Matthew Passion (2011)

Posted By: ArlegZ
Jos Van Veldhoven, Netherlands Bach Society - Johann Sebastian Bach: Matthäus-Passion / St. Matthew Passion (2011)

Jos Van Veldhoven, Netherlands Bach Society - Johann Sebastian Bach: Matthäus-Passion / St. Matthew Passion (2011)
EAC | FLAC | Image (Cue & Log) ~ 721 Mb | Total time: 165:14 | Scans included
Classical | Label: Channel Classics | 32511 | Recorded: 2010

Bach's St Matthew Passion is almost always described as a double-choir composition for two choirs and two orchestras. Two large ensembles play in dialogue, and the score presents a symmetrical structure. The scoring of the two groups of singers and players is identical, and each ensemble has four soloists for the arias. On the stage one often sees two equal groups of singers, and an orchestra likewise divided exactly into two. The Evangelist and Jesus are often the only exceptions to this impressive symmetry.
There are reasons enough, however, to look at the score in another way. Firstly, there is the Bible story itself, which is told entirely in Coro I (Bach speaks of Coro, by which he means all the singers and players of one ensemble, not just the choir). In his score, Bach even distinguishes the Evangelist's part in Coro I by writing it in red ink. The role of Coro II, besides its contribution to the cries of the crowd in the story and to the chorales, is limited to delivering commentary. In the organisation of the score as well there are considerable distinctions: almost all the important arias are to be found in Coro I - and there are twice as many as in Coro II - and the composition technique reveals major differences. In contrast to the great wealth of instrumental solos in Coro I, the writing for Coro II is much simpler: the instruments often double other parts, and instrumental solos are almost entirely absent. The score as a whole gives a strong impression of hierarchy, rather than equality or symmetry.

Performer:
Concertists Coro I:
Gerd Türk, tenor (Evangelist)
Amaryllis Dieltiens, soprano
Tim Mead, alto
Julian Podger, tenor
Peter Harvey, bass (Christ)
Concertists Coro II:
Siri Karoline Thornhill, soprano
Matthew White, alto
Charles Daniels, tenor
Sebastian Noack, bass
Ripienists Coro I:
Dorothea Jakob, soprano (Ancilla I)
Marjon Strijk, soprano (Ancilla II, Uxor Pilati)
Barnabas Hegyi, alto
Elena Pozhidaeva, alto
Alastair Carey, tenor
Scott Wellstead, tenor
Matthew Baker, bass (Petrus, Pilatus, Pontifex I)
Philippe Favette, bass (Judas, Pontifex II)
The Netherlands Bach Society
Jos van Veldhoven, conductor

Track List:
CD1:
Erster Teil
01. No. 1. Kommt, ihr Töchter, helft mir klagen
02. No. 2. Da Jesus diese Rede vollendet hatte
03. No. 3. Herzliebster Jesu, was hast du verbrocken
04. No. 4. Da versammleten sich die Hohenpriester
05. No. 5. Due lieber Heiland du
06. No. 6. Buß und Reu
07. No. 7. Da ging hin der Zwölfen einer
08. No. 8. Blute nur, du leibes Herz!
09. No. 9. Aber am ersten Tage der Süßen Brot
10. No. 10. Ich bin's, ich sollte büßen
11. No. 11. Er antwortete und sprach
12. No. 12. Wiewohl mein Herz in Tränen schwimmt
13. No. 13. Ich will dir mein Herze schenken
14. No. 14. Und da sie den Lobgesang gesprochen hatten
15. No. 15. Erkenne mich, mein Hüter
16. No. 16. Petrus aber antwortete
17. No. 17. Ich will hier bei dir stehen
18. No. 18. Da kam Jesus mit ihnen zu einen Hofe
19. No. 19. O Schmerz! Hier zittert das gequälte Herz
20. No. 20. Ich will bei meinem Jesu wachen
21. No. 21. Und ging hin ein wenig
22. No. 22. Der Heiland fällt vor seinem Vater nieder
23. No. 23. Gerne will ich mich bequemen
24. No. 24. Und er kam zu seinen Jüngern
25. No. 25. Was mein Gott will, das g'scheh' allzeit
26. No. 26. Und er kam und fand sie aber schlafend
27. No. 27. So ist mein Jesus nun gefangen
28. No. 28. Und siehe, einer aus denen
29. No. 29. O Mensch, bewein' dein Sünde Groß
CD2:
Zweiter Teil
01. No. 30. Ach! Nun ist mein Jesus hin!
02. No. 31. Die aber Jesum gegriffen hatten
03. No. 32. Mir hat die Welt trüglich gericht'
04. No. 33. Und wiewold viel falsche Zeugen herzutraten
05. No. 34. Mein Jesus schweigt zu falschen Lügen stille
06. No. 35. Geduld!
07. No. 36. Und der Hohepriester antwortete
08. No. 37. Wer hat dich so geschlagen
09. No. 38. Petrus aber saß draußen im Palst
10. No. 39. Erbarme dich
11. No. 40. Bin ich gleich von dir gewichen
12. No. 41. Des Morgens aber hielten alle Hohenpriester
13. No. 42. Gebt mir meinen Jesum wieder
14. No. 43. Sie hielten aber einen Rat
15. No. 44. Befiehl du deine Wege
16. No. 45. Auf das Fest aber hatte der Landpfleger
17. No. 46. Wie wunderbarlich ist doch diese Strafe!
18. No. 47. Der Landpfleger sagte
19. No. 48. Er hat uns allen wohlgetan
20. No. 49. Aus Liebe will mein Heiland sterben
21. No. 50. Sie schrieen aber noch mehr
22. No. 51. Erbarm es Gott!
23. No. 52. Können Tränen meiner Wangen
24. No. 53. Da nahmen die Kriegsknechte
25. No. 54. O Haupt voll Blut und Wunden
CD3:
01. No. 55. Und da sie ihn verspottet hatten
02. No. 56. Ja freilich will in une das Fleisch und Blut
03. No. 57. Komm, süßes Kreuz
04. No. 58. Und da sie an die Stätte kamen
05. No. 59. Ach, Golgatha, unselges Golgatha!
06. No. 60. Sehet, Jesus hat die Hand
07. No. 61. Und von der sechsten Stunde an
08. No. 62. Wenn ich einmal soll scheiden
09. No. 63. Und siehe da, der Vorhang im Tempel zerriß
10. No. 64. Am Abend da es kühle war
11. No. 65. Mache dich, mein Herze, rein
12. No. 66. Und Joseph nahm den Leib
13. No. 67. Nun ist der Herr zur Ruh gebracht
14. No. 68. Wir setzen uns mit Tränen nieder


Exact Audio Copy V1.3 from 2. September 2016

EAC extraction logfile from 1. March 2020, 8:58

Gerd Türk, Amaryllis Dieltiens, Tim Mead, Julian Podger, Peter Harvey, Siri Karoline Thornhill, Matthew White, Charles Daniels, / Bach - St. Matthew Passion (Disc 1)

Used drive : ATAPI iHAS124 F Adapter: 1 ID: 0

Read mode : Secure
Utilize accurate stream : Yes
Defeat audio cache : Yes
Make use of C2 pointers : No

Read offset correction : 6
Overread into Lead-In and Lead-Out : No
Fill up missing offset samples with silence : Yes
Delete leading and trailing silent blocks : No
Null samples used in CRC calculations : Yes
Used interface : Native Win32 interface for Win NT & 2000

Used output format : User Defined Encoder
Selected bitrate : 1024 kBit/s
Quality : High
Add ID3 tag : No
Command line compressor : C:\Program Files (x86)\Exact Audio Copy\FLAC\FLAC.EXE
Additional command line options : -6 -V -T "ARTIST=%artist%" -T "TITLE=%title%" -T "ALBUM=%albumtitle%" -T "DATE=%year%" -T "TRACKNUMBER=%tracknr%" -T "GENRE=%genre%" -T "COMMENT=%comment%" -T "BAND=%albuminterpret%" -T "ALBUMARTIST=%albuminterpret%" -T "COMPOSER=%composer%" %haslyrics%–tag-from-file=LYRICS="%lyricsfile%"%haslyrics% -T "DISCNUMBER=%cdnumber%" -T "TOTALDISCS=%totalcds%" -T "TOTALTRACKS=%numtracks%" %hascover%–picture="%coverfile%"%hascover% %source% -o %dest%


TOC of the extracted CD

Track | Start | Length | Start sector | End sector
––––––––––––––––––––––––––––-
1 | 0:00.00 | 7:52.55 | 0 | 35454
2 | 7:52.55 | 0:42.15 | 35455 | 38619
3 | 8:34.70 | 0:51.33 | 38620 | 42477
4 | 9:26.28 | 3:00.52 | 42478 | 56029
5 | 12:27.05 | 0:54.60 | 56030 | 60139
6 | 13:21.65 | 3:58.43 | 60140 | 78032
7 | 17:20.33 | 0:39.30 | 78033 | 80987
8 | 17:59.63 | 4:53.65 | 80988 | 103027
9 | 22:53.53 | 2:11.45 | 103028 | 112897
10 | 25:05.23 | 0:45.33 | 112898 | 116305
11 | 25:50.56 | 2:57.42 | 116306 | 129622
12 | 28:48.23 | 1:19.52 | 129623 | 135599
13 | 30:08.00 | 3:13.62 | 135600 | 150136
14 | 33:21.62 | 1:03.51 | 150137 | 154912
15 | 34:25.38 | 1:06.67 | 154913 | 159929
16 | 35:32.30 | 1:02.68 | 159930 | 164647
17 | 36:35.23 | 1:01.65 | 164648 | 169287
18 | 37:37.13 | 1:56.42 | 169288 | 178029
19 | 39:33.55 | 1:41.23 | 178030 | 185627
20 | 41:15.03 | 4:51.06 | 185628 | 207458
21 | 46:06.09 | 0:42.65 | 207459 | 210673
22 | 46:48.74 | 0:56.10 | 210674 | 214883
23 | 47:45.09 | 4:20.09 | 214884 | 234392
24 | 52:05.18 | 1:20.22 | 234393 | 240414
25 | 53:25.40 | 1:05.14 | 240415 | 245303
26 | 54:30.54 | 2:24.00 | 245304 | 256103
27 | 56:54.54 | 4:34.04 | 256104 | 276657
28 | 61:28.58 | 2:11.37 | 276658 | 286519
29 | 63:40.20 | 6:05.74 | 286520 | 313968


Range status and errors

Selected range

Filename C:\EACRip\EASTER\Bach - St. Matthew Passion (Jos van Veldhoven) (2011)\CD1\Bach - St. Matthew Passion (Disc 1) - Jos van Veldhoven.wav

Peak level 84.5 %
Extraction speed 9.4 X
Range quality 100.0 %
Test CRC 8F123992
Copy CRC 8F123992
Copy OK

No errors occurred


AccurateRip summary

Track 1 accurately ripped (confidence 32) [2C8686B5] (AR v2)
Track 2 accurately ripped (confidence 32) [0B2AA7DB] (AR v2)
Track 3 accurately ripped (confidence 32) [0636DD48] (AR v2)
Track 4 accurately ripped (confidence 32) [67BD2FCF] (AR v2)
Track 5 accurately ripped (confidence 32) [BE313BE2] (AR v2)
Track 6 accurately ripped (confidence 32) [8F358907] (AR v2)
Track 7 accurately ripped (confidence 32) [313D7886] (AR v2)
Track 8 accurately ripped (confidence 32) [259405A4] (AR v2)
Track 9 accurately ripped (confidence 32) [B9059542] (AR v2)
Track 10 accurately ripped (confidence 32) [58822043] (AR v2)
Track 11 accurately ripped (confidence 32) [27E2D2BB] (AR v2)
Track 12 accurately ripped (confidence 32) [1C06AED9] (AR v2)
Track 13 accurately ripped (confidence 32) [4E1B88DF] (AR v2)
Track 14 accurately ripped (confidence 32) [07A3072F] (AR v2)
Track 15 accurately ripped (confidence 32) [ABD26E55] (AR v2)
Track 16 accurately ripped (confidence 32) [86AD55C1] (AR v2)
Track 17 accurately ripped (confidence 32) [01727C58] (AR v2)
Track 18 accurately ripped (confidence 32) [5123034F] (AR v2)
Track 19 accurately ripped (confidence 32) [065E4D03] (AR v2)
Track 20 accurately ripped (confidence 32) [FE82AECA] (AR v2)
Track 21 accurately ripped (confidence 32) [91C17083] (AR v2)
Track 22 accurately ripped (confidence 32) [51A75DF2] (AR v2)
Track 23 accurately ripped (confidence 32) [192B802D] (AR v2)
Track 24 accurately ripped (confidence 32) [783280AB] (AR v2)
Track 25 accurately ripped (confidence 31) [50C5E743] (AR v2)
Track 26 accurately ripped (confidence 32) [B5EA4EE2] (AR v2)
Track 27 accurately ripped (confidence 32) [3136F895] (AR v2)
Track 28 accurately ripped (confidence 32) [23B23857] (AR v2)
Track 29 accurately ripped (confidence 32) [438BF347] (AR v2)

All tracks accurately ripped

End of status report

–– CUETools DB Plugin V2.1.6

[CTDB TOCID: jn3XrSiiEoXQXILIz_nnVB1Lp3g-] found
Submit result: jn3XrSiiEoXQXILIz_nnVB1Lp3g- has been confirmed
Track | CTDB Status
1 | (45/45) Accurately ripped
2 | (45/45) Accurately ripped
3 | (45/45) Accurately ripped
4 | (45/45) Accurately ripped
5 | (45/45) Accurately ripped
6 | (45/45) Accurately ripped
7 | (45/45) Accurately ripped
8 | (45/45) Accurately ripped
9 | (45/45) Accurately ripped
10 | (45/45) Accurately ripped
11 | (45/45) Accurately ripped
12 | (45/45) Accurately ripped
13 | (45/45) Accurately ripped
14 | (45/45) Accurately ripped
15 | (45/45) Accurately ripped
16 | (45/45) Accurately ripped
17 | (45/45) Accurately ripped
18 | (45/45) Accurately ripped
19 | (45/45) Accurately ripped
20 | (45/45) Accurately ripped
21 | (45/45) Accurately ripped
22 | (45/45) Accurately ripped
23 | (45/45) Accurately ripped
24 | (45/45) Accurately ripped
25 | (45/45) Accurately ripped
26 | (45/45) Accurately ripped
27 | (45/45) Accurately ripped
28 | (45/45) Accurately ripped
29 | (44/45) Accurately ripped


==== Log checksum 610D2BCF32862DCD5D7B9E5C588940454F6F84873D9074AE7C593081C7CBCB51 ====


Exact Audio Copy V1.3 from 2. September 2016

EAC extraction logfile from 1. March 2020, 17:00

Gerd Türk, Amaryllis Dieltiens, Tim Mead, Julian Podger, Peter Harvey, Siri Karoline Thornhill, Matthew White, Charles Daniels, / Bach - St. Matthew Passion (Disc 2)

Used drive : ATAPI iHAS124 F Adapter: 1 ID: 0

Read mode : Secure
Utilize accurate stream : Yes
Defeat audio cache : Yes
Make use of C2 pointers : No

Read offset correction : 6
Overread into Lead-In and Lead-Out : No
Fill up missing offset samples with silence : Yes
Delete leading and trailing silent blocks : No
Null samples used in CRC calculations : Yes
Used interface : Native Win32 interface for Win NT & 2000

Used output format : User Defined Encoder
Selected bitrate : 1024 kBit/s
Quality : High
Add ID3 tag : No
Command line compressor : C:\Program Files (x86)\Exact Audio Copy\FLAC\FLAC.EXE
Additional command line options : -6 -V -T "ARTIST=%artist%" -T "TITLE=%title%" -T "ALBUM=%albumtitle%" -T "DATE=%year%" -T "TRACKNUMBER=%tracknr%" -T "GENRE=%genre%" -T "COMMENT=%comment%" -T "BAND=%albuminterpret%" -T "ALBUMARTIST=%albuminterpret%" -T "COMPOSER=%composer%" %haslyrics%–tag-from-file=LYRICS="%lyricsfile%"%haslyrics% -T "DISCNUMBER=%cdnumber%" -T "TOTALDISCS=%totalcds%" -T "TOTALTRACKS=%numtracks%" %hascover%–picture="%coverfile%"%hascover% %source% -o %dest%


TOC of the extracted CD

Track | Start | Length | Start sector | End sector
––––––––––––––––––––––––––––-
1 | 0:00.00 | 3:22.28 | 0 | 15177
2 | 3:22.28 | 1:01.65 | 15178 | 19817
3 | 4:24.18 | 0:42.72 | 19818 | 23039
4 | 5:07.15 | 1:07.53 | 23040 | 28117
5 | 6:14.68 | 1:43.55 | 28118 | 35897
6 | 7:58.48 | 3:53.15 | 35898 | 53387
7 | 11:51.63 | 1:59.07 | 53388 | 62319
8 | 13:50.70 | 0:54.39 | 62320 | 66408
9 | 14:45.34 | 2:21.52 | 66409 | 77035
10 | 17:07.11 | 6:12.12 | 77036 | 104947
11 | 23:19.23 | 1:03.12 | 104948 | 109684
12 | 24:22.35 | 1:47.41 | 109685 | 117750
13 | 26:10.01 | 2:38.07 | 117751 | 129607
14 | 28:48.08 | 2:11.50 | 129608 | 139482
15 | 30:59.58 | 1:05.33 | 139483 | 144390
16 | 32:05.16 | 2:20.12 | 144391 | 154902
17 | 34:25.28 | 0:53.10 | 154903 | 158887
18 | 35:18.38 | 0:16.02 | 158888 | 160089
19 | 35:34.40 | 1:09.00 | 160090 | 165264
20 | 36:43.40 | 4:47.18 | 165265 | 186807
21 | 41:30.58 | 1:43.20 | 186808 | 194552
22 | 43:14.03 | 1:00.47 | 194553 | 199099
23 | 44:14.50 | 6:37.03 | 199100 | 228877
24 | 50:51.53 | 1:08.72 | 228878 | 234049
25 | 52:00.50 | 2:35.70 | 234050 | 245744


Range status and errors

Selected range

Filename C:\EACRip\EASTER\Bach - St. Matthew Passion (Jos van Veldhoven) (2011)\CD2\Bach - St. Matthew Passion (Disc 2) - Jos van Veldhoven.wav

Peak level 83.8 %
Extraction speed 8.4 X
Range quality 100.0 %
Test CRC B973A5F9
Copy CRC B973A5F9
Copy OK

No errors occurred


AccurateRip summary

Track 1 accurately ripped (confidence 31) [373A9042] (AR v2)
Track 2 accurately ripped (confidence 31) [BC23C999] (AR v2)
Track 3 accurately ripped (confidence 31) [ABE9E55C] (AR v2)
Track 4 accurately ripped (confidence 31) [04944646] (AR v2)
Track 5 accurately ripped (confidence 31) [E3DE4359] (AR v2)
Track 6 accurately ripped (confidence 31) [007C0CBF] (AR v2)
Track 7 accurately ripped (confidence 31) [322E7900] (AR v2)
Track 8 accurately ripped (confidence 31) [2500864D] (AR v2)
Track 9 accurately ripped (confidence 31) [0B178865] (AR v2)
Track 10 accurately ripped (confidence 31) [809201D7] (AR v2)
Track 11 accurately ripped (confidence 31) [B3270D13] (AR v2)
Track 12 accurately ripped (confidence 31) [8AE52478] (AR v2)
Track 13 accurately ripped (confidence 31) [7D74D11D] (AR v2)
Track 14 accurately ripped (confidence 31) [9DEC4A42] (AR v2)
Track 15 accurately ripped (confidence 31) [C41347B5] (AR v2)
Track 16 accurately ripped (confidence 31) [09427BDA] (AR v2)
Track 17 accurately ripped (confidence 31) [3846FAFD] (AR v2)
Track 18 accurately ripped (confidence 31) [148555BD] (AR v2)
Track 19 accurately ripped (confidence 31) [A8F36001] (AR v2)
Track 20 accurately ripped (confidence 31) [65D91FAC] (AR v2)
Track 21 accurately ripped (confidence 31) [20AE32CE] (AR v2)
Track 22 accurately ripped (confidence 31) [E96BC26F] (AR v2)
Track 23 accurately ripped (confidence 31) [7F150A92] (AR v2)
Track 24 accurately ripped (confidence 31) [F9DAD07E] (AR v2)
Track 25 accurately ripped (confidence 31) [2C6CF368] (AR v2)

All tracks accurately ripped

End of status report

–– CUETools DB Plugin V2.1.6

[CTDB TOCID: vvTFELVxT6V5KWpgLgCqLVnyr.E-] found
Submit result: vvTFELVxT6V5KWpgLgCqLVnyr.E- has been confirmed
Track | CTDB Status
1 | (45/45) Accurately ripped
2 | (45/45) Accurately ripped
3 | (45/45) Accurately ripped
4 | (45/45) Accurately ripped
5 | (45/45) Accurately ripped
6 | (45/45) Accurately ripped
7 | (45/45) Accurately ripped
8 | (45/45) Accurately ripped
9 | (45/45) Accurately ripped
10 | (45/45) Accurately ripped
11 | (45/45) Accurately ripped
12 | (45/45) Accurately ripped
13 | (45/45) Accurately ripped
14 | (45/45) Accurately ripped
15 | (45/45) Accurately ripped
16 | (45/45) Accurately ripped
17 | (45/45) Accurately ripped
18 | (45/45) Accurately ripped
19 | (45/45) Accurately ripped
20 | (45/45) Accurately ripped
21 | (44/45) Accurately ripped
22 | (45/45) Accurately ripped
23 | (45/45) Accurately ripped
24 | (45/45) Accurately ripped
25 | (45/45) Accurately ripped


==== Log checksum 370C6162436889E457B567EC39ADB606064748B6E066EBDBA4622EBB93C697D1 ====


Exact Audio Copy V1.3 from 2. September 2016

EAC extraction logfile from 1. March 2020, 17:47

Gerd Türk, Amaryllis Dieltiens, Tim Mead, Julian Podger, Peter Harvey, Siri Karoline Thornhill, Matthew White, Charles Daniels, / Bach - St. Matthew Passion (Disc 3)

Used drive : ATAPI iHAS124 F Adapter: 1 ID: 0

Read mode : Secure
Utilize accurate stream : Yes
Defeat audio cache : Yes
Make use of C2 pointers : No

Read offset correction : 6
Overread into Lead-In and Lead-Out : No
Fill up missing offset samples with silence : Yes
Delete leading and trailing silent blocks : No
Null samples used in CRC calculations : Yes
Used interface : Native Win32 interface for Win NT & 2000

Used output format : User Defined Encoder
Selected bitrate : 1024 kBit/s
Quality : High
Add ID3 tag : No
Command line compressor : C:\Program Files (x86)\Exact Audio Copy\FLAC\FLAC.EXE
Additional command line options : -6 -V -T "ARTIST=%artist%" -T "TITLE=%title%" -T "ALBUM=%albumtitle%" -T "DATE=%year%" -T "TRACKNUMBER=%tracknr%" -T "GENRE=%genre%" -T "COMMENT=%comment%" -T "BAND=%albuminterpret%" -T "ALBUMARTIST=%albuminterpret%" -T "COMPOSER=%composer%" %haslyrics%–tag-from-file=LYRICS="%lyricsfile%"%haslyrics% -T "DISCNUMBER=%cdnumber%" -T "TOTALDISCS=%totalcds%" -T "TOTALTRACKS=%numtracks%" %hascover%–picture="%coverfile%"%hascover% %source% -o %dest%


TOC of the extracted CD

Track | Start | Length | Start sector | End sector
––––––––––––––––––––––––––––-
1 | 0:00.00 | 0:58.53 | 0 | 4402
2 | 0:58.53 | 0:40.47 | 4403 | 7449
3 | 1:39.25 | 6:39.43 | 7450 | 37417
4 | 8:18.68 | 3:24.70 | 37418 | 52787
5 | 11:43.63 | 1:21.50 | 52788 | 58912
6 | 13:05.38 | 3:09.37 | 58913 | 73124
7 | 16:15.00 | 2:22.33 | 73125 | 83807
8 | 18:37.33 | 1:32.00 | 83808 | 90707
9 | 20:09.33 | 2:33.57 | 90708 | 102239
10 | 22:43.15 | 1:57.68 | 102240 | 111082
11 | 24:41.08 | 5:52.42 | 111083 | 137524
12 | 30:33.50 | 2:29.03 | 137525 | 148702
13 | 33:02.53 | 2:01.30 | 148703 | 157807
14 | 35:04.08 | 5:46.42 | 157808 | 183799


Range status and errors

Selected range

Filename C:\EACRip\EASTER\Bach - St. Matthew Passion (Jos van Veldhoven) (2011)\CD3\Bach - St. Matthew Passion (Disc 3) - Jos van Veldhoven.wav

Peak level 75.4 %
Extraction speed 8.1 X
Range quality 100.0 %
Test CRC 9D129879
Copy CRC 9D129879
Copy OK

No errors occurred


AccurateRip summary

Track 1 accurately ripped (confidence 31) [394A219E] (AR v2)
Track 2 accurately ripped (confidence 31) [9F14523C] (AR v2)
Track 3 accurately ripped (confidence 31) [700874B6] (AR v2)
Track 4 accurately ripped (confidence 31) [E6E72052] (AR v2)
Track 5 accurately ripped (confidence 31) [547B6EFD] (AR v2)
Track 6 accurately ripped (confidence 31) [5D9E175A] (AR v2)
Track 7 accurately ripped (confidence 31) [E0BB51C9] (AR v2)
Track 8 accurately ripped (confidence 31) [62F388FC] (AR v2)
Track 9 accurately ripped (confidence 31) [3E923F29] (AR v2)
Track 10 accurately ripped (confidence 31) [50C969F6] (AR v2)
Track 11 accurately ripped (confidence 31) [2787B27F] (AR v2)
Track 12 accurately ripped (confidence 31) [A55AEBDC] (AR v2)
Track 13 accurately ripped (confidence 31) [98E6C6EF] (AR v2)
Track 14 accurately ripped (confidence 31) [6BB88C4D] (AR v2)

All tracks accurately ripped

End of status report

–– CUETools DB Plugin V2.1.6

[CTDB TOCID: RvL5T9LCpl48i51NWtHWXIoJX9Y-] found
Submit result: RvL5T9LCpl48i51NWtHWXIoJX9Y- has been confirmed
Track | CTDB Status
1 | (46/46) Accurately ripped
2 | (46/46) Accurately ripped
3 | (46/46) Accurately ripped
4 | (46/46) Accurately ripped
5 | (46/46) Accurately ripped
6 | (46/46) Accurately ripped
7 | (46/46) Accurately ripped
8 | (46/46) Accurately ripped
9 | (46/46) Accurately ripped
10 | (46/46) Accurately ripped
11 | (46/46) Accurately ripped
12 | (46/46) Accurately ripped
13 | (46/46) Accurately ripped
14 | (46/46) Accurately ripped


==== Log checksum 7BF3DA9D4C8202320B415070281FE0BF3A2C037E99639B433AF95C394022CDBB ====

Jos Van Veldhoven, Netherlands Bach Society - Johann Sebastian Bach: Matthäus-Passion / St. Matthew Passion (2011)

Thanks to the original releaser