Tags
Language
Tags

Jos van Immerseel, Anima Eterna Brugge - Schubert: The Complete Symphonies (2012)

Posted By:
Jos van Immerseel, Anima Eterna Brugge - Schubert: The Complete Symphonies (2012)

Jos van Immerseel, Anima Eterna Brugge - Schubert: The Complete Symphonies (2012)
EAC | FLAC | Image (Cue & Log) ~ 1.07 Gb | Total time: 04:12:55 | Scans included
Classical | Label: Zig-Zag Territoires | ZZT 308 | Recorded: 1996, 1997

In the course of the 1996-97 season, Anima Eterna played and recorded Schubert's complete symphonies in the particularly innovative interpretation of their conductor, Jos van Immerseel. This interpretation, based on the study of Schubert's manuscripts and on the instruments used at the time of their first performance, allows us to discover sound colours that combine freshness and profundity.
Upon its initial release, this series of 4 CDs was recognized internationally as a new reference.

Performer:
Anima Eterna Brugge
Jos van Immerseel, conductor

Track List:
CD1:
Symphony No. 8 in B minor, D759 'Unfinished'
01. I. Allegro moderato
02. II. Andante con moto
Symphony No.6 in C major D.589
03. I. Adagio - Allegro
04. II. Andante
05. III. Scherzo, Presto - Piu lento - Presto
06. IV. Allegro moderato
CD2:
Symphony No.4 in C minor D.417 "Tragic"
01. I. Adagio molto - Allegro vivace
02. II. Andante
03. III. Menuetto, allegro vivace
04. IV. Allegro
Symphony No.2 in A flat major D.125
05. I. Largo - Allegro vivace
06. II. Andante
07. III. Menuetto
08. IV. Presto vivace
CD3:
Symphony No.3 in D major D.200
01. I. Adagio maestoso - Allegro con brio
02. II. Allegretto
03. III. Menuetto, vivace
04. IV. Presto vivace
Symphony No.5 in B flat major D.485
05. I. Allegro
06. II. Andante con moto
07. III. Menuetto, allegro molto
08. IV. Allegro vivace
Symphony No.1 in D major D.82
09. I. Adagio - Molto vivace
10. II. Andante
11. III. Menuetto, allegro
12. IV. Allegro vivace
CD4:
Symphony No. 9 in C major, D944 'The Great'
01. I. Andante - Allegro ma non troppo
02. II. Andante con moto
03. III. Scherzo, allegro vivace
04. IV. Allegro vivace


Exact Audio Copy V1.0 beta 3 from 29. August 2011

EAC extraction logfile from 11. November 2012, 13:06

Jos van Immerseel / Schubert - The Symphonies – van Immerseel (Disc 1)

Used drive : TSSTcorpCDDVDW SH-222BB Adapter: 2 ID: 1

Read mode : Secure
Utilize accurate stream : Yes
Defeat audio cache : Yes
Make use of C2 pointers : No

Read offset correction : 6
Overread into Lead-In and Lead-Out : No
Fill up missing offset samples with silence : Yes
Delete leading and trailing silent blocks : No
Null samples used in CRC calculations : Yes
Used interface : Native Win32 interface for Win NT & 2000

Used output format : User Defined Encoder
Selected bitrate : 1024 kBit/s
Quality : High
Add ID3 tag : No
Command line compressor : C:\Program Files\Exact Audio Copy\Flac\flac.exe
Additional command line options : -8 -V -T "TITLE=%title%" -T "ARTIST=%artist%" -T "ALBUMARTIST=%albumartist%" -T "ALBUM=%albumtitle%" -T "DATE=%year%" -T "TRACKNUMBER=%tracknr%" -T "TRACKTOTAL=%numtracks%" -T "GENRE=%genre%" -T "COMMENT=%comment%" -T "PERFORMER=%albuminterpret%" -T "COMPOSER=%composer%" %source% -o %dest%


TOC of the extracted CD

Track | Start | Length | Start sector | End sector
––––––––––––––––––––––––––––-
1 | 0:00.00 | 13:44.64 | 0 | 61863
2 | 13:44.64 | 9:49.16 | 61864 | 106054
3 | 23:34.05 | 8:53.48 | 106055 | 146077
4 | 32:27.53 | 6:01.20 | 146078 | 173172
5 | 38:28.73 | 6:04.38 | 173173 | 200510
6 | 44:33.36 | 9:46.08 | 200511 | 244468


Range status and errors

Selected range

Filename G:\Ripped general\[9420] Schubert - The Symphonies – van Immerseel\cd1\Schubert - The Symphonies – van Immerseel (Disc 1).wav

Peak level 97.1 %
Extraction speed 6.8 X
Range quality 99.9 %
Test CRC FBFD884E
Copy CRC FBFD884E
Copy OK

No errors occurred


AccurateRip summary

Track 1 not present in database
Track 2 not present in database
Track 3 not present in database
Track 4 not present in database
Track 5 not present in database
Track 6 not present in database

None of the tracks are present in the AccurateRip database

End of status report


Exact Audio Copy V1.0 beta 3 from 29. August 2011

EAC extraction logfile from 11. November 2012, 13:51

Jos van Immerseel / Schubert - The Symphonies – van Immerseel (Disc 2)

Used drive : TSSTcorpCDDVDW SH-222BB Adapter: 2 ID: 1

Read mode : Secure
Utilize accurate stream : Yes
Defeat audio cache : Yes
Make use of C2 pointers : No

Read offset correction : 6
Overread into Lead-In and Lead-Out : No
Fill up missing offset samples with silence : Yes
Delete leading and trailing silent blocks : No
Null samples used in CRC calculations : Yes
Used interface : Native Win32 interface for Win NT & 2000

Used output format : User Defined Encoder
Selected bitrate : 1024 kBit/s
Quality : High
Add ID3 tag : No
Command line compressor : C:\Program Files\Exact Audio Copy\Flac\flac.exe
Additional command line options : -8 -V -T "TITLE=%title%" -T "ARTIST=%artist%" -T "ALBUMARTIST=%albumartist%" -T "ALBUM=%albumtitle%" -T "DATE=%year%" -T "TRACKNUMBER=%tracknr%" -T "TRACKTOTAL=%numtracks%" -T "GENRE=%genre%" -T "COMMENT=%comment%" -T "PERFORMER=%albuminterpret%" -T "COMPOSER=%composer%" %source% -o %dest%


TOC of the extracted CD

Track | Start | Length | Start sector | End sector
––––––––––––––––––––––––––––-
1 | 0:00.00 | 8:24.47 | 0 | 37846
2 | 8:24.47 | 9:15.03 | 37847 | 79474
3 | 17:39.50 | 2:56.12 | 79475 | 92686
4 | 20:35.62 | 10:30.13 | 92687 | 139949
5 | 31:06.00 | 14:11.01 | 139950 | 203775
6 | 45:17.01 | 7:45.26 | 203776 | 238676
7 | 53:02.27 | 3:02.23 | 238677 | 252349
8 | 56:04.50 | 7:52.30 | 252350 | 287779


Range status and errors

Selected range

Filename G:\Ripped general\[9420] Schubert - The Symphonies – van Immerseel\cd2\Schubert - The Symphonies – van Immerseel (Disc 2).wav

Peak level 95.4 %
Extraction speed 7.6 X
Range quality 100.0 %
Test CRC 606D23D5
Copy CRC 606D23D5
Copy OK

No errors occurred


AccurateRip summary

Track 1 not present in database
Track 2 not present in database
Track 3 not present in database
Track 4 not present in database
Track 5 not present in database
Track 6 not present in database
Track 7 not present in database
Track 8 not present in database

None of the tracks are present in the AccurateRip database

End of status report


Exact Audio Copy V1.0 beta 3 from 29. August 2011

EAC extraction logfile from 11. November 2012, 15:59

Jos van Immerseel / Schubert - The Symphonies – van Immerseel (Disc 3)

Used drive : TSSTcorpCDDVDW SH-222BB Adapter: 2 ID: 1

Read mode : Secure
Utilize accurate stream : Yes
Defeat audio cache : Yes
Make use of C2 pointers : No

Read offset correction : 6
Overread into Lead-In and Lead-Out : No
Fill up missing offset samples with silence : Yes
Delete leading and trailing silent blocks : No
Null samples used in CRC calculations : Yes
Used interface : Native Win32 interface for Win NT & 2000

Used output format : User Defined Encoder
Selected bitrate : 1024 kBit/s
Quality : High
Add ID3 tag : No
Command line compressor : C:\Program Files\Exact Audio Copy\Flac\flac.exe
Additional command line options : -8 -V -T "TITLE=%title%" -T "ARTIST=%artist%" -T "ALBUMARTIST=%albumartist%" -T "ALBUM=%albumtitle%" -T "DATE=%year%" -T "TRACKNUMBER=%tracknr%" -T "TRACKTOTAL=%numtracks%" -T "GENRE=%genre%" -T "COMMENT=%comment%" -T "PERFORMER=%albuminterpret%" -T "COMPOSER=%composer%" %source% -o %dest%


TOC of the extracted CD

Track | Start | Length | Start sector | End sector
––––––––––––––––––––––––––––-
1 | 0:00.00 | 9:13.19 | 0 | 41493
2 | 9:13.19 | 4:03.37 | 41494 | 59755
3 | 13:16.56 | 3:49.35 | 59756 | 76965
4 | 17:06.16 | 6:29.73 | 76966 | 106213
5 | 23:36.14 | 6:40.50 | 106214 | 136263
6 | 30:16.64 | 8:08.12 | 136264 | 172875
7 | 38:25.01 | 4:11.45 | 172876 | 191745
8 | 42:36.46 | 7:29.10 | 191746 | 225430
9 | 50:05.56 | 10:25.13 | 225431 | 272318
10 | 60:30.69 | 6:42.02 | 272319 | 302470
11 | 67:12.71 | 4:02.45 | 302471 | 320665
12 | 71:15.41 | 5:57.45 | 320666 | 347485


Range status and errors

Selected range

Filename G:\Ripped general\[9420] Schubert - The Symphonies – van Immerseel\cd3\Schubert - The Symphonies – van Immerseel (Disc 3).wav

Peak level 95.3 %
Extraction speed 8.1 X
Range quality 100.0 %
Test CRC FBDA529A
Copy CRC FBDA529A
Copy OK

No errors occurred


AccurateRip summary

Track 1 not present in database
Track 2 not present in database
Track 3 not present in database
Track 4 not present in database
Track 5 not present in database
Track 6 not present in database
Track 7 not present in database
Track 8 not present in database
Track 9 not present in database
Track 10 not present in database
Track 11 not present in database
Track 12 not present in database

None of the tracks are present in the AccurateRip database

End of status report


Exact Audio Copy V1.0 beta 3 from 29. August 2011

EAC extraction logfile from 11. November 2012, 16:28

Jos van Immerseel / Schubert - The Symphonies – van Immerseel (Disc 4)

Used drive : TSSTcorpCDDVDW SH-222BB Adapter: 2 ID: 1

Read mode : Secure
Utilize accurate stream : Yes
Defeat audio cache : Yes
Make use of C2 pointers : No

Read offset correction : 6
Overread into Lead-In and Lead-Out : No
Fill up missing offset samples with silence : Yes
Delete leading and trailing silent blocks : No
Null samples used in CRC calculations : Yes
Used interface : Native Win32 interface for Win NT & 2000

Used output format : User Defined Encoder
Selected bitrate : 1024 kBit/s
Quality : High
Add ID3 tag : No
Command line compressor : C:\Program Files\Exact Audio Copy\Flac\flac.exe
Additional command line options : -8 -V -T "TITLE=%title%" -T "ARTIST=%artist%" -T "ALBUMARTIST=%albumartist%" -T "ALBUM=%albumtitle%" -T "DATE=%year%" -T "TRACKNUMBER=%tracknr%" -T "TRACKTOTAL=%numtracks%" -T "GENRE=%genre%" -T "COMMENT=%comment%" -T "PERFORMER=%albuminterpret%" -T "COMPOSER=%composer%" %source% -o %dest%


TOC of the extracted CD

Track | Start | Length | Start sector | End sector
––––––––––––––––––––––––––––-
1 | 0:00.00 | 14:30.39 | 0 | 65288
2 | 14:30.39 | 13:11.26 | 65289 | 124639
3 | 27:41.65 | 14:26.15 | 124640 | 189604
4 | 42:08.05 | 15:17.20 | 189605 | 258399


Range status and errors

Selected range

Filename G:\Ripped general\[9420] Schubert - The Symphonies – van Immerseel\cd4\Schubert - The Symphonies – van Immerseel (Disc 4).wav

Peak level 97.0 %
Extraction speed 7.1 X
Range quality 100.0 %
Test CRC 8B7744F3
Copy CRC 8B7744F3
Copy OK

No errors occurred


AccurateRip summary

Track 1 not present in database
Track 2 not present in database
Track 3 not present in database
Track 4 not present in database

None of the tracks are present in the AccurateRip database

End of status report

Jos van Immerseel, Anima Eterna Brugge - Schubert: The Complete Symphonies (2012)

Thanks to the original releaser