Tags
Language
Tags

José Miguel Moreno - The Spanish Guitar [12CDs] (2019)

Posted By:
José Miguel Moreno - The Spanish Guitar [12CDs] (2019)

José Miguel Moreno - The Spanish Guitar [12CDs] (2019)
EAC | FLAC | Image (Cue & Log) ~ 2,94 Gb | Total time: 13:10:00 | Scans included
Classical | Label: Glossa | # GCD 920114 | Recorded: 1991-2004

With a capaciously-filled boxset of a dozen CDs made up of attractive individual programmes and entitled The Spanish Guitar, Glossa reintroduces the superb playing of José Miguel Moreno. And with recordings from 1991-2004 which still sound fresh and vivid today. A new essay and all the sung texts are included in the physical booklet that completes this limited-edition set.
José Miguel Moreno’s multi-century guided tour of Spanish instrumental music encompasses a magisterial pair of CDs tracing the history of the Spanish guitar: compositions by Narváez, Mudarra, Murcia, Sanz, Sor, Tárrega and Llobet are all accorded their rightful places. A sizeable portion of the collection is dedicated to celebrating the Renaissance and Baroque eras with either the vihuela or the Baroque guitar. To discs of music by Luys Milán and Gaspar Sanz comes a clutch of albums adding vocal gems from Spain’s musical Siglo de Oro and bearing titles such as Claros y frescos ríos or Al alva venid. Moving onwards from Spain’s Classical era, the set ends with another of Moreno’s legendary albums, Las mujeres y cuerdas.
As well as being joined by instrumental colleagues from Orphénica Lyra and La Romanesca, Moreno’s dexterous playing is also called upon in the service of accompanying a group of early music Spanish singers in their time: Nuria Rial, Marta Almajano, Raquel Andueza and Carlos Mena among them.

Performer:
José Miguel Moreno, Vihuela, Renaissance guitar, Baroque guitar, Classical-romantic guitar, Post-romantic guitar

Contents:
1.CD "Canto del cavallero" Solo Pieces for Vihuela
2.CD "Canción del Emperador" Solo Pieces for Vihuela
3.CD "Luys Milán (c.1500-c.1561) - Fantasía" Music for two Vihuelas
4.CD "La guitarra española I" Music for Vihuelas, Baroque & Classical-romantic Guitar
5.CD "La guitarra española II" Music for Classical-romantic & Post-romantic Guitar
6.CD "Claros y frescos ríos" Guitar Music from the Spanish Renaissance
7.CD "Al alva venid" Guitar Music from the Spanish Renaissance
8.CD "Miguel de Fuenllana (c1500-1579) - Orphénica lyra, 1554"
9.CD "Música en el Quijote" Music in the Works of Miguel de Cervantes
10.CD "Gaspar Sanz (c1640-c1710)" - Instrucción de música para la guitarra española
11.CD "Música en tiempos de Velásquez" Guitar Music from 17th-century Spain
12.CD "Las mujeres y cuerdas" Guitar Music from Spain and Italy, c1800


CD 1: CANTO DEL CAVALLERO
Luys Venegas de Henestrosa (c.1510-c.1557)
01. Cinco Diferencias sobre Vacas (Antonio de Cabezón?) 4:06
02. Pues no me queréis hablar (anon.) 2:31
03. Cinco Diferencias sobre Conde Claros (Antonio de Cabezón?) 2:14
04. Pavana con su Glosa (Antonio de Cabezón) 4:25
Miguel de Fuenllana (c.1500-c.1579)
05. Glosa sobre Tan que vivray (Claudin de Sermisy) 5:04
06. Una fantasía de redobles 1:24
07. Con qué la lavaré (Juan Vásquez) 3:56
08. De Antequera sale el Moro (Cristóbal de Morales) 2:22
09. Morenica dame un beso (Juan Vásquez) 3:03
Diego Pisador (1509-1557)
10. Dezilde al cavallero que 1:25
11. Madona mala vostra 1:38
12. La cortesía 1:41
13. Pavana muy llana para tañer 2:35
Antonio de Cabezón (1510-1566)
14. Diferencias sobre el canto de La Dama le demanda 4:10
15. Diferencias sobre el Canto del cavallero 3:41
Enríquez de Valderrábano (c.1500-c.1557)
16. Soneto XXII (‘Lo que queda es lo seguro’) 0:50
17. Soneto XXVII 2:56
18. Soneto VIII 1:58
19. Canción VII (‘A mi sufle’) 2:43
Luys Milán (c.1500-c.1561)
20. Fantasía VIII 2:28
21. Fantasía XII 2:34
22. Fantasía I 1:55
23. Quie Amores Ten 2:26
24. Falai Miña Amor 1:08
25. Fantasía XI 3:18
26. Pavana IV 2:05
27. Pavana V 2:19
28. Anonymous Diferencias sobre Vacas (Manuscrito de Simancas) 2:23

José Miguel Moreno, vihuela

CD 2: CANCIÓN DEL EMPERADOR
01. Esteban Daça (c.1537-c.1595) Fantasía 22 de passos largos 3:03
02. Diego Ortiz (c.1510-c.1576) Recercada terçera sobre la Bergamasca 5:51
03. Diego Ortiz Recercada segunda sobre el passamezzo moderno 2:56
04. Luys Maymón (16th century) Diferencias de bacas 4:22
05. Esteban Daça Fantasía 21 de passos largos 4:01
06. Alonso Mudarra (1510-1580) Diferencias de Conde Claros 4:30
07. Anonymous Al alva venid 1:59
08. Luys de Narváez (c.1500-c.1555) Diferencias de Conde Claros 3:47
09. Luys de Narváez Con qué la lavaré (Juan Vásquez) 3:19
10. Miguel de Fuenllana (c.1500-c.1579) Vos me matastes (Juan Vásquez) 1:36
11. Diego Pisador (1509-1557) Si la noche haze escura 3:06
12. Miguel de Fuenllana Glosa sobre Tant que vivray (Claudin de Sermisy) 2:30
13. Diego Ortiz Recercada quinta sobre el passamezzo antiguo 2:58
14. Diego Ortiz Recercada settima sobre la Romanesca 2:57
15. Francisco Páez (16th century) Diferencias de bacas 6:03
16. Luys de Narváez Mille regretz (Josquin Desprez) 2:46
17. Luys de Narváez Canción del Emperador 3:59

José Miguel Moreno, vihuela

CD 3: LUYS MILÁN (c.1500-c.1561)
FANTASÍA
01. Pavana VI 1:49
02. Pavana V 1:53
03. Fantasía I 3:17
04. Pavana I 3:06
05. Fantasía X 2:20
06. Fantasía III 4:13
07. Fantasía XXII 3:00
08. Pavana IV 1:57
09. Tento 6:16
10. Fantasía IV 2:32
11. Pavana III 2:59
12. Fantasía XVIII 3:15
13. Fantasía XXXV 3:27
14. Madonna per voi ardo 4:18
15. Falai miña amor 1:09
16. Fantasía XII 4:36
17. Fantasía VIII 4:28
18. Pavana II 2:55
19. Fantasía XI 3:04
20 Sospiraste Baldovinos 2:47

José Miguel Moreno, vihuela
Eligio Quinteiro, Renaissance guitar & vihuela

CD 4: LA GUITARRA ESPAÑOLA I
Luys de Narváez (c.1500-c.1555)
01. Cuatro diferencias de Gúardame las vacas 3:52
02. Passeávase el rey moro 3:35
03. Tres diferencias de Guárdame las vacas 4:08
04. Canción del Emperador (Josquin Desprez) 3:40
05. López (16th century) Fantasía 1:57
06. Luys Milán (c.1500-c.1561) Pavana II 3:22
Alonso Mudarra (1510-1580)
07. Pavana de Alexandre 2:06
08. Fantasía X 2:09
Santiago de Murcia (c.1685-c.1732)
09. Giga 2:46
10. Cumbés 4:23
Francisco Guerau (1649-1722)
11. Marionas 4:31
12. Canarios 4:58
Gaspar Sanz (c.1640-c.1710)
13. Pavana al ayre español 2:35
14. Folías 3:48
15. Lantururú 1:39
16. Canarios 3:54
Fernando Sor (1778-1839)
17. Andante maestoso 2:16
18. Andante expressivo 5:08
19. Introduction and variations on a theme of ‘The Magic Flute’, op. 9 11:43

José Miguel Moreno, vihuela [1-8], Baroque guitar [9-16] & Classical-Romantic guitar [17-19]

CD 5: LA GUITARRA ESPAÑOLA II
Fernando Sor (1778-1839)
Introduction et variations sur l’air ‘Marlborough’, op. 28:
01. Introduction 1:13
02. Thème 1:38
03. Variation I 1:05
04. Variation II 3:04
05. Variation III 1:12
06. Variation IV 2:03
07. Variation V 2:38
08. Andantino en re menor 3:30
Johann Kaspar Mertz (1806-1856)
09. Ständchen (Schubert, arr. Mertz) 6:20
10. Lied ohne Worte 4:33
Francisco Tárrega (1852-1909)
11. Andante sostenuto (Preludio) 2:08
12. Lágrima (Preludio, andante) 1:38
13. Mazurka en sol (Lento) 4:56
14. Paquito (Vals) 2:37
15. Adelita (Mazurka, lento) 2:03
16. Marieta (Mazurka, lento) 2:46
Miguel Llobet (1875-1938)
17. El Testament d’Amelia (Andante expresivo) 2:31
18. El Noi de la Mare 2:11
19. Canço del Lladre 2:24
20. La Filadora (Allegro scherzando) 1:16
Francisco Tárrega
21. Endecha (Preludio, andante) 1:40
22. Sueño (Mazurka Conchita) 2:48
23. Oremus (Preludio, lento) 1:10
24. Pavana (Allegretto) 1:36
25. Adieu (Schubert, arr. Tárrega) 2:03

José Miguel Moreno, Classical-Romantic guitar [1-10] & post-Romantic guitar [11-25]

CD 6: CLAROS Y FRESCOS RÍOS
01. Anonymous Qué me queréis, caballero 1:12
02. Esteban Daça (c.1537-c.1595) Quién te hizo Juan Pastor 3:09
03. Diego Pisador (1509-1557) En la fuente del rosel (Juan Vásquez) 0:55
04. Esteban Daça A tierras agenas 2:58
Miguel de Fuenllana (c.1500-c.1579)
05. Teresica hermana (Mateo Flecha) 1:56
06. De Antequera sale el moro (Cristóbal de Morales) 2:58
07. Esteban Daça Gritos dava la morenica 1:56
08. Anonymous Diferencias de Conde Claros [instr.] 4:48
09. Alonso Mudarra (1510-1580) O gelosia d’amanti 2:52
10. Diego Pisador Si la noche haze escura 2:29
11. Alonso Mudarra Ysabel, perdiste la tu faxa 2:15
12. Miguel de Fuenllana Benedictus (Cristóbal de Morales) 1:48
13. Diego Pisador Endechas 2:11
14. Miguel de Fuenllana Endechas 1:17
15. Enríquez de Valderrábano (c.1500-c.1557) De dónde venís, amore 1:25
Alonso Mudarra
16. Romanesca [instr.] 3:37
17. Si me llaman a mí 2:52
18. Claros y frescos ríos 4:03
19. Beatus ille 0:57
20. Miguel de Fuenllana Duélete de mí, señora (Juan Vásquez) 3:04
21. Diego Pisador La mañana de Sant Juan 2:34
Miguel de Fuenllana
22. Fantasía [instr.] 2:38
23. Passeávase el rey moro 2:46
24. Diego Pisador Dezilde al caballero 2:05

Nuria Rial, soprano
José Miguel Moreno, vihuela & Renaissance guitar

CD 7: AL ALVA VENID
Anonymous
01. Al alva venid (Cancionero de Palacio) 2:42
02. L’amor, dona, ch’io te porto (Cancionero de Palacio) 3:16
03. Rodrigo Martines (Cancionero de Palacio) 0:56
04. Luys de Narváez (c.1500-c.1555) Passeávase el rey moro [instr.] 2:44
Juan del Enzina (1468-1529)
05. Más vale trocar 3:56
06. Si habrá en este baldrés 1:16
07. Qu’es de ti, desconsolado 3:04
08. Hoy comamos y bevamos 1:33
Diego Ortiz (c.1510-c.1576)
09. Recercada quinta [instr.] 2:16
10. Recercada quarta [instr.] 2:17
11. Recercada segunda [instr.] 2:36
12. Diego Pisador (1509-1557) En la fuente del rosel (Juan Vásquez) 0:55
Miguel de Fuenllana (c.1500-c.1579)
13. Con qué la lavaré (Juan Vásquez) 5:55
14. De los álamos vengo (Juan Vásquez) 2:01
15. Tan que vivray (Claudin de Sermisy) 5:04
Alonso Mudarra (1510-1580)
16. Si me llaman a mí 1:34
17. Ysabel, perdiste la tu faxa 1:13
Diego Ortiz
18. Recercada terçera [instr.] 2:10
19. Recercada settima [instr.] 1:28
20. Miguel de Fuenllana De Antequera sale el moro (Cristóbal de Morales) 4:01
21. Diego Pisador La mañana de Sant Juan 3:15
22. Luys de Narváez / Alonso Mudarra Guárdame las vacas [instr.] 2:21
Anonymous
23. A los maitines era (Cancionero de la Colombina) 2:00
24. Niña y viña (Cancionero de la Colombina) 1:08

Ensemble La Romanesca:
Marta Almajano, soprano
Paolo Pandolfo, viola da gamba
Juan Carlos de Mulder, vihuela & Renaissance guitar
Pedro Estevan, percussion
José Miguel Moreno, vihuela & direction

CD 8: MIGUEL DE FUENLLANA (c.1500-c.1579)
ORPHÉNICA LYRA
01. La Bomba (Mateo Flecha) [NR, CM] 2:46
02. Paseábase el rey moro (Luys de Narváez) [NR] 4:46
03. Buscad de oy mas (Mateo Flecha) [NR, CM] 3:05
04. Morenica, dame un beso (Juan Vásquez) [NR, CM] 3:37
05. Duo [instr.] 3:42
06. Vos me matastes, niña en cabello (Juan Vásquez) [CM] 1:44
07. O felici occhi miei (Diego Ortiz, Jacobus Arcadelt) [NR] 3:53
08. No sé qué me bulle (Juan Vásquez) [NR] 2:05
09. Tan que vivray (Claudin de Sermisy) [NR, CM] 5:20
10. Fantasia de redobles [instr.] 2:38
11. La Girigonça (Mateo Flecha) [NR, CM] 1:55
12. Madona mia (Vicenzo Fontana) [CM] 2:55
13. Cómo quereys, madre (Juan Vásquez) [CM] 2:00
14. Con qué la lavaré (Juan Vásquez) [NR] 6:08
15. O que bonica canción (Mateo Flecha) [instr.] 1:47
16. Duelete de mi, señora (Juan Vásquez) [CM] 5:28
17. De los álamos vengo, madre (Juan Vásquez) [NR] 2:33
18. Benedictus, Missa de Mila regres (Cristóbal de Morales) [instr.] 3:41

Orphénica Lyra:
Nuria Rial, soprano [NR] | Carlos Mena, countertenor [CM]
Guido Balestracci, Alba Fresno, Sergi Casademunt, violas da gamba
Juan Carlos de Mulder, Renaissance guitar
Fernando Paz, recorders | David Mayoral, percussion
José Miguel Moreno, vihuela & direction

CD 9: MÚSICA EN EL QUIJOTE
01. Luys Milán (c.1500-c.1561) Pavana VI [instr.] 1:50
02. Anonymous Al alva venid [NR, JD] 3:18
03. Juan Arañés (?-c.1649) Chacona - A la vida bona [NR, JD] 1:50
04. Luys Milán Romance de Durandarte [JD] 4:27
05. Alonso Mudarra (1510-1580) Gallarda [instr.] 2:12
06. Francisco Guerrero (1528-1599) Prado verde y florido [NR, JD] 3:12
Anonymous
07. Qué me queréis, caballero [NR, RA, JD] 1:26
08. Romance de Don Gayferos [RA] 5:28
09. Antonio Martín y Coll (1671-c.1734) Canarios [instr.] 3:54
Anonymous
10. Madre, la mi madre [NR, JD] 2:21
11. Ay luna que reluces [NR, JD] 2:00
12. Jácaras - No hay que decirle el primor [NR, JD] 2:02
13. Alonso Mudarra Fantasía X, sobre la folía [instr.] 2:12
14. Luys Milán Romance de Valdovinos [JD] 5:27
15. Antonio Martín y Coll Villanos [instr.] 2:56
16. Anonymous Qué bonito niño chiquito [NR] 2:17
17. Alonso Mudarra Beatus ille [RA, JD] 1:37
18. Antonio de Ribera (fl.1500) Romance de Cardenio [NR, JD] 3:35
19. Diego Ortiz (c.1510-c.1576) Recercada segunda [instr.] 2:25
20. Gabriel (16th century) De la dulce mi enemiga [RA, JD] 1:09
21. Anonymous Romance del Marqués de Mantua [RA, JD] 2:02
22. Diego Pisador (1509-1557) Flérida, para mí dulce y sabrosa [NR, JD] 2:53
23. Anonymous Al villano se la dan [RA, JD] 1:52
24. Luys de Narváez (c.1500-c.1555) Romance del Conde Claros [RA] 3:37
25. Diego Ortiz Recercada octava [instr.] 3:07
26. Juan Arañés Chacona - A la vida bona [NR, JD] 2:33

Orphénica Lyra:
Nuria Rial, soprano [NR] | Raquel Andueza, soprano [RA] | Jordi Domenech, countertenor [JD]
Fernando Paz, recorders
Fahmi Alqhai, viola da gamba
Eligio Quinteiro, Renaissance guitar
Álvaro Garrido, percussion
José Miguel Moreno, vihuelas, Baroque guitar & direction

CD 10: GASPAR SANZ (c.1640-c.1710)
INSTRUCCIÓN DE MÚSICA PARA LA GUITARRA ESPAÑOLA
01. Canarios 4:07
02. Marionas 5:26
03. Zarabanda 2:18
04. Clarín de los Mosqueteros del Rey de Francia 1:37
05. La Cavallería de Nápoles con dos clarines 2:05
06. La Esfachata de Nápoles 1:08
07. Clarines y trompetas 2:21
08. La Minina de Portugal 1:24
09. Canción 0:46
10. La Coquina francesa 1:16
11. Torneo 1:40
12. Batalla 0:51
13. Españoletas por otro punto 3:15
14. Rujero 0:58
15. Paradetas 0:50
16. Las Hachas 1:58
17. Mariçapalos 3:45
18. Matachín 1:38
19. Passacalles sobre la D con muchas diferencias 4:10
20. Villanos 2:20
21. Pavana por la D con partidas al aire español 2:52
22. Canarios 2:13
23. Españoletas 4:29
24. La Miñona de Cataluña 1:10
25. La Garzona 1:45
26. Jácaras 2:03
27. Dos trompetas de la Reyna de Suecia 0:57
28. Folías 3:12
29. Lantururú 1:38
30. Canarios 3:15
31. Chacona 5:15

Orphénica Lyra:
José Miguel Moreno, Baroque guitar & direction
Eligio Quinteiro, tiple & theorbo
Juan Carlos de Mulder, theorbo & Baroque guitar
Pedro Estevan, percussion

CD 11: MÚSICA EN TIEMPOS DE VELÁZQUEZ
01. Gaspar Sanz (c.1640-c.1710) / Antonio Martín y Coll (1671-c.1734) Folías [instr.] 4:04
02. Juan Hidalgo (1614-1685) Peynándose estaba un olmo 1:49
03. Juan Hidalgo ¡Tonante dios! 2:39
04. Antonio Martín y Coll Canarios [instr.] 2:02
05. José Marín (1618-1699) Ojos, pues me desdeñáis 2:54
06. Bartolomé de Selma y Salaverde (c.1580-c.1638) Susana passeggiata [instr.] 6:57
07. Juan Hidalgo De las luces que en el mar 2:26
08. Juan Hidalgo Cuydado, pastor 2:58
09. Gaspar Sanz Canarios [instr.] 3:37
10. Juan Hidalgo Ay que sí, ay que no 3:10
11. Lucas Ruiz de Ribayaz (1626-1677) Españoletas [instr.] 4:16
12. José Marín Aquella sierra nevada 3:06
13. Bartolomé de Selma y Salaverde Fantasía [instr.] 5:45
14. José Marín No piense Menguilla 3:14
15. Francisco Guerau (1649-1722) Marionas [instr.] 4:35
16. Sebastián Durón (1660-1716) Sosieguen, descansen 5:51
17. Juan Hidalgo Ay, que me río de Amor 1:37
18. Gaspar Sanz Lantururú [instr.] 1:45

Ensemble La Romanesca:
Marta Almajano, soprano
Paolo Pandolfo, viola da gamba
Juan Carlos de Mulder, theorbo
Nuria Llopis, harp
Toni Millán, harpsichord
José Miguel Moreno, Baroque guitar & direction

CD 12: LAS MUJERES Y CUERDAS
Vicente Martín y Soler (1754-1806)
01. La semplice 1:15
02. La volubile 2:01
03. La costanza 2:33
04. La mercede 1:29
05. Ferdinando Carulli (1770-1841) Andante affetuoso [instr.] 3:03
Mauro Giuliani (1781-1829)
06. Le dimore amor non ama 3:08
07. Quando sarà quel dì 2:03
08. Ad altro laccio 2:23
09. Andantino sostenuto [instr.] 4:31
10. Confuso, smarrito 1:14
11. Amor, perché m’accendi 4:03
12. Di tanti palpiti (from the opera Tancredi by Rossini) 6:13
Fernando Sor (1778-1839)
13. Mouvement de prière religieuse [instr.] 3:37
14. Lagrime 1:36
15. Perduta l’anima 3:29
16. Povero cor 4:06
17. Io mentitor! 5:05
18. Nel cor più non mi sento (air by Paisiello) 1:11
19. Johann Kaspar Mertz (1806-1856) Lied ohne Worte [instr.] 4:56
Fernando Sor
20. Si dices que mis ojos 1:53
21. Muchacha, y la vergüenza 1:36
22. Mis descuidados ojos 5:39
23. Seguidillas del Requiem eternam 2:16
24. Las mujeres y cuerdas 1:08

Marta Almajano, soprano
José Miguel Moreno, Romantic guitar



Exact Audio Copy V1.5 from 20. February 2020

EAC extraction logfile from 26. June 2020, 0:09

José Miguel Moreno / The Spanish Guitar - CD01 - Canto del Cavallero

Used drive : ASUS SDRW-08U7M-U Adapter: 1 ID: 0

Read mode : Secure
Utilize accurate stream : Yes
Defeat audio cache : Yes
Make use of C2 pointers : No

Read offset correction : 6
Overread into Lead-In and Lead-Out : No
Fill up missing offset samples with silence : Yes
Delete leading and trailing silent blocks : No
Null samples used in CRC calculations : Yes
Used interface : Native Win32 interface for Win NT & 2000

Used output format : User Defined Encoder
Selected bitrate : 128 kBit/s
Quality : High
Add ID3 tag : No
Command line compressor : C:\Program Files (x86)\Exact Audio Copy\Flac\flac.exe
Additional command line options : -V -8 -T "Date=%year%" -T "Genre=%genre%" %source%


TOC of the extracted CD

Track | Start | Length | Start sector | End sector
––––––––––––––––––––––––––––-
1 | 0:00.38 | 4:06.00 | 38 | 18487
2 | 4:06.38 | 2:31.00 | 18488 | 29812
3 | 6:37.38 | 2:14.00 | 29813 | 39862
4 | 8:51.38 | 4:25.00 | 39863 | 59737
5 | 13:16.38 | 5:04.00 | 59738 | 82537
6 | 18:20.38 | 1:24.00 | 82538 | 88837
7 | 19:44.38 | 3:56.00 | 88838 | 106537
8 | 23:40.38 | 2:22.00 | 106538 | 117187
9 | 26:02.38 | 3:03.00 | 117188 | 130912
10 | 29:05.38 | 1:25.00 | 130913 | 137287
11 | 30:30.38 | 1:38.00 | 137288 | 144637
12 | 32:08.38 | 1:41.00 | 144638 | 152212
13 | 33:49.38 | 2:35.00 | 152213 | 163837
14 | 36:24.38 | 4:10.00 | 163838 | 182587
15 | 40:34.38 | 3:41.00 | 182588 | 199162
16 | 44:15.38 | 0:50.00 | 199163 | 202912
17 | 45:05.38 | 2:26.00 | 202913 | 213862
18 | 47:31.38 | 1:58.00 | 213863 | 222712
19 | 49:29.38 | 2:43.00 | 222713 | 234937
20 | 52:12.38 | 2:28.00 | 234938 | 246037
21 | 54:40.38 | 2:34.00 | 246038 | 257587
22 | 57:14.38 | 1:55.00 | 257588 | 266212
23 | 59:09.38 | 2:26.00 | 266213 | 277162
24 | 61:35.38 | 1:08.00 | 277163 | 282262
25 | 62:43.38 | 3:18.00 | 282263 | 297112
26 | 66:01.38 | 2:05.00 | 297113 | 306487
27 | 68:06.38 | 2:19.00 | 306488 | 316912
28 | 70:25.38 | 2:23.00 | 316913 | 327637


Range status and errors

Selected range

Filename C:\temp\GCD 920114 The Spanish Guitar - Moreno - 2019\CD01\The Spanish Guitar - CD01.wav

Peak level 94.0 %
Extraction speed 2.1 X
Range quality 100.0 %
Test CRC DD30270F
Copy CRC DD30270F
Copy OK

No errors occurred


AccurateRip summary

Track 1 accurately ripped (confidence 2) [B55B8358] (AR v2)
Track 2 accurately ripped (confidence 2) [C2A6F43E] (AR v2)
Track 3 accurately ripped (confidence 2) [1057634B] (AR v2)
Track 4 accurately ripped (confidence 2) [04CD6B06] (AR v2)
Track 5 accurately ripped (confidence 2) [2896A644] (AR v2)
Track 6 accurately ripped (confidence 2) [E84171EA] (AR v2)
Track 7 accurately ripped (confidence 2) [1C35B1BB] (AR v2)
Track 8 accurately ripped (confidence 2) [EE0756BA] (AR v2)
Track 9 accurately ripped (confidence 2) [936DBA31] (AR v2)
Track 10 accurately ripped (confidence 2) [38C15766] (AR v2)
Track 11 accurately ripped (confidence 2) [269694BF] (AR v2)
Track 12 accurately ripped (confidence 2) [C3898EF1] (AR v2)
Track 13 accurately ripped (confidence 2) [DB9332B9] (AR v2)
Track 14 accurately ripped (confidence 2) [9B207715] (AR v2)
Track 15 accurately ripped (confidence 2) [62270188] (AR v2)
Track 16 accurately ripped (confidence 2) [5A4FDC1B] (AR v2)
Track 17 accurately ripped (confidence 2) [7BACEED1] (AR v2)
Track 18 accurately ripped (confidence 2) [7B1C1708] (AR v2)
Track 19 accurately ripped (confidence 2) [52F91A3D] (AR v2)
Track 20 accurately ripped (confidence 2) [B4741FB4] (AR v2)
Track 21 accurately ripped (confidence 2) [AA4C9D65] (AR v2)
Track 22 accurately ripped (confidence 2) [0D45177A] (AR v2)
Track 23 accurately ripped (confidence 2) [B84B9021] (AR v2)
Track 24 accurately ripped (confidence 2) [DA2413DB] (AR v2)
Track 25 accurately ripped (confidence 2) [81F235DC] (AR v2)
Track 26 accurately ripped (confidence 2) [09CEA54D] (AR v2)
Track 27 accurately ripped (confidence 2) [C969534D] (AR v2)
Track 28 accurately ripped (confidence 2) [F04E944A] (AR v2)

All tracks accurately ripped

End of status report

==== Log checksum 49F1899FD53E347E602A00BABF6740D780E21F252C7A8E3F6874E46594BF62A4 ====


Exact Audio Copy V1.5 from 20. February 2020

EAC extraction logfile from 26. June 2020, 0:49

José Miguel Moreno / The Spanish Guitar - CD02 - Canción del Emperador

Used drive : ASUS SDRW-08U7M-U Adapter: 1 ID: 0

Read mode : Secure
Utilize accurate stream : Yes
Defeat audio cache : Yes
Make use of C2 pointers : No

Read offset correction : 6
Overread into Lead-In and Lead-Out : No
Fill up missing offset samples with silence : Yes
Delete leading and trailing silent blocks : No
Null samples used in CRC calculations : Yes
Used interface : Native Win32 interface for Win NT & 2000

Used output format : User Defined Encoder
Selected bitrate : 128 kBit/s
Quality : High
Add ID3 tag : No
Command line compressor : C:\Program Files (x86)\Exact Audio Copy\Flac\flac.exe
Additional command line options : -V -8 -T "Date=%year%" -T "Genre=%genre%" %source%


TOC of the extracted CD

Track | Start | Length | Start sector | End sector
––––––––––––––––––––––––––––-
1 | 0:00.00 | 3:03.62 | 0 | 13786
2 | 3:03.62 | 5:50.55 | 13787 | 40091
3 | 8:54.42 | 2:56.13 | 40092 | 53304
4 | 11:50.55 | 4:22.07 | 53305 | 72961
5 | 16:12.62 | 4:01.13 | 72962 | 91049
6 | 20:14.00 | 4:28.67 | 91050 | 111216
7 | 24:42.67 | 1:59.50 | 111217 | 120191
8 | 26:42.42 | 3:47.18 | 120192 | 137234
9 | 30:29.60 | 3:18.30 | 137235 | 152114
10 | 33:48.15 | 1:36.17 | 152115 | 159331
11 | 35:24.32 | 3:06.10 | 159332 | 173291
12 | 38:30.42 | 2:29.55 | 173292 | 184521
13 | 41:00.22 | 2:58.33 | 184522 | 197904
14 | 43:58.55 | 2:56.52 | 197905 | 211156
15 | 46:55.32 | 6:03.13 | 211157 | 238394
16 | 52:58.45 | 2:45.65 | 238395 | 250834
17 | 55:44.35 | 3:59.00 | 250835 | 268759


Range status and errors

Selected range

Filename C:\temp\GCD 920114 The Spanish Guitar - Moreno - 2019\CD02\The Spanish Guitar - CD02.wav

Peak level 83.6 %
Extraction speed 4.6 X
Range quality 100.0 %
Test CRC 9C8B6D58
Copy CRC 9C8B6D58
Copy OK

No errors occurred


AccurateRip summary

Track 1 accurately ripped (confidence 2) [4B0BC5B4] (AR v2)
Track 2 accurately ripped (confidence 2) [20FE4B1A] (AR v2)
Track 3 accurately ripped (confidence 2) [224464C8] (AR v2)
Track 4 accurately ripped (confidence 2) [BDA3CBF2] (AR v2)
Track 5 accurately ripped (confidence 2) [92EDCBFD] (AR v2)
Track 6 accurately ripped (confidence 2) [6DC7F677] (AR v2)
Track 7 accurately ripped (confidence 2) [DD7DEC99] (AR v2)
Track 8 accurately ripped (confidence 2) [52FB7502] (AR v2)
Track 9 accurately ripped (confidence 2) [A2290322] (AR v2)
Track 10 accurately ripped (confidence 2) [D45607D2] (AR v2)
Track 11 accurately ripped (confidence 2) [63F9A069] (AR v2)
Track 12 accurately ripped (confidence 2) [B3D14100] (AR v2)
Track 13 accurately ripped (confidence 2) [F45845C2] (AR v2)
Track 14 accurately ripped (confidence 2) [D649BB4C] (AR v2)
Track 15 accurately ripped (confidence 2) [19DF2047] (AR v2)
Track 16 accurately ripped (confidence 2) [24495B79] (AR v2)
Track 17 accurately ripped (confidence 2) [37757037] (AR v2)

All tracks accurately ripped

End of status report

==== Log checksum 61B6E61715DF8FD787F375D15ECE833A318B0D117E38BB831759A7C5326D63DF ====


Exact Audio Copy V1.5 from 20. February 2020

EAC extraction logfile from 26. June 2020, 1:31

José Miguel Moreno / The Spanish Guitar - CD03 - Luys Milán

Used drive : ASUS SDRW-08U7M-U Adapter: 1 ID: 0

Read mode : Secure
Utilize accurate stream : Yes
Defeat audio cache : Yes
Make use of C2 pointers : No

Read offset correction : 6
Overread into Lead-In and Lead-Out : No
Fill up missing offset samples with silence : Yes
Delete leading and trailing silent blocks : No
Null samples used in CRC calculations : Yes
Used interface : Native Win32 interface for Win NT & 2000

Used output format : User Defined Encoder
Selected bitrate : 128 kBit/s
Quality : High
Add ID3 tag : No
Command line compressor : C:\Program Files (x86)\Exact Audio Copy\Flac\flac.exe
Additional command line options : -V -8 -T "Date=%year%" -T "Genre=%genre%" %source%


TOC of the extracted CD

Track | Start | Length | Start sector | End sector
––––––––––––––––––––––––––––-
1 | 0:00.00 | 1:48.55 | 0 | 8154
2 | 1:48.55 | 1:56.72 | 8155 | 16926
3 | 3:45.52 | 3:15.52 | 16927 | 31603
4 | 7:01.29 | 3:10.08 | 31604 | 45861
5 | 10:11.37 | 2:19.20 | 45862 | 56306
6 | 12:30.57 | 4:16.34 | 56307 | 75540
7 | 16:47.16 | 2:58.74 | 75541 | 88964
8 | 19:46.15 | 2:01.60 | 88965 | 98099
9 | 21:48.00 | 6:17.52 | 98100 | 126426
10 | 28:05.52 | 2:31.69 | 126427 | 137820
11 | 30:37.46 | 3:02.66 | 137821 | 151536
12 | 33:40.37 | 3:15.31 | 151537 | 166192
13 | 36:55.68 | 3:31.09 | 166193 | 182026
14 | 40:27.02 | 4:17.74 | 182027 | 201375
15 | 44:45.01 | 1:13.03 | 201376 | 206853
16 | 45:58.04 | 4:35.72 | 206854 | 227550
17 | 50:34.01 | 4:27.00 | 227551 | 247575
18 | 55:01.01 | 3:00.74 | 247576 | 261149
19 | 58:02.00 | 3:03.02 | 261150 | 274876
20 | 61:05.02 | 2:47.74 | 274877 | 287475


Range status and errors

Selected range

Filename C:\temp\GCD 920114 The Spanish Guitar - Moreno - 2019\CD03\The Spanish Guitar - CD03.wav

Peak level 87.3 %
Extraction speed 4.7 X
Range quality 100.0 %
Test CRC 7BD3B290
Copy CRC 7BD3B290
Copy OK

No errors occurred


AccurateRip summary

Track 1 accurately ripped (confidence 2) [C6F2223A] (AR v2)
Track 2 accurately ripped (confidence 2) [0531969A] (AR v2)
Track 3 accurately ripped (confidence 2) [2EB59398] (AR v2)
Track 4 accurately ripped (confidence 2) [C028E174] (AR v2)
Track 5 accurately ripped (confidence 2) [E531A3D9] (AR v2)
Track 6 accurately ripped (confidence 2) [800674B7] (AR v2)
Track 7 accurately ripped (confidence 2) [EAE4A500] (AR v2)
Track 8 accurately ripped (confidence 2) [C3F8980D] (AR v2)
Track 9 accurately ripped (confidence 2) [E6E95312] (AR v2)
Track 10 accurately ripped (confidence 2) [79A471C8] (AR v2)
Track 11 accurately ripped (confidence 2) [4A1069F7] (AR v2)
Track 12 accurately ripped (confidence 2) [83FC1B82] (AR v2)
Track 13 accurately ripped (confidence 2) [E9547036] (AR v2)
Track 14 accurately ripped (confidence 2) [57229A89] (AR v2)
Track 15 accurately ripped (confidence 2) [E15B58F3] (AR v2)
Track 16 accurately ripped (confidence 2) [B40E7EF1] (AR v2)
Track 17 accurately ripped (confidence 2) [38B7E347] (AR v2)
Track 18 accurately ripped (confidence 2) [AD102651] (AR v2)
Track 19 accurately ripped (confidence 2) [B76FA1BC] (AR v2)
Track 20 accurately ripped (confidence 2) [10342EB1] (AR v2)

All tracks accurately ripped

End of status report

==== Log checksum F4C1C1965638CA5DA85CB4DE56E6884310C789F6E22E793AF40205E42E5FF70E ====


Exact Audio Copy V1.5 from 20. February 2020

EAC extraction logfile from 26. June 2020, 21:07

José Miguel Moreno / The Spanish Guitar - CD04 - La Guitarra Española I

Used drive : ASUS SDRW-08U7M-U Adapter: 1 ID: 0

Read mode : Secure
Utilize accurate stream : Yes
Defeat audio cache : Yes
Make use of C2 pointers : No

Read offset correction : 6
Overread into Lead-In and Lead-Out : No
Fill up missing offset samples with silence : Yes
Delete leading and trailing silent blocks : No
Null samples used in CRC calculations : Yes
Used interface : Native Win32 interface for Win NT & 2000

Used output format : User Defined Encoder
Selected bitrate : 128 kBit/s
Quality : High
Add ID3 tag : No
Command line compressor : C:\Program Files (x86)\Exact Audio Copy\Flac\flac.exe
Additional command line options : -V -8 -T "Date=%year%" -T "Genre=%genre%" %source%


TOC of the extracted CD

Track | Start | Length | Start sector | End sector
––––––––––––––––––––––––––––-
1 | 0:00.13 | 3:52.00 | 13 | 17412
2 | 3:52.13 | 3:35.00 | 17413 | 33537
3 | 7:27.13 | 4:08.00 | 33538 | 52137
4 | 11:35.13 | 3:40.00 | 52138 | 68637
5 | 15:15.13 | 1:57.00 | 68638 | 77412
6 | 17:12.13 | 3:22.00 | 77413 | 92562
7 | 20:34.13 | 2:06.00 | 92563 | 102012
8 | 22:40.13 | 2:09.00 | 102013 | 111687
9 | 24:49.13 | 2:46.00 | 111688 | 124137
10 | 27:35.13 | 4:23.00 | 124138 | 143862
11 | 31:58.13 | 4:31.00 | 143863 | 164187
12 | 36:29.13 | 4:58.00 | 164188 | 186537
13 | 41:27.13 | 2:35.00 | 186538 | 198162
14 | 44:02.13 | 3:48.00 | 198163 | 215262
15 | 47:50.13 | 1:39.00 | 215263 | 222687
16 | 49:29.13 | 3:54.00 | 222688 | 240237
17 | 53:23.13 | 2:16.00 | 240238 | 250437
18 | 55:39.13 | 5:08.50 | 250438 | 273587
19 | 60:47.63 | 11:43.25 | 273588 | 326337


Range status and errors

Selected range

Filename C:\temp\GCD 920114 The Spanish Guitar - Moreno - 2019\CD04\The Spanish Guitar - CD04.wav

Peak level 95.5 %
Extraction speed 2.1 X
Range quality 99.9 %
Test CRC DEDFD7F2
Copy CRC DEDFD7F2
Copy OK

No errors occurred


AccurateRip summary

Track 1 accurately ripped (confidence 6) [83968FCE] (AR v2)
Track 2 accurately ripped (confidence 6) [E02630ED] (AR v2)
Track 3 accurately ripped (confidence 6) [C29140D3] (AR v2)
Track 4 accurately ripped (confidence 6) [67969E1A] (AR v2)
Track 5 accurately ripped (confidence 6) [573B2607] (AR v2)
Track 6 accurately ripped (confidence 6) [7EDF1602] (AR v2)
Track 7 accurately ripped (confidence 6) [2CF16FEC] (AR v2)
Track 8 accurately ripped (confidence 6) [AAC0E890] (AR v2)
Track 9 accurately ripped (confidence 6) [451616B8] (AR v2)
Track 10 accurately ripped (confidence 6) [2B4EF463] (AR v2)
Track 11 accurately ripped (confidence 6) [26392FA7] (AR v2)
Track 12 accurately ripped (confidence 6) [766893AD] (AR v2)
Track 13 accurately ripped (confidence 6) [4B83EBAA] (AR v2)
Track 14 accurately ripped (confidence 6) [C943C5CF] (AR v2)
Track 15 accurately ripped (confidence 6) [B0515CC3] (AR v2)
Track 16 accurately ripped (confidence 6) [AE432814] (AR v2)
Track 17 accurately ripped (confidence 6) [77A5A5BF] (AR v2)
Track 18 accurately ripped (confidence 6) [F08B1051] (AR v2)
Track 19 accurately ripped (confidence 6) [1A6B3DB9] (AR v2)

All tracks accurately ripped

End of status report

==== Log checksum 9D2C1B63B1DF7B620356E71AC4EF96DC0DD25098E4FD1577854369E957EDC86B ====


Exact Audio Copy V1.5 from 20. February 2020

EAC extraction logfile from 26. June 2020, 21:47

José Miguel Moreno / The Spanish Guitar - CD05 - La Guitarra Española II

Used drive : ASUS SDRW-08U7M-U Adapter: 1 ID: 0

Read mode : Secure
Utilize accurate stream : Yes
Defeat audio cache : Yes
Make use of C2 pointers : No

Read offset correction : 6
Overread into Lead-In and Lead-Out : No
Fill up missing offset samples with silence : Yes
Delete leading and trailing silent blocks : No
Null samples used in CRC calculations : Yes
Used interface : Native Win32 interface for Win NT & 2000

Used output format : User Defined Encoder
Selected bitrate : 128 kBit/s
Quality : High
Add ID3 tag : No
Command line compressor : C:\Program Files (x86)\Exact Audio Copy\Flac\flac.exe
Additional command line options : -V -8 -T "Date=%year%" -T "Genre=%genre%" %source%


TOC of the extracted CD

Track | Start | Length | Start sector | End sector
––––––––––––––––––––––––––––-
1 | 0:00.00 | 1:12.40 | 0 | 5439
2 | 1:12.40 | 1:37.65 | 5440 | 12779
3 | 2:50.30 | 1:04.67 | 12780 | 17646
4 | 3:55.22 | 3:04.40 | 17647 | 31486
5 | 6:59.62 | 1:11.73 | 31487 | 36884
6 | 8:11.60 | 2:02.60 | 36885 | 46094
7 | 10:14.45 | 2:37.67 | 46095 | 57936
8 | 12:52.37 | 3:30.55 | 57937 | 73741
9 | 16:23.17 | 6:20.63 | 73742 | 102304
10 | 22:44.05 | 4:33.05 | 102305 | 122784
11 | 27:17.10 | 2:08.45 | 122785 | 132429
12 | 29:25.55 | 1:38.57 | 132430 | 139836
13 | 31:04.37 | 4:56.50 | 139837 | 162086
14 | 36:01.12 | 2:37.18 | 162087 | 173879
15 | 38:38.30 | 2:03.17 | 173880 | 183121
16 | 40:41.47 | 2:46.20 | 183122 | 195591
17 | 43:27.67 | 2:31.20 | 195592 | 206936
18 | 45:59.12 | 2:11.35 | 206937 | 216796
19 | 48:10.47 | 2:24.55 | 216797 | 227651
20 | 50:35.27 | 1:16.07 | 227652 | 233358
21 | 51:51.34 | 1:40.08 | 233359 | 240866
22 | 53:31.42 | 2:48.43 | 240867 | 253509
23 | 56:20.10 | 1:10.07 | 253510 | 258766
24 | 57:30.17 | 1:36.60 | 258767 | 266026
25 | 59:07.02 | 5:03.13 | 266027 | 288764


Range status and errors

Selected range

Filename C:\temp\GCD 920114 The Spanish Guitar - Moreno - 2019\CD05\The Spanish Guitar - CD05.wav

Peak level 86.8 %
Extraction speed 4.6 X
Range quality 99.9 %
Test CRC 82D8457B
Copy CRC 82D8457B
Copy OK

No errors occurred


AccurateRip summary

Track 1 accurately ripped (confidence 2) [67DFF53B] (AR v2)
Track 2 accurately ripped (confidence 2) [9A0184A5] (AR v2)
Track 3 accurately ripped (confidence 2) [CD60FAD2] (AR v2)
Track 4 accurately ripped (confidence 2) [197A3DC5] (AR v2)
Track 5 accurately ripped (confidence 2) [CBFEE275] (AR v2)
Track 6 accurately ripped (confidence 2) [8512C4A6] (AR v2)
Track 7 accurately ripped (confidence 2) [CE4EFF0E] (AR v2)
Track 8 accurately ripped (confidence 2) [67726735] (AR v2)
Track 9 accurately ripped (confidence 2) [6C8EA501] (AR v2)
Track 10 accurately ripped (confidence 2) [1BDA6C92] (AR v2)
Track 11 accurately ripped (confidence 2) [BE1C4A34] (AR v2)
Track 12 accurately ripped (confidence 2) [40DBA13E] (AR v2)
Track 13 accurately ripped (confidence 2) [2B7DB2FC] (AR v2)
Track 14 accurately ripped (confidence 2) [ECEE9AFF] (AR v2)
Track 15 accurately ripped (confidence 2) [3DEF5BA7] (AR v2)
Track 16 accurately ripped (confidence 2) [85278E13] (AR v2)
Track 17 accurately ripped (confidence 2) [2420913A] (AR v2)
Track 18 accurately ripped (confidence 2) [527443A0] (AR v2)
Track 19 accurately ripped (confidence 2) [D3EA5EFD] (AR v2)
Track 20 accurately ripped (confidence 2) [68F71F5D] (AR v2)
Track 21 accurately ripped (confidence 2) [376DE579] (AR v2)
Track 22 accurately ripped (confidence 2) [AA82B934] (AR v2)
Track 23 accurately ripped (confidence 2) [506A7251] (AR v2)
Track 24 accurately ripped (confidence 2) [ABA4D4B3] (AR v2)
Track 25 accurately ripped (confidence 2) [F8C1C79A] (AR v2)

All tracks accurately ripped

End of status report

==== Log checksum EEF0784B82DE1613BD24DA8465C4591D52265FDC01B92881894C90880DF364BA ====


Exact Audio Copy V1.5 from 20. February 2020

EAC extraction logfile from 26. June 2020, 23:25

Nuria Rial, José Miguel Moreno / The Spanish Guitar - CD06 - Claros y frescos ríos

Used drive : ASUS SDRW-08U7M-U Adapter: 1 ID: 0

Read mode : Secure
Utilize accurate stream : Yes
Defeat audio cache : Yes
Make use of C2 pointers : No

Read offset correction : 6
Overread into Lead-In and Lead-Out : No
Fill up missing offset samples with silence : Yes
Delete leading and trailing silent blocks : No
Null samples used in CRC calculations : Yes
Used interface : Native Win32 interface for Win NT & 2000

Used output format : User Defined Encoder
Selected bitrate : 128 kBit/s
Quality : High
Add ID3 tag : No
Command line compressor : C:\Program Files (x86)\Exact Audio Copy\Flac\flac.exe
Additional command line options : -V -8 -T "Date=%year%" -T "Genre=%genre%" %source%


TOC of the extracted CD

Track | Start | Length | Start sector | End sector
––––––––––––––––––––––––––––-
1 | 0:00.00 | 1:14.69 | 0 | 5618
2 | 1:14.69 | 3:08.68 | 5619 | 19786
3 | 4:23.62 | 0:56.71 | 19787 | 24057
4 | 5:20.58 | 3:01.00 | 24058 | 37632
5 | 8:21.58 | 1:58.21 | 37633 | 46503
6 | 10:20.04 | 3:01.25 | 46504 | 60103
7 | 13:21.29 | 1:59.08 | 60104 | 69036
8 | 15:20.37 | 4:52.06 | 69037 | 90942
9 | 20:12.43 | 2:51.57 | 90943 | 103824
10 | 23:04.25 | 2:32.26 | 103825 | 115250
11 | 25:36.51 | 2:19.07 | 115251 | 125682
12 | 27:55.58 | 1:49.28 | 125683 | 133885
13 | 29:45.11 | 2:11.32 | 133886 | 143742
14 | 31:56.43 | 1:22.24 | 143743 | 149916
15 | 33:18.67 | 1:27.37 | 149917 | 156478
16 | 34:46.29 | 3:40.16 | 156479 | 172994
17 | 38:26.45 | 2:54.29 | 172995 | 186073
18 | 41:20.74 | 4:03.12 | 186074 | 204310
19 | 45:24.11 | 1:01.03 | 204311 | 208888
20 | 46:25.14 | 3:06.50 | 208889 | 222888
21 | 49:31.64 | 2:35.51 | 222889 | 234564
22 | 52:07.40 | 2:39.43 | 234565 | 246532
23 | 54:47.08 | 2:47.53 | 246533 | 259110
24 | 57:34.61 | 2:07.68 | 259111 | 268703


Range status and errors

Selected range

Filename C:\temp\GCD 920114 The Spanish Guitar - Moreno - 2019\CD06\The Spanish Guitar - CD06.wav

Peak level 98.6 %
Extraction speed 4.6 X
Range quality 100.0 %
Test CRC 502E81D2
Copy CRC 502E81D2
Copy OK

No errors occurred


AccurateRip summary

Track 1 accurately ripped (confidence 2) [46126650] (AR v2)
Track 2 accurately ripped (confidence 2) [A5E1D618] (AR v2)
Track 3 accurately ripped (confidence 2) [3B29325E] (AR v2)
Track 4 accurately ripped (confidence 2) [AD03EF00] (AR v2)
Track 5 accurately ripped (confidence 2) [389C8240] (AR v2)
Track 6 accurately ripped (confidence 2) [C48E5D28] (AR v2)
Track 7 accurately ripped (confidence 2) [73CBAD01] (AR v2)
Track 8 accurately ripped (confidence 2) [D86A981B] (AR v2)
Track 9 accurately ripped (confidence 2) [375124AC] (AR v2)
Track 10 accurately ripped (confidence 2) [629DF23E] (AR v2)
Track 11 accurately ripped (confidence 2) [D5CA5130] (AR v2)
Track 12 accurately ripped (confidence 2) [6DDD4E99] (AR v2)
Track 13 accurately ripped (confidence 2) [6D5A87D9] (AR v2)
Track 14 accurately ripped (confidence 2) [AF1B657F] (AR v2)
Track 15 accurately ripped (confidence 2) [DCE732B4] (AR v2)
Track 16 accurately ripped (confidence 2) [C2E5EEC6] (AR v2)
Track 17 accurately ripped (confidence 2) [2DF7C383] (AR v2)
Track 18 accurately ripped (confidence 2) [CD3E62FD] (AR v2)
Track 19 accurately ripped (confidence 2) [3F664EE6] (AR v2)
Track 20 accurately ripped (confidence 2) [A38927FC] (AR v2)
Track 21 accurately ripped (confidence 2) [779FC799] (AR v2)
Track 22 accurately ripped (confidence 2) [6934151E] (AR v2)
Track 23 accurately ripped (confidence 2) [E83DB490] (AR v2)
Track 24 accurately ripped (confidence 2) [ACD136AF] (AR v2)

All tracks accurately ripped

End of status report

==== Log checksum D7C710CEBA6C03DF495346FAEFCFEFC53BAF59A0B6837F213D65BA6CC0DBD4E2 ====


Exact Audio Copy V1.5 from 20. February 2020

EAC extraction logfile from 27. June 2020, 0:06

Ensemble La Romanesca, José Miguel Moreno / The Spanish Guitar - CD07 - Al alva venid

Used drive : ASUS SDRW-08U7M-U Adapter: 1 ID: 0

Read mode : Secure
Utilize accurate stream : Yes
Defeat audio cache : Yes
Make use of C2 pointers : No

Read offset correction : 6
Overread into Lead-In and Lead-Out : No
Fill up missing offset samples with silence : Yes
Delete leading and trailing silent blocks : No
Null samples used in CRC calculations : Yes
Used interface : Native Win32 interface for Win NT & 2000

Used output format : User Defined Encoder
Selected bitrate : 128 kBit/s
Quality : High
Add ID3 tag : No
Command line compressor : C:\Program Files (x86)\Exact Audio Copy\Flac\flac.exe
Additional command line options : -V -8 -T "Date=%year%" -T "Genre=%genre%" %source%


TOC of the extracted CD

Track | Start | Length | Start sector | End sector
––––––––––––––––––––––––––––-
1 | 0:00.00 | 2:41.50 | 0 | 12124
2 | 2:41.50 | 3:16.40 | 12125 | 26864
3 | 5:58.15 | 1:02.37 | 26865 | 31551
4 | 7:00.52 | 2:43.20 | 31552 | 43796
5 | 9:43.72 | 3:51.50 | 43797 | 61171
6 | 13:35.47 | 1:16.40 | 61172 | 66911
7 | 14:52.12 | 3:02.63 | 66912 | 80624
8 | 17:55.00 | 1:34.00 | 80625 | 87674
9 | 19:29.00 | 2:18.50 | 87675 | 98074
10 | 21:47.50 | 2:20.00 | 98075 | 108574
11 | 24:07.50 | 2:35.50 | 108575 | 120249
12 | 26:43.25 | 0:56.50 | 120250 | 124499
13 | 27:40.00 | 5:54.20 | 124500 | 151069
14 | 33:34.20 | 2:02.60 | 151070 | 160279
15 | 35:37.05 | 5:02.45 | 160280 | 182974
16 | 40:39.50 | 1:33.50 | 182975 | 189999
17 | 42:13.25 | 1:14.00 | 190000 | 195549
18 | 43:27.25 | 2:10.25 | 195550 | 205324
19 | 45:37.50 | 1:28.25 | 205325 | 211949
20 | 47:06.00 | 4:00.25 | 211950 | 229974
21 | 51:06.25 | 3:26.62 | 229975 | 245486
22 | 54:33.12 | 2:25.25 | 245487 | 256386
23 | 56:58.37 | 1:57.25 | 256387 | 265186
24 | 58:55.62 | 1:10.38 | 265187 | 270474


Range status and errors

Selected range

Filename C:\temp\GCD 920114 The Spanish Guitar - Moreno - 2019\CD07\The Spanish Guitar - CD07.wav

Peak level 94.6 %
Extraction speed 4.6 X
Range quality 100.0 %
Test CRC 5FD3AF4D
Copy CRC 5FD3AF4D
Copy OK

No errors occurred


AccurateRip summary

Track 1 not present in database
Track 2 not present in database
Track 3 not present in database
Track 4 not present in database
Track 5 not present in database
Track 6 not present in database
Track 7 not present in database
Track 8 not present in database
Track 9 not present in database
Track 10 not present in database
Track 11 not present in database
Track 12 not present in database
Track 13 not present in database
Track 14 not present in database
Track 15 not present in database
Track 16 not present in database
Track 17 not present in database
Track 18 not present in database
Track 19 not present in database
Track 20 not present in database
Track 21 not present in database
Track 22 not present in database
Track 23 not present in database
Track 24 not present in database

None of the tracks are present in the AccurateRip database

End of status report

==== Log checksum 2415AADFC586CEAA719919AB1D43FA3CAF517789ACE67A415EB0981201B2729F ====


Exact Audio Copy V1.5 from 20. February 2020

EAC extraction logfile from 27. June 2020, 2:02

Orphénica Lyra, José Miguel Moreno / The Spanish Guitar - CD08 - Miguel de Fuenllana - Orphénica Lyra

Used drive : ASUS SDRW-08U7M-U Adapter: 1 ID: 0

Read mode : Secure
Utilize accurate stream : Yes
Defeat audio cache : Yes
Make use of C2 pointers : No

Read offset correction : 6
Overread into Lead-In and Lead-Out : No
Fill up missing offset samples with silence : Yes
Delete leading and trailing silent blocks : No
Null samples used in CRC calculations : Yes
Used interface : Native Win32 interface for Win NT & 2000

Used output format : User Defined Encoder
Selected bitrate : 128 kBit/s
Quality : High
Add ID3 tag : No
Command line compressor : C:\Program Files (x86)\Exact Audio Copy\Flac\flac.exe
Additional command line options : -V -8 -T "Date=%year%" -T "Genre=%genre%" %source%


TOC of the extracted CD

Track | Start | Length | Start sector | End sector
––––––––––––––––––––––––––––-
1 | 0:00.00 | 2:48.62 | 0 | 12661
2 | 2:48.62 | 4:47.18 | 12662 | 34204
3 | 7:36.05 | 3:07.25 | 34205 | 48254
4 | 10:43.30 | 3:41.30 | 48255 | 64859
5 | 14:24.60 | 3:46.20 | 64860 | 81829
6 | 18:11.05 | 1:48.00 | 81830 | 89929
7 | 19:59.05 | 3:54.65 | 89930 | 107544
8 | 23:53.70 | 2:08.65 | 107545 | 117209
9 | 26:02.60 | 5:23.40 | 117210 | 141474
10 | 31:26.25 | 2:42.00 | 141475 | 153624
11 | 34:08.25 | 1:59.35 | 153625 | 162584
12 | 36:07.60 | 2:56.65 | 162585 | 175849
13 | 39:04.50 | 2:02.20 | 175850 | 185019
14 | 41:06.70 | 6:12.12 | 185020 | 212931
15 | 47:19.07 | 1:50.68 | 212932 | 221249
16 | 49:10.00 | 5:27.47 | 221250 | 245821
17 | 54:37.47 | 2:32.60 | 245822 | 257281
18 | 57:10.32 | 3:43.10 | 257282 | 274016


Range status and errors

Selected range

Filename C:\temp\GCD 920114 The Spanish Guitar - Moreno - 2019\CD08\The Spanish Guitar - CD08.wav

Peak level 85.4 %
Extraction speed 4.3 X
Range quality 99.9 %
Test CRC C9421FA8
Copy CRC C9421FA8
Copy OK

No errors occurred


AccurateRip summary

Track 1 accurately ripped (confidence 2) [69A90238] (AR v2)
Track 2 accurately ripped (confidence 2) [7FCF9D16] (AR v2)
Track 3 accurately ripped (confidence 2) [BFF6C6D3] (AR v2)
Track 4 accurately ripped (confidence 2) [60E46A12] (AR v2)
Track 5 accurately ripped (confidence 2) [985F7208] (AR v2)
Track 6 accurately ripped (confidence 2) [62F95390] (AR v2)
Track 7 accurately ripped (confidence 2) [F10067C3] (AR v2)
Track 8 accurately ripped (confidence 2) [F0C5CC5C] (AR v2)
Track 9 accurately ripped (confidence 2) [0FCA392C] (AR v2)
Track 10 accurately ripped (confidence 2) [C1CF4418] (AR v2)
Track 11 accurately ripped (confidence 2) [4312EADD] (AR v2)
Track 12 accurately ripped (confidence 2) [3EDD99B5] (AR v2)
Track 13 accurately ripped (confidence 2) [33BBFC8C] (AR v2)
Track 14 accurately ripped (confidence 2) [445DBB03] (AR v2)
Track 15 accurately ripped (confidence 2) [FEA86A18] (AR v2)
Track 16 accurately ripped (confidence 2) [4A15658C] (AR v2)
Track 17 accurately ripped (confidence 2) [818FB8FC] (AR v2)
Track 18 accurately ripped (confidence 2) [FDCBB600] (AR v2)

All tracks accurately ripped

End of status report

==== Log checksum 5C0658479E6A019EF680165C8EADD20520BB30F73C58734A8A2F77BC3105DF84 ====


Exact Audio Copy V1.5 from 20. February 2020

EAC extraction logfile from 27. June 2020, 20:02

Orphénica Lyra, José Miguel Moreno / The Spanish Guitar - CD09 - Música en el Quijote

Used drive : ASUS SDRW-08U7M-U Adapter: 1 ID: 0

Read mode : Secure
Utilize accurate stream : Yes
Defeat audio cache : Yes
Make use of C2 pointers : No

Read offset correction : 6
Overread into Lead-In and Lead-Out : No
Fill up missing offset samples with silence : Yes
Delete leading and trailing silent blocks : No
Null samples used in CRC calculations : Yes
Used interface : Native Win32 interface for Win NT & 2000

Used output format : User Defined Encoder
Selected bitrate : 128 kBit/s
Quality : High
Add ID3 tag : No
Command line compressor : C:\Program Files (x86)\Exact Audio Copy\Flac\flac.exe
Additional command line options : -V -8 -T "Date=%year%" -T "Genre=%genre%" %source%


TOC of the extracted CD

Track | Start | Length | Start sector | End sector
––––––––––––––––––––––––––––-
1 | 0:00.00 | 1:50.32 | 0 | 8281
2 | 1:50.32 | 3:17.32 | 8282 | 23088
3 | 5:07.64 | 1:53.73 | 23089 | 31636
4 | 7:01.62 | 4:26.68 | 31637 | 51654
5 | 11:28.55 | 2:16.14 | 51655 | 61868
6 | 13:44.69 | 3:12.08 | 61869 | 76276
7 | 16:57.02 | 1:29.51 | 76277 | 83002
8 | 18:26.53 | 5:28.03 | 83003 | 107605
9 | 23:54.56 | 3:54.05 | 107606 | 125160
10 | 27:48.61 | 2:25.05 | 125161 | 136040
11 | 30:13.66 | 2:01.46 | 136041 | 145161
12 | 32:15.37 | 2:07.50 | 145162 | 154736
13 | 34:23.12 | 2:12.02 | 154737 | 164638
14 | 36:35.14 | 5:27.12 | 164639 | 189175
15 | 42:02.26 | 2:59.27 | 189176 | 202627
16 | 45:01.53 | 2:20.37 | 202628 | 213164
17 | 47:22.15 | 1:36.44 | 213165 | 220408
18 | 48:58.59 | 3:35.53 | 220409 | 236586
19 | 52:34.37 | 2:25.27 | 236587 | 247488
20 | 54:59.64 | 1:11.23 | 247489 | 252836
21 | 56:11.12 | 2:06.06 | 252837 | 262292
22 | 58:17.18 | 2:52.43 | 262293 | 275235
23 | 61:09.61 | 1:53.74 | 275236 | 283784
24 | 63:03.60 | 3:37.53 | 283785 | 300112
25 | 66:41.38 | 3:06.66 | 300113 | 314128
26 | 69:48.29 | 2:39.53 | 314129 | 326106


Range status and errors

Selected range

Filename C:\temp\GCD 920114 The Spanish Guitar - Moreno - 2019\CD09\The Spanish Guitar - CD09.wav

Peak level 97.6 %
Extraction speed 5.0 X
Range quality 100.0 %
Test CRC E47F540E
Copy CRC E47F540E
Copy OK

No errors occurred


AccurateRip summary

Track 1 accurately ripped (confidence 2) [43660896] (AR v2)
Track 2 accurately ripped (confidence 2) [CB701DD3] (AR v2)
Track 3 accurately ripped (confidence 2) [0582F4A7] (AR v2)
Track 4 accurately ripped (confidence 2) [0695BDE4] (AR v2)
Track 5 accurately ripped (confidence 2) [29828CB8] (AR v2)
Track 6 accurately ripped (confidence 2) [5E838880] (AR v2)
Track 7 accurately ripped (confidence 2) [F3C02242] (AR v2)
Track 8 accurately ripped (confidence 2) [74179A8C] (AR v2)
Track 9 accurately ripped (confidence 2) [D8F12FAA] (AR v2)
Track 10 accurately ripped (confidence 2) [E47A8126] (AR v2)
Track 11 accurately ripped (confidence 2) [187EF095] (AR v2)
Track 12 accurately ripped (confidence 2) [8075F207] (AR v2)
Track 13 accurately ripped (confidence 2) [733449AC] (AR v2)
Track 14 accurately ripped (confidence 2) [F7A7FC3B] (AR v2)
Track 15 accurately ripped (confidence 2) [081DDE0D] (AR v2)
Track 16 accurately ripped (confidence 2) [8B86ED63] (AR v2)
Track 17 accurately ripped (confidence 2) [37580E5A] (AR v2)
Track 18 accurately ripped (confidence 2) [1378080F] (AR v2)
Track 19 accurately ripped (confidence 2) [6CEF9A60] (AR v2)
Track 20 accurately ripped (confidence 2) [32A77DE5] (AR v2)
Track 21 accurately ripped (confidence 2) [E23D058A] (AR v2)
Track 22 accurately ripped (confidence 2) [B36E5224] (AR v2)
Track 23 accurately ripped (confidence 2) [E3C25BA9] (AR v2)
Track 24 accurately ripped (confidence 2) [DDE52C72] (AR v2)
Track 25 accurately ripped (confidence 2) [941FF130] (AR v2)
Track 26 accurately ripped (confidence 2) [C65C65B3] (AR v2)

All tracks accurately ripped

End of status report

==== Log checksum C83731D3980770B6B3352FAEF6AFF11BE519D72A36F8EF289F51B9673A7BEDC1 ====


Exact Audio Copy V1.5 from 20. February 2020

EAC extraction logfile from 27. June 2020, 20:40

Orphénica Lyra, José Miguel Moreno / The Spanish Guitar - CD10 - Gaspar Sanz

Used drive : ASUS SDRW-08U7M-U Adapter: 1 ID: 0

Read mode : Secure
Utilize accurate stream : Yes
Defeat audio cache : Yes
Make use of C2 pointers : No

Read offset correction : 6
Overread into Lead-In and Lead-Out : No
Fill up missing offset samples with silence : Yes
Delete leading and trailing silent blocks : No
Null samples used in CRC calculations : Yes
Used interface : Native Win32 interface for Win NT & 2000

Used output format : User Defined Encoder
Selected bitrate : 128 kBit/s
Quality : High
Add ID3 tag : No
Command line compressor : C:\Program Files (x86)\Exact Audio Copy\Flac\flac.exe
Additional command line options : -V -8 -T "Date=%year%" -T "Genre=%genre%" %source%


TOC of the extracted CD

Track | Start | Length | Start sector | End sector
––––––––––––––––––––––––––––-
1 | 0:00.00 | 4:09.40 | 0 | 18714
2 | 4:09.40 | 5:29.47 | 18715 | 43436
3 | 9:39.12 | 2:19.55 | 43437 | 53916
4 | 11:58.67 | 1:35.43 | 53917 | 61084
5 | 13:34.35 | 2:03.72 | 61085 | 70381
6 | 15:38.32 | 1:06.28 | 70382 | 75359
7 | 16:44.60 | 2:22.10 | 75360 | 86019
8 | 19:06.70 | 1:25.30 | 86020 | 92424
9 | 20:32.25 | 0:44.35 | 92425 | 95759
10 | 21:16.60 | 1:15.35 | 95760 | 101419
11 | 22:32.20 | 1:40.65 | 101420 | 108984
12 | 24:13.10 | 0:54.42 | 108985 | 113076
13 | 25:07.52 | 3:15.48 | 113077 | 127749
14 | 28:23.25 | 1:00.05 | 127750 | 132254
15 | 29:23.30 | 0:50.20 | 132255 | 136024
16 | 30:13.50 | 2:00.05 | 136025 | 145029
17 | 32:13.55 | 3:46.70 | 145030 | 162049
18 | 36:00.50 | 1:38.70 | 162050 | 169469
19 | 37:39.45 | 4:08.00 | 169470 | 188069
20 | 41:47.45 | 2:23.67 | 188070 | 198861
21 | 44:11.37 | 2:52.63 | 198862 | 211824
22 | 47:04.25 | 2:16.55 | 211825 | 222079
23 | 49:21.05 | 4:29.42 | 222080 | 242296
24 | 53:50.47 | 1:10.65 | 242297 | 247611
25 | 55:01.37 | 1:46.30 | 247612 | 255591
26 | 56:47.67 | 2:06.63 | 255592 | 265104
27 | 58:54.55 | 0:58.52 | 265105 | 269506
28 | 59:53.32 | 3:16.38 | 269507 | 284244
29 | 63:09.70 | 1:38.10 | 284245 | 291604
30 | 64:48.05 | 3:18.35 | 291605 | 306489
31 | 68:06.40 | 5:17.60 | 306490 | 330324


Range status and errors

Selected range

Filename C:\temp\GCD 920114 The Spanish Guitar - Moreno - 2019\CD10\The Spanish Guitar - CD10.wav

Peak level 98.8 %
Extraction speed 5.1 X
Range quality 99.9 %
Test CRC 270E5546
Copy CRC 270E5546
Copy OK

No errors occurred


AccurateRip summary

Track 1 accurately ripped (confidence 3) [B217BE9C] (AR v2)
Track 2 accurately ripped (confidence 3) [6C05B97B] (AR v2)
Track 3 accurately ripped (confidence 3) [7CD78222] (AR v2)
Track 4 accurately ripped (confidence 3) [318BABEE] (AR v2)
Track 5 accurately ripped (confidence 3) [491988F0] (AR v2)
Track 6 accurately ripped (confidence 3) [44A03292] (AR v2)
Track 7 accurately ripped (confidence 3) [347A21B1] (AR v2)
Track 8 accurately ripped (confidence 3) [75476F8E] (AR v2)
Track 9 accurately ripped (confidence 3) [314989D6] (AR v2)
Track 10 accurately ripped (confidence 3) [4AEECC20] (AR v2)
Track 11 accurately ripped (confidence 3) [7BBAE9E8] (AR v2)
Track 12 accurately ripped (confidence 3) [E883E323] (AR v2)
Track 13 accurately ripped (confidence 3) [D5E350C7] (AR v2)
Track 14 accurately ripped (confidence 3) [FADCEB1B] (AR v2)
Track 15 accurately ripped (confidence 3) [B3B2D53D] (AR v2)
Track 16 accurately ripped (confidence 3) [CD382A41] (AR v2)
Track 17 accurately ripped (confidence 3) [69D9CFF2] (AR v2)
Track 18 accurately ripped (confidence 3) [5B7E9F60] (AR v2)
Track 19 accurately ripped (confidence 3) [66FCB24B] (AR v2)
Track 20 accurately ripped (confidence 3) [1C22B08C] (AR v2)
Track 21 accurately ripped (confidence 3) [AA77E6B9] (AR v2)
Track 22 accurately ripped (confidence 3) [2C4191B4] (AR v2)
Track 23 accurately ripped (confidence 3) [525D051E] (AR v2)
Track 24 accurately ripped (confidence 3) [B8A55E39] (AR v2)
Track 25 accurately ripped (confidence 3) [BD313595] (AR v2)
Track 26 accurately ripped (confidence 3) [18756B2F] (AR v2)
Track 27 accurately ripped (confidence 3) [BEBC257A] (AR v2)
Track 28 accurately ripped (confidence 3) [C19A90BE] (AR v2)
Track 29 accurately ripped (confidence 3) [55C4CE9A] (AR v2)
Track 30 accurately ripped (confidence 3) [C0A07BF1] (AR v2)
Track 31 accurately ripped (confidence 3) [A5AEA1AF] (AR v2)

All tracks accurately ripped

End of status report

==== Log checksum 618C65D284F3512CB364C8CF11ED95A00B5A2374D011EA934CEC71A1BE5C7638 ====


Exact Audio Copy V1.5 from 20. February 2020

EAC extraction logfile from 27. June 2020, 21:53

Ensemble La Romanesca, José Miguel Moreno / The Spanish Guitar - CD11 - Música en Tiempos de Velázquez

Used drive : ASUS SDRW-08U7M-U Adapter: 1 ID: 0

Read mode : Secure
Utilize accurate stream : Yes
Defeat audio cache : Yes
Make use of C2 pointers : No

Read offset correction : 6
Overread into Lead-In and Lead-Out : No
Fill up missing offset samples with silence : Yes
Delete leading and trailing silent blocks : No
Null samples used in CRC calculations : Yes
Used interface : Native Win32 interface for Win NT & 2000

Used output format : User Defined Encoder
Selected bitrate : 128 kBit/s
Quality : High
Add ID3 tag : No
Command line compressor : C:\Program Files (x86)\Exact Audio Copy\Flac\flac.exe
Additional command line options : -V -8 -T "Date=%year%" -T "Genre=%genre%" %source%


TOC of the extracted CD

Track | Start | Length | Start sector | End sector
––––––––––––––––––––––––––––-
1 | 0:00.38 | 4:04.00 | 38 | 18337
2 | 4:04.38 | 1:49.00 | 18338 | 26512
3 | 5:53.38 | 2:39.00 | 26513 | 38437
4 | 8:32.38 | 2:02.00 | 38438 | 47587
5 | 10:34.38 | 2:54.00 | 47588 | 60637
6 | 13:28.38 | 6:57.00 | 60638 | 91912
7 | 20:25.38 | 2:26.00 | 91913 | 102862
8 | 22:51.38 | 2:58.00 | 102863 | 116212
9 | 25:49.38 | 3:37.00 | 116213 | 132487
10 | 29:26.38 | 3:10.00 | 132488 | 146737
11 | 32:36.38 | 4:16.00 | 146738 | 165937
12 | 36:52.38 | 3:06.00 | 165938 | 179887
13 | 39:58.38 | 5:45.00 | 179888 | 205762
14 | 45:43.38 | 3:14.00 | 205763 | 220312
15 | 48:57.38 | 4:35.00 | 220313 | 240937
16 | 53:32.38 | 5:51.00 | 240938 | 267262
17 | 59:23.38 | 1:37.00 | 267263 | 274537
18 | 61:00.38 | 1:45.00 | 274538 | 282412


Range status and errors

Selected range

Filename C:\temp\GCD 920114 The Spanish Guitar - Moreno - 2019\CD11\The Spanish Guitar - CD11.wav

Peak level 94.4 %
Extraction speed 2.0 X
Range quality 99.9 %
Test CRC BAEB1F20
Copy CRC BAEB1F20
Copy OK

No errors occurred


AccurateRip summary

Track 1 accurately ripped (confidence 4) [84037075] (AR v2)
Track 2 accurately ripped (confidence 4) [527F0E00] (AR v2)
Track 3 accurately ripped (confidence 4) [388D942B] (AR v2)
Track 4 accurately ripped (confidence 4) [5FE526A0] (AR v2)
Track 5 accurately ripped (confidence 4) [5383A7E2] (AR v2)
Track 6 accurately ripped (confidence 4) [5BA6C190] (AR v2)
Track 7 accurately ripped (confidence 4) [50588D99] (AR v2)
Track 8 accurately ripped (confidence 4) [F9915C0C] (AR v2)
Track 9 accurately ripped (confidence 4) [7B74F0D1] (AR v2)
Track 10 accurately ripped (confidence 4) [F0A02625] (AR v2)
Track 11 accurately ripped (confidence 4) [3D48AF3C] (AR v2)
Track 12 accurately ripped (confidence 4) [B141219D] (AR v2)
Track 13 accurately ripped (confidence 4) [B5CDA666] (AR v2)
Track 14 accurately ripped (confidence 4) [F9FBE6A2] (AR v2)
Track 15 accurately ripped (confidence 4) [FF2EC556] (AR v2)
Track 16 accurately ripped (confidence 4) [9A432F93] (AR v2)
Track 17 accurately ripped (confidence 4) [E286E8C8] (AR v2)
Track 18 accurately ripped (confidence 4) [B9F14F70] (AR v2)

All tracks accurately ripped

End of status report

==== Log checksum F4B57201834BE9E3EBBEEF46D3732D55F188E73A3C7F9EA3C36973D0C036C8CB ====


Exact Audio Copy V1.5 from 20. February 2020

EAC extraction logfile from 27. June 2020, 22:34

Marta Almajano, José Miguel Moreno / The Spanish Guitar - CD12 - Las mujeres y cuerdas

Used drive : ASUS SDRW-08U7M-U Adapter: 1 ID: 0

Read mode : Secure
Utilize accurate stream : Yes
Defeat audio cache : Yes
Make use of C2 pointers : No

Read offset correction : 6
Overread into Lead-In and Lead-Out : No
Fill up missing offset samples with silence : Yes
Delete leading and trailing silent blocks : No
Null samples used in CRC calculations : Yes
Used interface : Native Win32 interface for Win NT & 2000

Used output format : User Defined Encoder
Selected bitrate : 128 kBit/s
Quality : High
Add ID3 tag : No
Command line compressor : C:\Program Files (x86)\Exact Audio Copy\Flac\flac.exe
Additional command line options : -V -8 -T "Date=%year%" -T "Genre=%genre%" %source%


TOC of the extracted CD

Track | Start | Length | Start sector | End sector
––––––––––––––––––––––––––––-
1 | 0:00.00 | 1:15.67 | 0 | 5691
2 | 1:15.67 | 2:01.03 | 5692 | 14769
3 | 3:16.70 | 2:33.07 | 14770 | 26251
4 | 5:50.02 | 1:29.60 | 26252 | 32986
5 | 7:19.62 | 3:03.30 | 32987 | 46741
6 | 10:23.17 | 3:08.28 | 46742 | 60869
7 | 13:31.45 | 2:03.55 | 60870 | 70149
8 | 15:35.25 | 2:23.25 | 70150 | 80899
9 | 17:58.50 | 4:31.12 | 80900 | 101236
10 | 22:29.62 | 1:14.00 | 101237 | 106786
11 | 23:43.62 | 4:03.67 | 106787 | 125078
12 | 27:47.54 | 6:13.38 | 125079 | 153091
13 | 34:01.17 | 3:37.45 | 153092 | 169411
14 | 37:38.62 | 1:36.40 | 169412 | 176651
15 | 39:15.27 | 3:29.40 | 176652 | 192366
16 | 42:44.67 | 4:06.63 | 192367 | 210879
17 | 46:51.55 | 5:05.10 | 210880 | 233764
18 | 51:56.65 | 1:11.57 | 233765 | 239146
19 | 53:08.47 | 4:56.35 | 239147 | 261381
20 | 58:05.07 | 1:53.18 | 261382 | 269874
21 | 59:58.25 | 1:36.67 | 269875 | 277141
22 | 61:35.17 | 5:39.18 | 277142 | 302584
23 | 67:14.35 | 2:16.15 | 302585 | 312799
24 | 69:30.50 | 1:08.70 | 312800 | 317969
25 | 73:11.45 | 0:39.31 | 329370 | 332325


Range status and errors

Selected range

Filename C:\temp\GCD 920114 The Spanish Guitar - Moreno - 2019\CD12\The Spanish Guitar - CD12.wav

Peak level 100.0 %
Extraction speed 5.1 X
Range quality 100.0 %
Test CRC F74772BB
Copy CRC F74772BB
Copy OK

No errors occurred


AccurateRip summary

Track 1 accurately ripped (confidence 2) [7DC1FC5B] (AR v2)
Track 2 accurately ripped (confidence 2) [C0A6154F] (AR v2)
Track 3 accurately ripped (confidence 2) [259F8643] (AR v2)
Track 4 accurately ripped (confidence 2) [50CD61F4] (AR v2)
Track 5 accurately ripped (confidence 2) [F62566F8] (AR v2)
Track 6 accurately ripped (confidence 2) [03801E79] (AR v2)
Track 7 accurately ripped (confidence 2) [1AF81751] (AR v2)
Track 8 accurately ripped (confidence 2) [C2D7CF6A] (AR v2)
Track 9 accurately ripped (confidence 2) [FA688F12] (AR v2)
Track 10 accurately ripped (confidence 2) [743C6FAE] (AR v2)
Track 11 accurately ripped (confidence 2) [4A183FF8] (AR v2)
Track 12 accurately ripped (confidence 2) [02D6C14A] (AR v2)
Track 13 accurately ripped (confidence 2) [91619451] (AR v2)
Track 14 accurately ripped (confidence 2) [AEED8198] (AR v2)
Track 15 accurately ripped (confidence 2) [C55FB714] (AR v2)
Track 16 accurately ripped (confidence 2) [F28F0319] (AR v2)
Track 17 accurately ripped (confidence 2) [56F156B8] (AR v2)
Track 18 accurately ripped (confidence 2) [BC4ABC22] (AR v2)
Track 19 accurately ripped (confidence 2) [AAB5CB37] (AR v2)
Track 20 accurately ripped (confidence 2) [3BBF2C78] (AR v2)
Track 21 accurately ripped (confidence 2) [56DFE4E2] (AR v2)
Track 22 accurately ripped (confidence 2) [F2A74D5F] (AR v2)
Track 23 accurately ripped (confidence 2) [5EF4653B] (AR v2)
Track 24 accurately ripped (confidence 2) [C8DD5986] (AR v2)

All tracks accurately ripped

End of status report

==== Log checksum C5EE49125190CF6A415EEA249CC0D18B0C92C79615CA11AB0216442517F06318 ====


José Miguel Moreno - The Spanish Guitar [12CDs] (2019)

Thanks to the original releaser