Subcategories
Tags
Language
Tags

José Miguel Pérez-Sierra, Passionart Orchestra - Rossini: Matilde di Shabran (2020)

Posted By: ArlegZ
José Miguel Pérez-Sierra, Passionart Orchestra - Rossini: Matilde di Shabran (2020)

José Miguel Pérez-Sierra, Passionart Orchestra - Rossini: Matilde di Shabran (2020)
EAC | FLAC | Image (Cue & Log) ~ 923 Mb | Total time: 197:26 | Scans included
Classical | Label: Naxos | # 8.660492-94 | Recorded: 2019

The comic-heroic romp Matilde di Shabran was Rossini’s last commission for the theatres of Rome, the city where he’d had great successes such as Il barbiere di Siviglia. Rossini took advantage of the agile, sparkling style of librettist Jacopo Ferretti to create a narrative in which the ferocious Corradino, a declared misogynist, is introduced to the resourceful Matilde, who succeeds in melting his iron heart and winning his love. This premiere recording revives the original 1821 Rome version, which was conducted at the last minute by Paganini, and caused brawling in the streets between Rossini’s admirers and detractors.

Performer:
Corradino - Michele Angelini, tenor
Matilde di Shabran - Sara Blanch, soprano
Raimondo Lopez - Shi Zong, bass
Edoardo Lopez - Victoria Yarovaya, contralto
Aliprando - Emmanuel Franco, baritone
Isidoro - Giulio Mastrototaro, baritone
Contessa d’Arco - Lamia Beuque, mezzo-soprano
Ginardo - Ricardo Seguel, bass-baritone
Egoldo / Rodrigo - Julian Henao Gonzalez, tenor
Górecki Chamber Choir
Passionart Orchestra
José Miguel Pérez-Sierra, conductor

Track List:
CD1:
01. Sinfonia: Moderato – Allegro brillante
02. Atto I. Introduzione: Zitti, zitti; nessun qui v’è (Coro, Egoldo, Ginardo)
03. Chi vi guida a queste mura (Ginardo, Coro, Egoldo)
04. Se viene il Cerbero fioccano i guai (Ginardo, Coro)
05. Recitativo: Vanno via come il vento (Ginardo)
06. Cavatina: Intanto Erminia fra le ombrose piante (Isidoro)
07. Cavatina: Ma questo castellano (Isidoro)
08. Recitativo: Chi siete Che volete (Ginardo, Isidoro)
09. Quartetto: Alma rea! Perché t'involi - Deh! v'arrestate (Corradino, Isidoro, Ginardo, Aliprando)
10. Quartetto: Bella è l'ira in mezzo al campo (Aliprando, Isidoro, Corradino, Ginardo)
11. Quartetto: Dottor, guarda che ceffo (Corradino, Isidoro, Ginardo, Aliprando)
12. Quartetto: Di te no, non mi fido (Corradino, Isidoro, Ginardo, Aliprando)
13. Recitativo: Prence, Matilde, giovanetta figlia (Aliprando, Corradino, Ginardo)
14. Eccomi, e ognor lo stesso (Edoardo, Corradino)
15. Cavatina: Piange il mio ciglio, è vero (Edoardo)
16. Cavatina: D'un tenero padre pensando al dolore (Edoardo)
17. Recitativo: Signor, del bosco per la via s'avanza (Ginardo, Corradino)
18. Duetto: Di capricci, di smorfiette (Matilde, Aliprando)
19. Duetto: Qual ti sembro (Matilde, Aliprando)
20. Duetto: Ah! di veder già parmi (Aliprando, Matilde)
CD2:
01. Recitativo: Sì, vezzosa Matilde - Dottore, prevedo un grand'imbroglio (Aliprando, Matilde, Ginardo)
02. Quintetto: Questa è la dea Che aria! (Contessa, Matilde, Aliprando, Ginardo)
03. Quintetto: Che strepito è mai questo (Corradino, Contessa, Matilde, Aliprando, Ginardo)
04. Quintetto: Dallo stupore oppresso (Corradino, Aliprando, Ginardo, Matilde, Contessa)
05. Quintetto: Signor, men vado o resto (Contessa, Corradino, Matilde, Ginardo, Aliprando)
06. Quintetto: Ch'io fugga ha già timore (Matilde, Corradino, Aliprando, Ginardo, Contessa)
07. Recitativo: Alla Contessa d'Arco un tal oltraggio! (Contessa, Matilde, Ginardo)
08. Coro: Che ne dite (Coro)
09. Recitativo: Presto, Aliprando - Amor!… - Altezza, immersa in doloroso pianto (Corradino, Aliprando, Isidoro, Ginardo, Matilde)
10. Finale: Ah! Capisco: non parlate (Matilde, Corradino, Isidoro, Ginardo)
11. Finale: Piacere egual gli dei non ponno immaginar (Corradino, Matilde, Isidoro, Ginardo)
12. Finale: Qual fragor (Corradino, Aliprando, Matilde)
13. Finale: Smarrito, dubbioso, al suono di guerra (Edoardo, Rodrigo, Coro)
14. Finale: Altezza, guardate… (Ginardo, Aliprando, Isidoro, Contessa, Corradino, Edoardo, Matilde)
15. Finale: Oh come mai quell'anima (Matilde, Edoardo, Contessa, Corradino, Aliprando, Isidoro, Ginardo)
16. Finale: Vanne, pugna: trionfante ritorna (Matilde, Corradino, Contessa, Edoardo)
17. Finale: Come allor, che dall'erte pendici (Corradino, Matilde, Edoardo, Aliprando, Contessa, Ginardo, Rodrigo, Isidoro)
CD3:
01. Atto II. Introduzione: Settecento ottanta mila quattrocento ventitré (Isidoro, Coro)
02. Scena: Sarai contenta alfine (Raimondo)
03. Cavatina: Ah! perché, perché la morte (Raimondo, Edoardo)
04. Cavatina: Ah! Se ancora un'altra volta (Raimondo)
05. Recitativo: Ah! Se questo è un bel sogno - Scene 5: Ferma, t'arresta (Raimondo, Corradino, Edoardo)
06. Recitativo: Padre… (Edoardo, Raimondo, Corradino)
07. Trio: Deh! serena il mesto ciglio (Edoardo, Raimondo, Corradino)
08. Trio: All'armi, all'armi, o barbaro (Edoardo, Raimondo, Corradino)
09. Recitativo: Edoardo fuggì - Ma che battaglia! - A me Edoardo - Cento mila perdoni (Contessa, Matilde, Isidoro, Ginardo, Corradino, Aliprando, Rodrigo)
10. Sestetto: È palese il tradimento (Corradino, Matilde, Contessa)
11. Sestetto: Passagger che si confonde (Contessa, Corradino, Matilde, Aliprando, Isidoro, Ginardo)
12. Sestetto: Perfida, invan tu piangi (Corradino, Matilde, Aliprando, Ginardo, Isidoro, Contessa)
13. Sestetto: Fra quattro armigeri immantinente (Corradino, Matilde, Isidoro, Ginardo, Aliprando, Contessa)
14. Recitativo: Forse tardi parlasti - Misera! Che farò fra questa bruna tortuosa foresta (Edoardo, Matilde)
15. Duetto: No; Matilde: non morrai (Edoardo, Matilde)
16. Duetto: Vanne, o caro: a te m'affido (Matilde, Edoardo)
17. Duetto: Sfoga pur, mia sorte irata (Matilde, Edoardo)
18. Duetto: Ah! se m'ama il caro bene (Matilde, Edoardo)
19. Recitativo: Pietà, mi parli invano - Ella è innocente (Corradino, Contessa, Edoardo, Ginardo)
20. Recitativo: Matilde non è rea! (Corradino, Isidoro, Contessa)
21. Aria: Anima mia, Matilde (Corradino, Aliprando, Ginardo, Edoardo)
22. Aria: Qual sarà mai la gioia (Corradino, Aliprando, Ginardo, Edoardo)
23. Recitativo: Nel mezzo del cammin - Chi ha gridato - Matilde non morì (Isidoro, Corradino, Raimondo, Aliprando, Ginardo, Edoardo, Matilde)
24. Scena: Matilde Ebben (Corradino, Matilde)
25. Rondò Finale: Ami alfine E chi non ama (Matilde)
26. Rondò Finale: Non è vero (Matilde, Edoardo, Corradino, Ginardo, Aliprando, Raimondo, Isidoro, Egoldo, Coro)
27. Rondò Finale: Tace la tromba altera (Matilde, Edoardo, Corradino, Ginardo, Aliprando, Raimondo, Isidoro, Egoldo, Coro)


Exact Audio Copy V1.3 from 2. September 2016

EAC extraction logfile from 7. March 2021, 15:35

José Miguel Pérez-Sierra, Passionart Orchestra / Rossini - Matilde di Shabran - CD1

Used drive : HL-DT-STDVDRAM GH24NS95 Adapter: 1 ID: 0

Read mode : Secure
Utilize accurate stream : Yes
Defeat audio cache : Yes
Make use of C2 pointers : No

Read offset correction : 6
Overread into Lead-In and Lead-Out : No
Fill up missing offset samples with silence : Yes
Delete leading and trailing silent blocks : No
Null samples used in CRC calculations : Yes
Used interface : Native Win32 interface for Win NT & 2000

Used output format : User Defined Encoder
Selected bitrate : 768 kBit/s
Quality : High
Add ID3 tag : No
Command line compressor : C:\Program Files\Exact Audio Copy\FLAC\FLAC.EXE
Additional command line options : -6 -V -T "ARTIST=%artist%" -T "TITLE=%title%" -T "ALBUM=%albumtitle%" -T "DATE=%year%" -T "TRACKNUMBER=%tracknr%" -T "GENRE=%genre%" -T "COMMENT=%comment%" -T "BAND=%albuminterpret%" -T "ALBUMARTIST=%albuminterpret%" -T "COMPOSER=%composer%" %haslyrics%–tag-from-file=LYRICS="%lyricsfile%"%haslyrics% -T "DISCNUMBER=%cdnumber%" -T "TOTALDISCS=%totalcds%" -T "TOTALTRACKS=%numtracks%" %hascover%–picture="%coverfile%"%hascover% %source% -o %dest%


TOC of the extracted CD

Track | Start | Length | Start sector | End sector
––––––––––––––––––––––––––––-
1 | 0:00.00 | 9:30.48 | 0 | 42797
2 | 9:30.48 | 4:10.33 | 42798 | 61580
3 | 13:41.06 | 6:06.24 | 61581 | 89054
4 | 19:47.30 | 3:13.16 | 89055 | 103545
5 | 23:00.46 | 0:50.53 | 103546 | 107348
6 | 23:51.24 | 4:45.66 | 107349 | 128789
7 | 28:37.15 | 2:26.51 | 128790 | 139790
8 | 31:03.66 | 0:59.39 | 139791 | 144254
9 | 32:03.30 | 6:07.32 | 144255 | 171811
10 | 38:10.62 | 3:08.31 | 171812 | 185942
11 | 41:19.18 | 1:07.39 | 185943 | 191006
12 | 42:26.57 | 3:48.14 | 191007 | 208120
13 | 46:14.71 | 1:19.07 | 208121 | 214052
14 | 47:34.03 | 2:09.10 | 214053 | 223737
15 | 49:43.13 | 3:24.39 | 223738 | 239076
16 | 53:07.52 | 3:50.39 | 239077 | 256365
17 | 56:58.16 | 0:44.40 | 256366 | 259705
18 | 57:42.56 | 4:40.51 | 259706 | 280756
19 | 62:23.32 | 1:40.25 | 280757 | 288281
20 | 64:03.57 | 3:19.52 | 288282 | 303258


Range status and errors

Selected range

Filename C:\Program Files\Exact Audio Copy\Jose Miguel Perez-Sierra - Rossini - Matilde di Shabran - CD1.wav

Peak level 99.5 %
Extraction speed 2.0 X
Range quality 99.9 %
Test CRC 239CC3EB
Copy CRC 239CC3EB
Copy OK

No errors occurred


AccurateRip summary

Track 1 not present in database
Track 2 not present in database
Track 3 not present in database
Track 4 not present in database
Track 5 not present in database
Track 6 not present in database
Track 7 not present in database
Track 8 not present in database
Track 9 not present in database
Track 10 not present in database
Track 11 not present in database
Track 12 not present in database
Track 13 not present in database
Track 14 not present in database
Track 15 not present in database
Track 16 not present in database
Track 17 not present in database
Track 18 not present in database
Track 19 not present in database
Track 20 not present in database

None of the tracks are present in the AccurateRip database

End of status report


Exact Audio Copy V1.3 from 2. September 2016

EAC extraction logfile from 7. March 2021, 16:19

José Miguel Pérez-Sierra, Passionart Orchestra / Rossini - Matilde di Shabran - CD2

Used drive : HL-DT-STDVDRAM GH24NS95 Adapter: 1 ID: 0

Read mode : Secure
Utilize accurate stream : Yes
Defeat audio cache : Yes
Make use of C2 pointers : No

Read offset correction : 6
Overread into Lead-In and Lead-Out : No
Fill up missing offset samples with silence : Yes
Delete leading and trailing silent blocks : No
Null samples used in CRC calculations : Yes
Used interface : Native Win32 interface for Win NT & 2000

Used output format : User Defined Encoder
Selected bitrate : 768 kBit/s
Quality : High
Add ID3 tag : No
Command line compressor : C:\Program Files\Exact Audio Copy\FLAC\FLAC.EXE
Additional command line options : -6 -V -T "ARTIST=%artist%" -T "TITLE=%title%" -T "ALBUM=%albumtitle%" -T "DATE=%year%" -T "TRACKNUMBER=%tracknr%" -T "GENRE=%genre%" -T "COMMENT=%comment%" -T "BAND=%albuminterpret%" -T "ALBUMARTIST=%albuminterpret%" -T "COMPOSER=%composer%" %haslyrics%–tag-from-file=LYRICS="%lyricsfile%"%haslyrics% -T "DISCNUMBER=%cdnumber%" -T "TOTALDISCS=%totalcds%" -T "TOTALTRACKS=%numtracks%" %hascover%–picture="%coverfile%"%hascover% %source% -o %dest%


TOC of the extracted CD

Track | Start | Length | Start sector | End sector
––––––––––––––––––––––––––––-
1 | 0:00.00 | 3:04.61 | 0 | 13860
2 | 3:04.61 | 4:23.07 | 13861 | 33592
3 | 7:27.68 | 3:33.69 | 33593 | 49636
4 | 11:01.62 | 6:12.51 | 49637 | 77587
5 | 17:14.38 | 1:13.05 | 77588 | 83067
6 | 18:27.43 | 5:57.54 | 83068 | 109896
7 | 24:25.22 | 1:31.56 | 109897 | 116777
8 | 25:57.03 | 3:27.71 | 116778 | 132373
9 | 29:24.74 | 3:45.51 | 132374 | 149299
10 | 33:10.50 | 8:35.58 | 149300 | 187982
11 | 41:46.33 | 2:20.43 | 187983 | 198525
12 | 44:07.01 | 1:11.52 | 198526 | 203902
13 | 45:18.53 | 1:47.33 | 203903 | 211960
14 | 47:06.11 | 1:27.53 | 211961 | 218538
15 | 48:33.64 | 2:36.66 | 218539 | 230304
16 | 51:10.55 | 0:46.65 | 230305 | 233819
17 | 51:57.45 | 3:31.69 | 233820 | 249713


Range status and errors

Selected range

Filename C:\Program Files\Exact Audio Copy\Jose Miguel Perez-Sierra - Rossini - Matilde di Shabran - CD2.wav

Peak level 99.9 %
Extraction speed 1.9 X
Range quality 100.0 %
Test CRC 930036F5
Copy CRC 930036F5
Copy OK

No errors occurred


AccurateRip summary

Track 1 not present in database
Track 2 not present in database
Track 3 not present in database
Track 4 not present in database
Track 5 not present in database
Track 6 not present in database
Track 7 not present in database
Track 8 not present in database
Track 9 not present in database
Track 10 not present in database
Track 11 not present in database
Track 12 not present in database
Track 13 not present in database
Track 14 not present in database
Track 15 not present in database
Track 16 not present in database
Track 17 not present in database

None of the tracks are present in the AccurateRip database

End of status report


Exact Audio Copy V1.3 from 2. September 2016

EAC extraction logfile from 7. March 2021, 17:15

José Miguel Pérez-Sierra, Passionart Orchestra / Rossini - Matilde di Shabran - CD3

Used drive : HL-DT-STDVDRAM GH24NS95 Adapter: 1 ID: 0

Read mode : Secure
Utilize accurate stream : Yes
Defeat audio cache : Yes
Make use of C2 pointers : No

Read offset correction : 6
Overread into Lead-In and Lead-Out : No
Fill up missing offset samples with silence : Yes
Delete leading and trailing silent blocks : No
Null samples used in CRC calculations : Yes
Used interface : Native Win32 interface for Win NT & 2000

Used output format : User Defined Encoder
Selected bitrate : 768 kBit/s
Quality : High
Add ID3 tag : No
Command line compressor : C:\Program Files\Exact Audio Copy\FLAC\FLAC.EXE
Additional command line options : -6 -V -T "ARTIST=%artist%" -T "TITLE=%title%" -T "ALBUM=%albumtitle%" -T "DATE=%year%" -T "TRACKNUMBER=%tracknr%" -T "GENRE=%genre%" -T "COMMENT=%comment%" -T "BAND=%albuminterpret%" -T "ALBUMARTIST=%albuminterpret%" -T "COMPOSER=%composer%" %haslyrics%–tag-from-file=LYRICS="%lyricsfile%"%haslyrics% -T "DISCNUMBER=%cdnumber%" -T "TOTALDISCS=%totalcds%" -T "TOTALTRACKS=%numtracks%" %hascover%–picture="%coverfile%"%hascover% %source% -o %dest%


TOC of the extracted CD

Track | Start | Length | Start sector | End sector
––––––––––––––––––––––––––––-
1 | 0:00.00 | 2:37.00 | 0 | 11774
2 | 2:37.00 | 1:38.57 | 11775 | 19181
3 | 4:15.57 | 4:37.11 | 19182 | 39967
4 | 8:52.68 | 3:59.53 | 39968 | 57945
5 | 12:52.46 | 0:31.09 | 57946 | 60279
6 | 13:23.55 | 0:39.05 | 60280 | 63209
7 | 14:02.60 | 4:53.65 | 63210 | 85249
8 | 18:56.50 | 2:20.06 | 85250 | 95755
9 | 21:16.56 | 4:01.72 | 95756 | 113902
10 | 25:18.53 | 0:39.22 | 113903 | 116849
11 | 25:58.00 | 4:14.45 | 116850 | 135944
12 | 30:12.45 | 2:13.20 | 135945 | 145939
13 | 32:25.65 | 4:12.52 | 145940 | 164891
14 | 36:38.42 | 1:51.03 | 164892 | 173219
15 | 38:29.45 | 4:33.64 | 173220 | 193758
16 | 43:03.34 | 2:18.73 | 193759 | 204181
17 | 45:22.32 | 0:42.69 | 204182 | 207400
18 | 46:05.26 | 3:39.38 | 207401 | 223863
19 | 49:44.64 | 1:09.05 | 223864 | 229043
20 | 50:53.69 | 1:49.37 | 229044 | 237255
21 | 52:43.31 | 3:33.56 | 237256 | 253286
22 | 56:17.12 | 3:26.63 | 253287 | 268799
23 | 59:44.00 | 2:35.06 | 268800 | 280430
24 | 62:19.06 | 1:22.14 | 280431 | 286594
25 | 63:41.20 | 3:44.36 | 286595 | 303430
26 | 67:25.56 | 1:12.26 | 303431 | 308856
27 | 68:38.07 | 5:43.68 | 308857 | 334649


Range status and errors

Selected range

Filename C:\Program Files\Exact Audio Copy\Jose Miguel Perez-Sierra - Rossini - Matilde di Shabran - CD3.wav

Peak level 99.2 %
Extraction speed 2.1 X
Range quality 100.0 %
Test CRC 54A7AFD5
Copy CRC 54A7AFD5
Copy OK

No errors occurred


AccurateRip summary

Track 1 not present in database
Track 2 not present in database
Track 3 not present in database
Track 4 not present in database
Track 5 not present in database
Track 6 not present in database
Track 7 not present in database
Track 8 not present in database
Track 9 not present in database
Track 10 not present in database
Track 11 not present in database
Track 12 not present in database
Track 13 not present in database
Track 14 not present in database
Track 15 not present in database
Track 16 not present in database
Track 17 not present in database
Track 18 not present in database
Track 19 not present in database
Track 20 not present in database
Track 21 not present in database
Track 22 not present in database
Track 23 not present in database
Track 24 not present in database
Track 25 not present in database
Track 26 not present in database
Track 27 not present in database

None of the tracks are present in the AccurateRip database

End of status report

José Miguel Pérez-Sierra, Passionart Orchestra - Rossini: Matilde di Shabran (2020)

Thanks to the original releaser