Subcategories

Joshua Cusack Art Ensemble - Playing Well With Others (2019)

Posted By: gribovar
Joshua Cusack Art Ensemble - Playing Well With Others (2019)

Joshua Cusack Art Ensemble - Playing Well With Others (2019)
EAC Rip | FLAC (tracks+.cue+log) - 261 MB | MP3 CBR 320 kbps (LAME 3.93) - 93 MB | Covers - 30 MB
Genre: Contemporary Jazz, Free Jazz, Big Band | RAR 3% Rec. | Label: Perth Jazz Society

This album was written by Composer Joshua Cusack in late 2018 to celebrate his graduation from his undergraduate degree at the Western Australian Academy of Performing arts. The concept of the album was to write a modern jazz album for large ensemble heavily featuring free improvisation as well as electronics.
"The outcome was dark brooding and like no large ensemble jazz I have heard before." - Joshua Cusack, Composer arranger.
"His willingness to take risks, go for ideas, and break the rules which makes this project an ambitious and exciting first recording for someone who will no doubt go on to producing interesting and creative music in the future. Congratulations Josh and welcome to the large ensemble club, we've been expecting you." - Mace Francis
Tracklist:
01. Playing well with others
02. What they say
03. Movement 1 - Wake up
04. Movement 2 - Staggered
05. Movement 3 - Hope
06. Movement 4 - Backpains
07. Movement 5 - Finally Free

Total time: 39:19

Exact Audio Copy V1.0 beta 4 from 7. December 2014

EAC extraction logfile from 5. February 2020, 12:12

Joshua Cusack Art Ensemble / Playing Well With Others

Used drive : ATAPI iHAS124 E Adapter: 1 ID: 0

Read mode : Secure
Utilize accurate stream : Yes
Defeat audio cache : Yes
Make use of C2 pointers : No

Read offset correction : 6
Overread into Lead-In and Lead-Out : No
Fill up missing offset samples with silence : Yes
Delete leading and trailing silent blocks : No
Null samples used in CRC calculations : Yes
Used interface : Native Win32 interface for Win NT & 2000
Gap handling : Appended to previous track

Used output format : User Defined Encoder
Selected bitrate : 768 kBit/s
Quality : High
Add ID3 tag : No
Command line compressor : C:\Program Files (x86)\flac-1.3.2-win\win64\flac.exe
Additional command line options : -8 -V -T "ARTIST=%artist%" -T "TITLE=%title%" -T "ALBUM=%albumtitle%" -T "DATE=%year%" -T "TRACKNUMBER=%tracknr%" -T "GENRE=%genre%" -T "COMMENT=ripped by vp_sunset" %source% -o %dest%


TOC of the extracted CD

Track | Start | Length | Start sector | End sector
––––––––––––––––––––––––––––-
1 | 0:00.00 | 5:32.71 | 0 | 24970
2 | 5:32.71 | 6:34.73 | 24971 | 54593
3 | 12:07.69 | 10:00.49 | 54594 | 99642
4 | 22:08.43 | 3:09.08 | 99643 | 113825
5 | 25:17.51 | 4:29.02 | 113826 | 134002
6 | 29:46.53 | 6:04.58 | 134003 | 161360
7 | 35:51.36 | 3:27.28 | 161361 | 176913


Track 1

Filename C:\_EAC\01. Playing well with others.wav

Pre-gap length 0:00:02.00

Peak level 96.9 %
Extraction speed 1.6 X
Track quality 99.9 %
Test CRC B7C544B0
Copy CRC B7C544B0
Track not present in AccurateRip database
Copy OK

Track 2

Filename C:\_EAC\02. What they say.wav

Peak level 96.7 %
Extraction speed 2.4 X
Track quality 100.0 %
Test CRC 998FC9E8
Copy CRC 998FC9E8
Track not present in AccurateRip database
Copy OK

Track 3

Filename C:\_EAC\03. Movement 1- Wake up.wav

Peak level 97.4 %
Extraction speed 2.8 X
Track quality 100.0 %
Test CRC 41F41CBA
Copy CRC 41F41CBA
Track not present in AccurateRip database
Copy OK

Track 4

Filename C:\_EAC\04. Movement 2- Staggered.wav

Peak level 97.5 %
Extraction speed 2.7 X
Track quality 100.0 %
Test CRC 701EF24F
Copy CRC 701EF24F
Track not present in AccurateRip database
Copy OK

Track 5

Filename C:\_EAC\05. Movement 3- Hope.wav

Peak level 97.0 %
Extraction speed 3.0 X
Track quality 100.0 %
Test CRC 48243403
Copy CRC 48243403
Track not present in AccurateRip database
Copy OK

Track 6

Filename C:\_EAC\06. Movement 4- Backpains.wav

Peak level 98.6 %
Extraction speed 3.3 X
Track quality 100.0 %
Test CRC 28ACFAB6
Copy CRC 28ACFAB6
Track not present in AccurateRip database
Copy OK

Track 7

Filename C:\_EAC\07. Movement 5- Finally Free.wav

Peak level 96.5 %
Extraction speed 3.2 X
Track quality 100.0 %
Test CRC 73BD41AC
Copy CRC 73BD41AC
Track not present in AccurateRip database
Copy OK


None of the tracks are present in the AccurateRip database

No errors occurred

End of status report

–– CUETools DB Plugin V2.1.4

[CTDB TOCID: 5beQRAIj2Lno9kNi1kLRRz_M15w-] disk not present in database
Submit result: 5beQRAIj2Lno9kNi1kLRRz_M15w- has been uploaded


==== Log checksum E53079076517BC77A5FF01CAFB4B50E12295CBE86910626C3804C3265363D563 ====

[CUETools log; Date: 05.02.2020 20:19:45; Version: 2.1.4]
[CTDB TOCID: 5beQRAIj2Lno9kNi1kLRRz_M15w-] found.
Track | CTDB Status
1 | (1/1) Accurately ripped
2 | (1/1) Accurately ripped
3 | (1/1) Accurately ripped
4 | (1/1) Accurately ripped
5 | (1/1) Accurately ripped
6 | (1/1) Accurately ripped
7 | (1/1) Accurately ripped
[AccurateRip ID: 000bad80-0045206c-58093607] disk not present in database.

Track Peak [ CRC32 ] [W/O NULL] [ LOG ]
– 98,6 [DD38F0A8] [227C35A6]
01 96,9 [B7C544B0] [407BDA08] CRC32
02 96,7 [998FC9E8] [18BFC670] CRC32
03 97,4 [41F41CBA] [8FD928A5] CRC32
04 97,5 [701EF24F] [D5E2ED10] CRC32
05 97,0 [48243403] [3ACAB5B7] CRC32
06 98,6 [28ACFAB6] [9057A911] CRC32
07 96,5 [73BD41AC] [719C72D4] CRC32

Thanks to vp_sunset