Tags
Language
Tags

Joshua Redman - Beyond (2000) {Warner}

Posted By: tiburon
Joshua Redman - Beyond (2000) {Warner}

Joshua Redman - Beyond (2000) {Warner}
EAC 1.0b3 | FLAC Image| Cue+Log | Full Scans 300dpi | 501MB + 5% Recovery
MP3 CBR 320 Kbps | 230MB + 5% Recovery
Genre: Jazz, Neo-Bop, Post-Bop
Joshua Redman - Beyond (2000) {Warner}

With his seventh and latest Warner Bros. CD, Beyond, 31-year-old Joshua Redman offers further proof that he's dedicated to exploring new musical territory. "My career has been an adventure," he says. "But this album represents a new stage in the journey. It's definitely an extension of what I've done, but it's deeper, more patient, more mature, more personal than the other records." On Beyond, Redman unveils ten originals that are both compelling in their complexity (including odd time signatures and polymetric structures) and alluring in their unadorned beauty (from catchy grooves to indelible melodies).
Track List
01. Courage (Asymmetric Aria) 7:32
02. Belonging (Lopsided Lullaby) 5:48
03. Neverend 4:26
04. Leap Of Faith 9:03
05. Balance 9:05
06. Twilight … And Beyond 11:00
07. Stoic Revolutions 6:11
08. Suspended Emanations 6:18
09. Last Rites Of Rock 'N' Roll 7:03
10. A Life? 6:52

All songs written, composed and arranged by Joshua Redman

musicians
Joshua Redman - soprano, tenor and alto saxophones
Mark Turner - saxophone
Reuben Rogers - bass
Aaron Goldberg - piano
Gregory Hutchinson - drums

Produced by Joshua Redman


Exact Audio Copy V1.0 beta 3 from 29. August 2011

EAC extraction logfile from 30. April 2014, 21:34

Joshua Redman / Beyond

Used drive : Memorex 52MAXX 3252AJ1 Adapter: 1 ID: 0

Read mode : Secure
Utilize accurate stream : Yes
Defeat audio cache : Yes
Make use of C2 pointers : No

Read offset correction : 6
Overread into Lead-In and Lead-Out : No
Fill up missing offset samples with silence : Yes
Delete leading and trailing silent blocks : No
Null samples used in CRC calculations : Yes
Used interface : Native Win32 interface for Win NT & 2000

Used output format : User Defined Encoder
Selected bitrate : 1024 kBit/s
Quality : High
Add ID3 tag : No
Command line compressor : C:\Program Files (x86)\Exact Audio Copy\Flac\flac.exe
Additional command line options : %ishigh%-V -p -l 12 -b 4096 -m -e -r 8%ishigh%%islow%-5%islow% –replay-gain -T "ARTIST=%artist%" -T "ALBUM=%albumtitle%" -T "TITLE=%title%" -T "DATE=%year%" -T "TRACKNUMBER=%tracknr%" -T "GENRE=%genre%" -T "ENSEMBLE=%albuminterpret%" -T "ALBUMARTIST=%albumartist%" -T "COMPOSER=%albumcomposer%" -T "DISCNUMBER=%cdnumber%" -T "TOTALDISCS=%totalcds%" -T "TOTALTRACKS=%numtracks%" -T "SOURCEMEDIA=CD" -T "COMMENT=%comment%" %hascover%-T "PICTURE=%coverfile%"%hascover% %source%


TOC of the extracted CD

Track | Start | Length | Start sector | End sector
––––––––––––––––––––––––––––-
1 | 0:00.32 | 7:34.08 | 32 | 34089
2 | 7:34.40 | 5:50.17 | 34090 | 60356
3 | 13:24.57 | 4:27.55 | 60357 | 80436
4 | 17:52.37 | 9:06.68 | 80437 | 121454
5 | 26:59.30 | 9:05.15 | 121455 | 162344
6 | 36:04.45 | 11:00.30 | 162345 | 211874
7 | 47:05.00 | 6:13.00 | 211875 | 239849
8 | 53:18.00 | 6:22.27 | 239850 | 268526
9 | 59:40.27 | 7:05.65 | 268527 | 300466
10 | 66:46.17 | 6:51.70 | 300467 | 331361


Range status and errors

Selected range

Filename C:\Users\M@ce\Music\Archives\Rips\Joshua Redman - Beyond.wav

Peak level 99.8 %
Extraction speed 10.0 X
Range quality 100.0 %
Test CRC 8BF90AD4
Copy CRC 8BF90AD4
Copy OK

No errors occurred


AccurateRip summary

Track 1 accurately ripped (confidence 26) [D47F7C65] (AR v2)
Track 2 accurately ripped (confidence 25) [2B50A151] (AR v2)
Track 3 accurately ripped (confidence 26) [FD9D96D9] (AR v2)
Track 4 accurately ripped (confidence 26) [4B0B2B86] (AR v2)
Track 5 accurately ripped (confidence 26) [1AA2D35F] (AR v2)
Track 6 accurately ripped (confidence 26) [20F94321] (AR v2)
Track 7 accurately ripped (confidence 26) [DC71D33A] (AR v2)
Track 8 accurately ripped (confidence 26) [14B20602] (AR v2)
Track 9 accurately ripped (confidence 25) [B97A2C98] (AR v2)
Track 10 accurately ripped (confidence 23) [50117F0F] (AR v2)

All tracks accurately ripped

End of status report

–– CUETools DB Plugin V2.1.4

[CTDB TOCID: 3Qf5RF8dOGeoWTHWIYa3YGb_j5U-] found
Submit result: 3Qf5RF8dOGeoWTHWIYa3YGb_j5U- has been uploaded
Track | CTDB Status
1 | (0/1) No match
2 | (0/1) No match
3 | (0/1) No match
4 | (0/1) No match
5 | (0/1) No match
6 | (0/1) No match
7 | (0/1) No match
8 | (0/1) No match
9 | (0/1) No match
10 | (0/1) No match


==== Log checksum 3D7C02F7296FF6F95C7CB7E19F7D69D37ED5F3660A1D0B302A3F09F975129204 ====


––––––––––––––––––––––––––––––––––––––––
Analyzed: Joshua Redman / Beyond
––––––––––––––––––––––––––––––––––––––––

DR Peak RMS Duration Track
––––––––––––––––––––––––––––––––––––––––
DR11 -0.01 dB -14.62 dB 7:34 01-Courage (Asymmetric Aria)
DR11 -0.01 dB -14.12 dB 5:50 02-Belonging (Lopsided Lullaby)
DR13 -1.54 dB -17.70 dB 4:28 03-Neverend
DR11 -0.01 dB -13.48 dB 9:07 04-Leap of Faith
DR10 -0.01 dB -14.86 dB 9:05 05-Balance
DR13 -0.01 dB -17.89 dB 11:00 06-Twilight… And Beyond
DR11 -0.01 dB -13.55 dB 6:13 07-Stoic Revolutions
DR11 -0.01 dB -14.72 dB 6:22 08-Suspended Emanations
DR12 -0.01 dB -15.18 dB 7:06 09-Last Rites of Rock 'n' Roll
DR12 -0.01 dB -16.79 dB 6:52 10-A Life?
––––––––––––––––––––––––––––––––––––––––

Number of tracks: 10
Official DR value: DR11

Samplerate: 44100 Hz
Channels: 2
Bits per sample: 16
Bitrate: 835 kbps
Codec: FLAC
================================================================================

Joshua Redman - Beyond (2000) {Warner}
Joshua Redman - Beyond (2000) {Warner}
Joshua Redman - Beyond (2000) {Warner}


Thans to the original ripper