Tags
Language
Tags

Joshua Redman & Brad Mehldau - Nearness (2016) {Nonesuch}

Posted By: tiburon
Joshua Redman & Brad Mehldau - Nearness (2016) {Nonesuch}

Joshua Redman & Brad Mehldau - Nearness (2016) {Nonesuch}
EAC 1.1 | FLAC tracks level 8 | Cue+Log+M3U | Full Scans 600dpi | 388MB + 5% Recovery
MP3 CBR 320 Kbps | 168MB + 5% Recovery
Genre: Jazz, Post-Bop

Nearness finds acclaimed jazz saxophonist Joshua Redman and pianist Brad Mehldau teaming up for a set of loose yet heartfelt duo performances. Collaborators since they first began playing together in Redman's quartet in the early '90s, Mehldau and Redman have forged their own distinct solo careers. While they have continued to work together in various settings, the duo put a spotlight on their creative friendship with their 2011 tour. Nearness features live performances captured during the European leg of that tour, including tapings in Spain, Switzerland, the Netherlands, Germany, and Norway. These are dazzlingly collaborative performances that reveal Redman and Mehldau to be a highly intuitive and harmonically adroit team. While there are a handful of original compositions here, the pair also tackle several jazz standards, including a brisk, kinetic reading of Charlie Parker's "Ornithology" and a laid-back if no less invigorating take on Thelonious Monk's "In Walked Bud." Elsewhere, they take a similarly inventive approach on several originals, including Redman's warmly burnished "Mehlsancholy Mode" and Mehldau's skipping, bluesy "Old West." What makes these recordings so engaging is the way Mehldau and Redman play off each other, dancing around the melody, weaving in and out of the harmony like rambunctious birds sparring over scattered seed. It's a conversational style that comes off as both a game of hot potato and let's finish each other's sentences. Sometimes, as on "Ornithology," it almost sounds as if Redman starts a song one way and then Mehldau switches up the conversation, taking them down a wholly alternate route. Other times, as in Mehldau's poignantly rendered "Always August," they build a detailed musical architecture, their nuanced improvisational lines forming ascending and descending stairways, grandly domed halls, and hidden dulcet nooks.
Track List
1. Ornithology (Charlie Parker & Bennie Harris) 8:38
2. Always August (Brad Mehldau) 10:55
3. In Walked Bud (Thelonious Monk) 9:56
4. Mehlsancholy Mode (Joshua Redman) 12:36
5. The Nearness of You (Hoagy Carmichael & Ned Washington) 16:44
6. Old West (Brad Mehldau) 14:39

musicians
Joshua Redman - tenor & soprano saxophones
Brad Mehldau - piano

Produced by Joshua Redman and Brad Mehldau


Exact Audio Copy V1.1 from 23. June 2015

EAC extraction logfile from 16. September 2016, 22:47

Joshua Redman & Brad Mehldau / Nearness

Used drive : PLEXTOR DVDR PX-L890SA Adapter: 1 ID: 1

Read mode : Secure
Utilize accurate stream : Yes
Defeat audio cache : Yes
Make use of C2 pointers : No

Read offset correction : 6
Overread into Lead-In and Lead-Out : No
Fill up missing offset samples with silence : Yes
Delete leading and trailing silent blocks : No
Null samples used in CRC calculations : Yes
Used interface : Native Win32 interface for Win NT & 2000
Gap handling : Appended to previous track

Used output format : User Defined Encoder
Selected bitrate : 128 kBit/s
Quality : High
Add ID3 tag : No
Command line compressor : C:\Program Files (x86)\Exact Audio Copy\FLAC\FLAC.EXE
Additional command line options : -8 -V -T "ARTIST=%artist%" -T "TITLE=%title%" -T "ALBUM=%albumtitle%" -T "DATE=%year%" -T "TRACKNUMBER=%tracknr%" -T "TOTALTRACKS=%numtracks%" -T "GENRE=%genre%" -T "ALBUMARTIST=%albumartist%" -T "ALBUM ARTIST=%albumartist%" -T "COMMENT=EAC Secure Mode, Test & Copy, AccurateRip, FLAC -8" %source%


TOC of the extracted CD

Track | Start | Length | Start sector | End sector
––––––––––––––––––––––––––––-
1 | 0:00.00 | 8:40.31 | 0 | 39030
2 | 8:40.31 | 10:57.70 | 39031 | 88375
3 | 19:38.26 | 9:58.28 | 88376 | 133253
4 | 29:36.54 | 12:39.50 | 133254 | 190228
5 | 42:16.29 | 16:47.33 | 190229 | 265786
6 | 59:03.62 | 14:39.71 | 265787 | 331782


Track 1

Filename D:\Flac Rips\01 - Ornithology.wav

Pre-gap length 0:00:02.00

Peak level 98.7 %
Extraction speed 4.3 X
Track quality 100.0 %
Test CRC BD4A138A
Copy CRC BD4A138A
Track not present in AccurateRip database
Copy OK

Track 2

Filename D:\Flac Rips\02 - Always August.wav

Pre-gap length 0:00:01.63

Peak level 95.5 %
Extraction speed 5.2 X
Track quality 100.0 %
Test CRC 35316C27
Copy CRC 35316C27
Track not present in AccurateRip database
Copy OK

Track 3

Filename D:\Flac Rips\03 - In Wlked Bud.wav

Pre-gap length 0:00:02.31

Peak level 95.6 %
Extraction speed 5.8 X
Track quality 100.0 %
Test CRC CE771EB5
Copy CRC CE771EB5
Track not present in AccurateRip database
Copy OK

Track 4

Filename D:\Flac Rips\04 - Mehlsancholy Mode.wav

Pre-gap length 0:00:01.70

Peak level 95.6 %
Extraction speed 6.6 X
Track quality 100.0 %
Test CRC F7448E9C
Copy CRC F7448E9C
Track not present in AccurateRip database
Copy OK

Track 5

Filename D:\Flac Rips\05 - The nearness of You.wav

Pre-gap length 0:00:02.63

Peak level 95.8 %
Extraction speed 7.5 X
Track quality 100.0 %
Test CRC E3BB478D
Copy CRC E3BB478D
Track not present in AccurateRip database
Copy OK

Track 6

Filename D:\Flac Rips\06 - Old West.wav

Pre-gap length 0:00:02.61

Peak level 95.7 %
Extraction speed 8.2 X
Track quality 100.0 %
Test CRC D5A681AA
Copy CRC D5A681AA
Track not present in AccurateRip database
Copy OK


None of the tracks are present in the AccurateRip database

No errors occurred

End of status report

–– CUETools DB Plugin V2.1.6

[CTDB TOCID: doOwYQOEYr72RnVQGBGtBArVH_A-] found
Submit result: doOwYQOEYr72RnVQGBGtBArVH_A- has been confirmed
Track | CTDB Status
1 | (4/4) Accurately ripped
2 | (4/4) Accurately ripped
3 | (4/4) Accurately ripped
4 | (4/4) Accurately ripped
5 | (4/4) Accurately ripped
6 | (3/4) Accurately ripped


==== Log checksum EB0770014EF4AA833186E776CAB18F6C887BBB379274C8415DEF7A88027472BC ====


foobar2000 1.3.13 / Dynamic Range Meter 1.1.1
log date: 2021-05-13 21:34:13

––––––––––––––––––––––––––––––––––––––––
Analyzed: Joshua Redman & Brad Mehldau / Nearness
––––––––––––––––––––––––––––––––––––––––

DR Peak RMS Duration Track
––––––––––––––––––––––––––––––––––––––––
DR13 -0.11 dB -16.67 dB 8:40 01-Ornithology
DR11 -0.40 dB -14.25 dB 10:58 02-Always August
DR13 -0.38 dB -16.23 dB 9:58 03-In Wlked Bud
DR11 -0.39 dB -14.69 dB 12:40 04-Mehlsancholy Mode
DR12 -0.37 dB -16.45 dB 16:47 05-The nearness of You
DR10 -0.38 dB -14.20 dB 14:40 06-Old West
––––––––––––––––––––––––––––––––––––––––

Number of tracks: 6
Official DR value: DR12

Samplerate: 44100 Hz
Channels: 2
Bits per sample: 16
Bitrate: 684 kbps
Codec: FLAC
================================================================================

Joshua Redman & Brad Mehldau - Nearness (2016) {Nonesuch}
Joshua Redman & Brad Mehldau - Nearness (2016) {Nonesuch}


Thanks to the original ripper