Subcategories

Joshua Redman & Brooklyn Rider - Sun on Sand (2019) {Nonesuch}

Posted By: tiburon
Joshua Redman & Brooklyn Rider - Sun on Sand (2019) {Nonesuch}

Joshua Redman & Brooklyn Rider - Sun on Sand (2019) {Nonesuch}
EAC 1.3 | FLAC tracks level 8 | Cue+Log+M3U | Scans 300dpi | 216MB + 5% Recovery
MP3 CBR 320 Kbps | 99MB + 5% Recovery
Genre: Jazz, Post-Bop

A collaboration between saxophonist Joshua Redman, forward-thinking chamber string ensemble Brooklyn Rider, and composer Patrick Zimmerli, 2019's Sun on Sand is a kinetic, richly attenuated album that straddles the line between jazz and modern classical. The album is comprised of eight compositions culled from a suite by Zimmerli which he and Redman originally premiered in London in 2014. Zimmerli, a jazz-trained saxophonist himself who has garnered acclaim for his hybrid orchestrations, previously supplied orchestral arrangements for Redman on his 2013 album Walking Shadows, and for Brooklyn Rider on their similar collaboration with vocalist Anne Sofie von Otter, 2016's So Many Things. He's also worked on projects with luminaries like the Bad Plus, Brad Mehldau, Ben Monder, and others. Consequently, as a composer, he brings a wide-ranging ear to Sun on Sand, ably straddling the line between exploratory modern creative jazz and more highly structured classical soundscapes. Also joining Redman are his equally talented rhythm section bandmates bassist Scott Colley and drummer Satoshi Takeishi; the latter of whom is also a longtime Zimmerli associate going back to the '90s. The opening "Flash" is a brisk, spiraling piece with Redman playing a serpentine melody against an equally gyroscopic string section, bringing to mind a genre-bending mix of Sonny Rollins-meets-Aaron Copland-meets-Steve Reich. The rest of the album is just as engaging, as Redman wails through falling shards of sharp orchestral glass on "Dark White," glides bird-like through Brooklyn Rider's falling spring rain on "Soft Focus," and arises with mournful lyricism through the ensemble's deeply colored orchestral drones on "Starbursts and Haloes." The most impressive aspect of Sun on Sand is how balanced the collaboration feels. Redman has the facility and sound to carry the music, but Brooklyn Rider offer a deeply textured counterpoint, while Zimmerli's expansive voice remains ever present.
Track List
01. Flash (4:45)
02. Between Dog and Wolf (6:43)
03. Sun on Sand (6:01)
04. Dark White (3:15)
05. Soft Focus (5:22)
06. Through Mist (6:30)
07. Starbursts and Haloes (5:27)
08. Between Dog and Wolf (Reprise) (2:20)

musicians
Joshua Redman - tenor saxophone
Scott Colley - bass
Satoshi Takeishi - drums
Brooklyn Rider:
Colin Jacobsen, Johnny Gandelsman - violins
Nicholas Cords - viola
Eric Jacobsen - cello


Exact Audio Copy V1.3 from 2. September 2016

EAC extraction logfile from 18. November 2019, 10:22

Joshua Redman & Brooklyn Rider / Sun On Sand

Used drive : PLEXTOR PX-891SAF Adapter: 1 ID: 0

Read mode : Secure
Utilize accurate stream : Yes
Defeat audio cache : Yes
Make use of C2 pointers : No

Read offset correction : 6
Overread into Lead-In and Lead-Out : No
Fill up missing offset samples with silence : Yes
Delete leading and trailing silent blocks : No
Null samples used in CRC calculations : Yes
Used interface : Native Win32 interface for Win NT & 2000
Gap handling : Appended to previous track

Used output format : User Defined Encoder
Selected bitrate : 1024 kBit/s
Quality : High
Add ID3 tag : No
Command line compressor : C:\Program Files (x86)\Exact Audio Copy\Flac\flac.exe
Additional command line options : -8 -V -T "ARTIST=%artist%" -T "TITLE=%title%" -T "ALBUM=%albumtitle%" -T "DATE=%year%" -T "TRACKNUMBER=%tracknr%" -T "GENRE=%genre%" -T "PERFORMER=%albuminterpret%" -T "COMPOSER=%composer%" %haslyrics%–tag-from-file=LYRICS="%lyricsfile%"%haslyrics% -T "ALBUMARTIST=%albumartist%" -T "DISCNUMBER=%cdnumber%" -T "TOTALDISCS=%totalcds%" -T "TOTALTRACKS=%numtracks%" -T "COMMENT=%comment%" %source% -o %dest%


TOC of the extracted CD

Track | Start | Length | Start sector | End sector
––––––––––––––––––––––––––––-
1 | 0:00.00 | 4:44.47 | 0 | 21346
2 | 4:44.47 | 6:42.53 | 21347 | 51549
3 | 11:27.25 | 6:01.32 | 51550 | 78656
4 | 17:28.57 | 3:14.58 | 78657 | 93264
5 | 20:43.40 | 5:21.45 | 93265 | 117384
6 | 26:05.10 | 6:30.17 | 117385 | 146651
7 | 32:35.27 | 5:27.23 | 146652 | 171199
8 | 38:02.50 | 2:20.21 | 171200 | 181720


Track 1

Filename D:\#EAC new\#wav+flac\Joshua Redman & Brooklyn Rider - Sun On Sand\01. Joshua Redman & Brooklyn Rider - Flash.wav

Pre-gap length 0:00:02.00

Peak level 100.0 %
Extraction speed 5.3 X
Track quality 100.0 %
Test CRC 908DD962
Copy CRC 908DD962
Track not present in AccurateRip database
Copy OK

Track 2

Filename D:\#EAC new\#wav+flac\Joshua Redman & Brooklyn Rider - Sun On Sand\02. Joshua Redman & Brooklyn Rider - Between Dog And Wolf.wav

Pre-gap length 0:00:02.09

Peak level 100.0 %
Extraction speed 5.5 X
Track quality 99.9 %
Test CRC 4B1FB934
Copy CRC 4B1FB934
Track not present in AccurateRip database
Copy OK

Track 3

Filename D:\#EAC new\#wav+flac\Joshua Redman & Brooklyn Rider - Sun On Sand\03. Joshua Redman & Brooklyn Rider - Sun On Sand.wav

Pre-gap length 0:00:01.62

Peak level 99.4 %
Extraction speed 7.0 X
Track quality 100.0 %
Test CRC E7F9D970
Copy CRC E7F9D970
Track not present in AccurateRip database
Copy OK

Track 4

Filename D:\#EAC new\#wav+flac\Joshua Redman & Brooklyn Rider - Sun On Sand\04. Joshua Redman & Brooklyn Rider - Dark White.wav

Pre-gap length 0:00:01.01

Peak level 100.0 %
Extraction speed 7.0 X
Track quality 100.0 %
Test CRC 99629D67
Copy CRC 99629D67
Track not present in AccurateRip database
Copy OK

Track 5

Filename D:\#EAC new\#wav+flac\Joshua Redman & Brooklyn Rider - Sun On Sand\05. Joshua Redman & Brooklyn Rider - Soft Focus.wav

Pre-gap length 0:00:02.00

Peak level 45.2 %
Extraction speed 7.9 X
Track quality 100.0 %
Test CRC BECAF28A
Copy CRC BECAF28A
Track not present in AccurateRip database
Copy OK

Track 6

Filename D:\#EAC new\#wav+flac\Joshua Redman & Brooklyn Rider - Sun On Sand\06. Joshua Redman & Brooklyn Rider - Through Mist.wav

Pre-gap length 0:00:01.04

Peak level 100.0 %
Extraction speed 8.5 X
Track quality 100.0 %
Test CRC ECD74EDB
Copy CRC ECD74EDB
Track not present in AccurateRip database
Copy OK

Track 7

Filename D:\#EAC new\#wav+flac\Joshua Redman & Brooklyn Rider - Sun On Sand\07. Joshua Redman & Brooklyn Rider - Starbursts And Haloes.wav

Pre-gap length 0:00:02.30

Peak level 100.0 %
Extraction speed 7.6 X
Track quality 99.9 %
Test CRC 92909EBF
Copy CRC 92909EBF
Track not present in AccurateRip database
Copy OK

Track 8

Filename D:\#EAC new\#wav+flac\Joshua Redman & Brooklyn Rider - Sun On Sand\08. Joshua Redman & Brooklyn Rider - Between Dog And Wolf - Reprise.wav

Pre-gap length 0:00:01.92

Peak level 100.0 %
Extraction speed 7.9 X
Track quality 100.0 %
Test CRC 5EA1B32C
Copy CRC 5EA1B32C
Track not present in AccurateRip database
Copy OK


None of the tracks are present in the AccurateRip database

No errors occurred

End of status report

–– CUETools DB Plugin V2.1.6

[CTDB TOCID: eU3YHji6E7GjFZ.9FmaE0vPNo6Y-] found
Submit result: eU3YHji6E7GjFZ.9FmaE0vPNo6Y- has been confirmed
Track | CTDB Status
1 | (4/4) Accurately ripped
2 | (4/4) Accurately ripped
3 | (4/4) Accurately ripped
4 | (4/4) Accurately ripped
5 | (4/4) Accurately ripped
6 | (4/4) Accurately ripped
7 | (4/4) Accurately ripped
8 | (4/4) Accurately ripped


==== Log checksum 8763A9F962652CA886B49BA1CFCA48AD22F6D4722B9A6310E4C6A752AE7A44A0 ====

Joshua Redman & Brooklyn Rider - Sun on Sand (2019) {Nonesuch}


Thanks to the original ripper