Tags
Language
Tags
June 2024
Su Mo Tu We Th Fr Sa
26 27 28 29 30 31 1
2 3 4 5 6 7 8
9 10 11 12 13 14 15
16 17 18 19 20 21 22
23 24 25 26 27 28 29
30 1 2 3 4 5 6

Joshua Redman Elastic Band - Momentum (2005)

Posted By: gribovar
Joshua Redman Elastic Band - Momentum (2005)

Joshua Redman Elastic Band - Momentum (2005)
EAC Rip | FLAC (tracks+.cue+log) - 363 MB | MP3 CBR 320 kbps (LAME 3.93) - 135 MB | Covers - 52 MB
Genre: Jazz, Post-Bop | RAR 3% Rec. | Label: Nonesuch Records (7559-79864-2)

Once again featuring the expansive keyboard talents of Sam Yahel, saxophonist Joshua Redman's Momentum features more of the '70s-influenced jazz the former "young lion" experimented with on 2002's Elastic. Bringing to mind works by such iconic artists as Miles Davis, Herbie Hancock, and especially Eddie Harris, Redman digs into sundry groove-oriented tracks such as the driving and punchy "Sweet Nasty," which finds Yahel and Redman soloing hard over drummer Jeff Ballard's James Brown-ready dance beat. Interestingly, Redman conscribes some heavy sidemen to help stir the funk this time around with bassists Flea of the Red Hot Chili Peppers and jazz-pop iconoclast Me'Shell NdegéOcello adding their signature styles to their respective tracks. Similarly, Roots drummer ?uestlove, drummer Brian Blade, vibraphonist Stefon Harris, and guitarist Kurt Rosenwinkle contribute much with appearances here. However, it is organist Yahel who sets the musical tone for the whole album, adding in bubbly ambient synth sounds, clavinet, and Rhodes piano throughout. With all these talents at Redman's disposal it is disappointing that Momentum isn't more adventurous. When set next to such classics of '70s funk as Davis' On the Corner or Hancock's Head Hunters, Redman's album is just too polite and controlled to really live up to such comparisons. Also, the album relies a bit too heavily on in-studio gimmickry such as when trumpeter Nicholas Payton - who also released his own paean to '70s fusion with Sonic Trance - solos with himself overdubbed like a trumpet section on "Put It in Your Pocket." The result ultimately comes off as cheesy and gives the impression of a premeditated improvisation rather than a free flow of ideas. It is also unfortunate that some of the best cuts on the disc like the frenetic and angular "Showtime" are merely short interludes that are never fully developed. Momentum may loose some steam as it goes along, but with such talents on board it is still a fun and funky ride.
Tracklist:
01. Soundcheck
02. Sweet Nasty
03. Just a Moment
04. Shut Your Mouth
05. The Crunge
06. Riverwide
07. Greasy G
08. Lonely Woman
09. Swunk
10. Blowing Changes
11. Double Jeopardy
12. Put It in Your Pocket
13. Showtime

Total time: 57:37

Exact Audio Copy V1.0 beta 3 from 29. August 2011

EAC extraction logfile from 20. May 2013, 23:34

Joshua Redman Elastic Band / Momentum

Used drive : HL-DT-STDVD-RAM GSA-H55N Adapter: 0 ID: 2

Read mode : Secure
Utilize accurate stream : Yes
Defeat audio cache : Yes
Make use of C2 pointers : No

Read offset correction : 102
Overread into Lead-In and Lead-Out : Yes
Fill up missing offset samples with silence : Yes
Delete leading and trailing silent blocks : No
Null samples used in CRC calculations : Yes
Used interface : Native Win32 interface for Win NT & 2000
Gap handling : Appended to previous track

Used output format : User Defined Encoder
Selected bitrate : 128 kBit/s
Quality : High
Add ID3 tag : No
Command line compressor : G:\Program Files\Exact Audio Copy\Encoder\flac.exe
Additional command line options : -V -8 -T "Genre=%genre%" -T "Artist=%artist%" -T "Title=%title%" -T "Album=%albumtitle%" -T "Date=%year%" -T "Tracknumber=%tracknr%" -T "Comment=EAC1.0b3 FLAC -8" %source%


TOC of the extracted CD

Track | Start | Length | Start sector | End sector
––––––––––––––––––––––––––––-
1 | 0:00.00 | 1:26.14 | 0 | 6463
2 | 1:26.14 | 6:20.08 | 6464 | 34971
3 | 7:46.22 | 1:21.03 | 34972 | 41049
4 | 9:07.25 | 5:37.13 | 41050 | 66337
5 | 14:44.38 | 2:38.25 | 66338 | 78212
6 | 17:22.63 | 6:20.51 | 78213 | 106763
7 | 23:43.39 | 4:35.34 | 106764 | 127422
8 | 28:18.73 | 6:11.70 | 127423 | 155317
9 | 34:30.68 | 8:15.71 | 155318 | 192513
10 | 42:46.64 | 2:10.10 | 192514 | 202273
11 | 44:56.74 | 4:41.44 | 202274 | 223392
12 | 49:38.43 | 6:51.69 | 223393 | 254286
13 | 56:30.37 | 1:06.70 | 254287 | 259306


Track 1

Filename F:\WAV\01 - Soundcheck.wav

Pre-gap length 0:00:02.00

Peak level 99.8 %
Extraction speed 3.4 X
Track quality 100.0 %
Test CRC E9E5B0A0
Copy CRC E9E5B0A0
Accurately ripped (confidence 10) [7207997C] (AR v2)
Copy OK

Track 2

Filename F:\WAV\02 - Sweet Nasty.wav

Peak level 99.8 %
Extraction speed 4.6 X
Track quality 99.9 %
Test CRC 4AEC5EE3
Copy CRC 4AEC5EE3
Accurately ripped (confidence 10) [613C9E49] (AR v2)
Copy OK

Track 3

Filename F:\WAV\03 - Just a Moment.wav

Peak level 100.0 %
Extraction speed 3.9 X
Track quality 100.0 %
Test CRC B5B26DB6
Copy CRC B5B26DB6
Accurately ripped (confidence 10) [8543E9F4] (AR v2)
Copy OK

Track 4

Filename F:\WAV\04 - Shut Your Mouth.wav

Peak level 99.8 %
Extraction speed 5.7 X
Track quality 100.0 %
Test CRC F6B11CBB
Copy CRC F6B11CBB
Accurately ripped (confidence 10) [AE8B2A9D] (AR v2)
Copy OK

Track 5

Filename F:\WAV\05 - The Crunge.wav

Peak level 99.8 %
Extraction speed 4.5 X
Track quality 99.9 %
Test CRC 3EA06E05
Copy CRC 3EA06E05
Accurately ripped (confidence 10) [FC66BFB8] (AR v2)
Copy OK

Track 6

Filename F:\WAV\06 - Riverwide.wav

Pre-gap length 0:00:01.07

Peak level 99.8 %
Extraction speed 6.5 X
Track quality 100.0 %
Test CRC 4FA2B517
Copy CRC 4FA2B517
Accurately ripped (confidence 10) [27BB51D0] (AR v2)
Copy OK

Track 7

Filename F:\WAV\07 - Greasy G.wav

Peak level 99.8 %
Extraction speed 6.6 X
Track quality 100.0 %
Test CRC 8447B398
Copy CRC 8447B398
Accurately ripped (confidence 10) [28291A50] (AR v2)
Copy OK

Track 8

Filename F:\WAV\08 - Lonely Woman.wav

Pre-gap length 0:00:01.34

Peak level 99.8 %
Extraction speed 7.2 X
Track quality 100.0 %
Test CRC 067B5F60
Copy CRC 067B5F60
Accurately ripped (confidence 10) [683FC2D6] (AR v2)
Copy OK

Track 9

Filename F:\WAV\09 - Swunk.wav

Pre-gap length 0:00:00.52

Peak level 99.8 %
Extraction speed 7.9 X
Track quality 100.0 %
Test CRC 8021A4C0
Copy CRC 8021A4C0
Accurately ripped (confidence 10) [15F44EBD] (AR v2)
Copy OK

Track 10

Filename F:\WAV\10 - Blowing Changes.wav

Peak level 79.9 %
Extraction speed 5.5 X
Track quality 99.9 %
Test CRC 421A1487
Copy CRC 421A1487
Accurately ripped (confidence 10) [EAF42DFB] (AR v2)
Copy OK

Track 11

Filename F:\WAV\11 - Double Jeopardy.wav

Pre-gap length 0:00:01.13

Peak level 99.8 %
Extraction speed 7.8 X
Track quality 100.0 %
Test CRC 8D1C5F9A
Copy CRC 8D1C5F9A
Accurately ripped (confidence 10) [DEC1E7AB] (AR v2)
Copy OK

Track 12

Filename F:\WAV\12 - Put It in Your Pocket.wav

Pre-gap length 0:00:00.74

Peak level 99.8 %
Extraction speed 8.4 X
Track quality 100.0 %
Test CRC F757C685
Copy CRC F757C685
Accurately ripped (confidence 10) [A2A56B5D] (AR v2)
Copy OK

Track 13

Filename F:\WAV\13 - Showtime.wav

Peak level 99.8 %
Extraction speed 2.1 X
Track quality 100.0 %
Test CRC 25655107
Copy CRC 25655107
Accurately ripped (confidence 10) [91873D3F] (AR v2)
Copy OK


All tracks accurately ripped

No errors occurred

End of status report

==== Log checksum D2A0A6CF0FE4E8CA4622DA070A743B6E19D358BC49E146CDE7C949D55C2D69A0 ====

[CUETools log; Date: 27.01.2021 15:48:11; Version: 2.1.4]
[CTDB TOCID: MvJqfvp5KWXMn7gtTBcYjEG9aRw-] found.
Track | CTDB Status
1 | (244/253) Accurately ripped
2 | (243/253) Accurately ripped
3 | (245/253) Accurately ripped
4 | (245/253) Accurately ripped
5 | (244/253) Accurately ripped
6 | (244/253) Accurately ripped
7 | (244/253) Accurately ripped
8 | (243/253) Accurately ripped
9 | (243/253) Accurately ripped
10 | (244/253) Accurately ripped
11 | (244/253) Accurately ripped
12 | (243/253) Accurately ripped
13 | (242/253) Accurately ripped
[AccurateRip ID: 001aad5d-0112e12a-c60d810d] found.
Track [ CRC | V2 ] Status
01 [c8bec0a2|7207997c] (053+086/199) Accurately ripped
02 [95584e8d|613c9e49] (052+088/198) Accurately ripped
03 [027e55c2|8543e9f4] (052+087/199) Accurately ripped
04 [13cc7664|ae8b2a9d] (052+088/200) Accurately ripped
05 [1cc2eb96|fc66bfb8] (052+087/199) Accurately ripped
06 [83fcb34b|27bb51d0] (052+086/198) Accurately ripped
07 [13a544a8|28291a50] (053+087/199) Accurately ripped
08 [0f367dbd|683fc2d6] (051+088/197) Accurately ripped
09 [034b1425|15f44ebd] (053+087/198) Accurately ripped
10 [29af076e|eaf42dfb] (054+087/201) Accurately ripped
11 [464aca6e|dec1e7ab] (052+087/199) Accurately ripped
12 [dd3a555c|a2a56b5d] (052+088/200) Accurately ripped
13 [2125cae0|91873d3f] (054+087/201) Accurately ripped
Offsetted by 598:
01 [398d0962] (002/199) Accurately ripped
02 [0b3eb331] (002/198) Accurately ripped
03 [f440a269] (002/199) Accurately ripped
04 [7cd45c6f] (002/200) Accurately ripped
05 [a90f3d73] (002/199) Accurately ripped
06 [58222d8c] (002/198) Accurately ripped
07 [6a4166c4] (002/199) Accurately ripped
08 [6f2fa75a] (002/197) Accurately ripped
09 [2a0dfb8f] (002/198) Accurately ripped
10 [ca4cb31b] (002/201) Accurately ripped
11 [2d972b99] (002/199) Accurately ripped
12 [2860e902] (002/200) Accurately ripped
13 [1a98cd13] (002/201) Accurately ripped
Offsetted by 622:
01 [fdd18a9f] (002/199) Accurately ripped
02 [55694e84] (002/198) Accurately ripped
03 [1583ec59] (002/199) Accurately ripped
04 [befd72f8] (002/200) Accurately ripped
05 [154b87a1] (002/199) Accurately ripped
06 [a9ed3ecc] (002/198) Accurately ripped
07 [2455bdfe] (002/199) Accurately ripped
08 [47d9ccca] (002/197) Accurately ripped
09 [9b8950bb] (002/198) Accurately ripped
10 [b69e12bf] (002/201) Accurately ripped
11 [40b85636] (002/199) Accurately ripped
12 [2965e506] (002/200) Accurately ripped
13 [bf7323bd] (002/201) Accurately ripped
Offsetted by 640:
01 [7776b0d9] (021/199) Accurately ripped
02 [69866fae] (020/198) Accurately ripped
03 [3fb4f616] (021/199) Accurately ripped
04 [2a9ad923] (021/200) Accurately ripped
05 [26c5a7ce] (021/199) Accurately ripped
06 [e5445bbe] (021/198) Accurately ripped
07 [f7bd4b7a] (021/199) Accurately ripped
08 [184816fc] (020/197) Accurately ripped
09 [b9c70c8e] (021/198) Accurately ripped
10 [bb03a43e] (021/201) Accurately ripped
11 [80871c2d] (021/199) Accurately ripped
12 [40c0c513] (021/200) Accurately ripped
13 [7c26217e] (021/201) Accurately ripped
Offsetted by -24:
01 [48e69a03] (000/199) No match (V2 was not tested)
02 [14c9c4d5] (000/198) No match (V2 was not tested)
03 [4c2d0a2b] (000/199) No match (V2 was not tested)
04 [ba9a8e5f] (000/200) No match (V2 was not tested)
05 [23e614c9] (000/199) No match (V2 was not tested)
06 [d855fbaa] (000/198) No match (V2 was not tested)
07 [79a7278f] (000/199) No match (V2 was not tested)
08 [a73858b6] (000/197) No match (V2 was not tested)
09 [126aa20a] (000/198) No match (V2 was not tested)
10 [b002e289] (000/201) No match (V2 was not tested)
11 [50014dad] (000/199) No match (V2 was not tested)
12 [f5f36e9d] (000/200) No match (V2 was not tested)
13 [7bf955f1] (000/201) No match (V2 was not tested)
Offsetted by -6:
01 [655232bc] (000/199) No match (V2 was not tested)
02 [f4c56b93] (000/198) No match (V2 was not tested)
03 [a7f3ed95] (000/199) No match (V2 was not tested)
04 [4545eece] (000/200) No match (V2 was not tested)
05 [c16735e5] (000/199) No match (V2 was not tested)
06 [5e6c3c4b] (000/198) No match (V2 was not tested)
07 [3230c213] (000/199) No match (V2 was not tested)
08 [06cfa2a5] (000/197) No match (V2 was not tested)
09 [852acaf3] (000/198) No match (V2 was not tested)
10 [29c7be54] (000/201) No match (V2 was not tested)
11 [4d9a87da] (000/199) No match (V2 was not tested)
12 [f9c97850] (000/200) No match (V2 was not tested)
13 [37006cdd] (000/201) No match (V2 was not tested)
Offsetted by 6:
01 [2e6e5567] (000/199) No match (V2 was not tested)
02 [350d6a5f] (000/198) No match (V2 was not tested)
03 [286a5991] (000/199) No match (V2 was not tested)
04 [c632e0da] (000/200) No match (V2 was not tested)
05 [77b515e0] (000/199) No match (V2 was not tested)
06 [28e7547c] (000/198) No match (V2 was not tested)
07 [50db2246] (000/199) No match (V2 was not tested)
08 [179b58d4] (000/197) No match (V2 was not tested)
09 [1bd6675b] (000/198) No match (V2 was not tested)
10 [2688be33] (000/201) No match (V2 was not tested)
11 [4e3a6663] (000/199) No match (V2 was not tested)
12 [56e99658] (000/200) No match (V2 was not tested)
13 [0c1c29b0] (000/201) No match (V2 was not tested)
Offsetted by 646:
01 [ee216923] (000/199) No match (V2 was not tested)
02 [054fc4d9] (000/198) No match (V2 was not tested)
03 [197ea36b] (000/199) No match (V2 was not tested)
04 [f7cf5115] (000/200) No match (V2 was not tested)
05 [f68c5d33] (000/199) No match (V2 was not tested)
06 [f8a382f9] (000/198) No match (V2 was not tested)
07 [3e7424f2] (000/199) No match (V2 was not tested)
08 [1f92aad9] (000/197) No match (V2 was not tested)
09 [1660decd] (000/198) No match (V2 was not tested)
10 [bff43bfd] (000/201) No match (V2 was not tested)
11 [a65c8c75] (000/199) No match (V2 was not tested)
12 [caa1c5da] (000/200) No match (V2 was not tested)
13 [653074dc] (000/201) No match (V2 was not tested)

Track Peak [ CRC32 ] [W/O NULL] [ LOG ]
– 100,0 [FE4A4428] [662841EB]
01 99,8 [E9E5B0A0] [B32FE597] CRC32
02 99,8 [4AEC5EE3] [91316C69] CRC32
03 100,0 [B5B26DB6] [59AE9180] CRC32
04 99,8 [F6B11CBB] [CE905EDC] CRC32
05 99,8 [3EA06E05] [B3743B88] CRC32
06 99,8 [4FA2B517] [CAAADE7A] CRC32
07 99,8 [8447B398] [69AA30CC] CRC32
08 99,8 [067B5F60] [32237783] CRC32
09 99,8 [8021A4C0] [097952A4] CRC32
10 79,9 [421A1487] [758C420A] CRC32
11 99,8 [8D1C5F9A] [DCD4B7F6] CRC32
12 99,8 [F757C685] [FFC3C78D] CRC32
13 99,8 [25655107] [CCEF7EF0] CRC32

Thanks to simple.i

See also:
Joshua Redman - Wish (1993)
Joshua Redman - Freedom in the Groove (1996)
Joshua Redman - Timeless Tales (For Changing Times) (1998)
Joshua Redman Quartet - Passage of Time (2001)
Joshua Redman - Elastic (2002)