Subcategories
Tags
Language
Tags

Joshua Redman - Wish (1993)

Posted By: gribovar
Joshua Redman - Wish (1993)

Joshua Redman - Wish (1993)
EAC Rip | FLAC (tracks+.cue+log) - 377 MB | MP3 CBR 320 kbps (LAME 3.93) - 145 MB | Covers - 52 MB
Genre: Jazz, Post-Bop | RAR 3% Rec. | Label: Warner Bros. Records (9362-45365-2)

Joshua Redman's sophomore effort found him leading a piano-less quartet that also included guitar great Pat Metheny and half of Ornette Coleman's trailblazing late-'50s/early-'60s quartet: acoustic bassist Charlie Haden and drummer Billy Higgins. With such company, Redman could have delivered a strong avant-garde or free jazz album; Haden and Higgins had played an important role in jazz's avant-garde because of their association with Coleman, and Metheny had himself joined forces with Coleman on their thrilling Song X session of 1985. But Wish isn't avant-garde; instead, it's a mostly inside post-bop date that emphasizes the lyrical and the introspective. The musicians swing hard and fast on Charlie Parker's "Moose the Mooche," but things become very reflective on pieces like Redman's "The Undeserving Many" and Metheny's "We Had a Sister." One of the nice things about Redman is his ability to provide jazz interpretations of rock and R&B songs. While neo-conservatives ignore them and many NAC artists simply provide boring, predictable, note-for-note covers, Redman isn't afraid to dig into them and show their jazz potential. In Redman's hands, Stevie Wonder's "Make Sure You're Sure" becomes a haunting jazz-noir statement, while Eric Clapton's ballad "Tears in Heaven" is changed from moving pop/rock to moving pop-jazz. The latter, in fact, could be called "smooth jazz with substance." Some of bop's neo-conservatives disliked the fact that Redman was playing with two of Coleman's former sidemen and a fusion icon like Metheny, but then, Redman never claimed to be a purist. Although Wish isn't innovative, it's an appealing CD from an improviser who is willing to enter a variety of musical situations.
Tracklist:
01. Turnaround
02. Soul Dance
03. Make Sure You're Sure
04. The Deserving Many
05. We Had A Sister
06. Moose The Mooche
07. Tears In Heaven
08. Whittlin'
09. Wish (Live)
10. Blues For Pat (Live)

Total time: 01:01:44

Exact Audio Copy V1.0 beta 3 from 29. August 2011

EAC extraction logfile from 21. May 2013, 19:08

Joshua Redman / Wish

Used drive : HL-DT-STDVD-RAM GSA-H55N Adapter: 0 ID: 2

Read mode : Secure
Utilize accurate stream : Yes
Defeat audio cache : Yes
Make use of C2 pointers : No

Read offset correction : 102
Overread into Lead-In and Lead-Out : Yes
Fill up missing offset samples with silence : Yes
Delete leading and trailing silent blocks : No
Null samples used in CRC calculations : Yes
Used interface : Native Win32 interface for Win NT & 2000
Gap handling : Appended to previous track

Used output format : User Defined Encoder
Selected bitrate : 128 kBit/s
Quality : High
Add ID3 tag : No
Command line compressor : G:\Program Files\Exact Audio Copy\Encoder\flac.exe
Additional command line options : -V -8 -T "Genre=%genre%" -T "Artist=%artist%" -T "Title=%title%" -T "Album=%albumtitle%" -T "Date=%year%" -T "Tracknumber=%tracknr%" -T "Comment=EAC1.0b3 FLAC -8" %source%


TOC of the extracted CD

Track | Start | Length | Start sector | End sector
––––––––––––––––––––––––––––-
1 | 0:00.00 | 6:25.43 | 0 | 28917
2 | 6:25.43 | 6:32.67 | 28918 | 58384
3 | 12:58.35 | 5:26.13 | 58385 | 82847
4 | 18:24.48 | 5:39.72 | 82848 | 108344
5 | 24:04.45 | 5:47.33 | 108345 | 134402
6 | 29:52.03 | 3:32.57 | 134403 | 150359
7 | 33:24.60 | 3:23.70 | 150360 | 165654
8 | 36:48.55 | 5:22.58 | 165655 | 189862
9 | 42:11.38 | 7:24.10 | 189863 | 223172
10 | 49:35.48 | 12:08.40 | 223173 | 277812


Track 1

Filename F:\WAV\01 - Turnaround.wav

Pre-gap length 0:00:02.00

Peak level 100.0 %
Extraction speed 5.1 X
Track quality 100.0 %
Test CRC 91278D24
Copy CRC 91278D24
Accurately ripped (confidence 2) [E980BFD7] (AR v1)
Copy OK

Track 2

Filename F:\WAV\02 - Soul Dance.wav

Pre-gap length 0:00:01.10

Peak level 100.0 %
Extraction speed 5.8 X
Track quality 100.0 %
Test CRC F6B65934
Copy CRC F6B65934
Accurately ripped (confidence 2) [805AFB2E] (AR v1)
Copy OK

Track 3

Filename F:\WAV\03 - Make Sure You're Sure.wav

Pre-gap length 0:00:00.40

Peak level 99.9 %
Extraction speed 6.2 X
Track quality 100.0 %
Test CRC C137C678
Copy CRC C137C678
Accurately ripped (confidence 2) [42FB5190] (AR v1)
Copy OK

Track 4

Filename F:\WAV\04 - The Deserving Many.wav

Pre-gap length 0:00:01.60

Peak level 100.0 %
Extraction speed 6.1 X
Track quality 99.9 %
Test CRC D2DDB4F5
Copy CRC D2DDB4F5
Accurately ripped (confidence 2) [DB419299] (AR v1)
Copy OK

Track 5

Filename F:\WAV\05 - We Had A Sister.wav

Pre-gap length 0:00:00.60

Peak level 99.9 %
Extraction speed 7.2 X
Track quality 100.0 %
Test CRC A083EF9F
Copy CRC A083EF9F
Accurately ripped (confidence 2) [A4A76EBA] (AR v1)
Copy OK

Track 6

Filename F:\WAV\06 - Moose The Mooche.wav

Pre-gap length 0:00:01.20

Peak level 99.9 %
Extraction speed 7.0 X
Track quality 100.0 %
Test CRC EEF979EB
Copy CRC EEF979EB
Accurately ripped (confidence 2) [C8B88A5A] (AR v1)
Copy OK

Track 7

Filename F:\WAV\07 - Tears In Heaven.wav

Pre-gap length 0:00:01.07

Peak level 99.9 %
Extraction speed 7.1 X
Track quality 100.0 %
Test CRC ACF9E74E
Copy CRC ACF9E74E
Accurately ripped (confidence 2) [6D7F61C7] (AR v1)
Copy OK

Track 8

Filename F:\WAV\08 - Whittlin'.wav

Pre-gap length 0:00:01.32

Peak level 100.0 %
Extraction speed 7.7 X
Track quality 100.0 %
Test CRC DF82F8F0
Copy CRC DF82F8F0
Accurately ripped (confidence 2) [9942C8F0] (AR v1)
Copy OK

Track 9

Filename F:\WAV\09 - Wish (Live).wav

Pre-gap length 0:00:01.43

Peak level 100.0 %
Extraction speed 8.2 X
Track quality 100.0 %
Test CRC 6E5D32C6
Copy CRC 6E5D32C6
Accurately ripped (confidence 2) [4ADFEA30] (AR v1)
Copy OK

Track 10

Filename F:\WAV\10 - Blues For Pat (Live).wav

Peak level 100.0 %
Extraction speed 3.8 X
Track quality 100.0 %
Test CRC 24C281D8
Copy CRC 24C281D8
Accurately ripped (confidence 2) [2EB6B7C9] (AR v1)
Copy OK


All tracks accurately ripped

No errors occurred

End of status report

==== Log checksum C12396F76444AC5FB36EDE9E8006B53A93F93F5DC6F396FF405E4B0028B188A5 ====

[CUETools log; Date: 14.01.2021 19:00:00; Version: 2.1.4]
[CTDB TOCID: o5Qx8EdmxZ9CJ7dAe9eXlF627GU-] found.
Track | CTDB Status
1 | (248/252) Accurately ripped
2 | (252/252) Accurately ripped
3 | (249/252) Accurately ripped
4 | (249/252) Accurately ripped
5 | (248/252) Accurately ripped
6 | (250/252) Accurately ripped
7 | (249/252) Accurately ripped
8 | (249/252) Accurately ripped
9 | (248/252) Accurately ripped
10 | (244/252) Accurately ripped
[AccurateRip ID: 0015a9f3-00ac38c7-820e780a] found.
Track [ CRC | V2 ] Status
01 [e980bfd7|ff479935] (003+002/202) Accurately ripped
02 [805afb2e|20a1f5c1] (003+002/202) Accurately ripped
03 [42fb5190|93cd2184] (003+002/201) Accurately ripped
04 [db419299|f0549b67] (003+002/199) Accurately ripped
05 [a4a76eba|6d9b301e] (003+002/202) Accurately ripped
06 [c8b88a5a|5ebe6278] (003+002/202) Accurately ripped
07 [6d7f61c7|cae4bdd6] (003+002/203) Accurately ripped
08 [9942c8f0|abda9759] (003+002/200) Accurately ripped
09 [4adfea30|c5ab3a6a] (003+002/201) Accurately ripped
10 [2eb6b7c9|ed77fce8] (003+000/195) Accurately ripped
Offsetted by 1328:
01 [678596f7] (064/202) Accurately ripped
02 [340f0387] (065/202) Accurately ripped
03 [cfdaa24d] (065/201) Accurately ripped
04 [591ec242] (065/199) Accurately ripped
05 [7deb274c] (065/202) Accurately ripped
06 [62b30cea] (064/202) Accurately ripped
07 [7fca9e36] (065/203) Accurately ripped
08 [08ca27d1] (065/200) Accurately ripped
09 [2dcd903e] (065/201) Accurately ripped
10 [065f8db6] (060/195) Accurately ripped
Offsetted by 636:
01 [baacb4bf] (000/202) No match (V2 was not tested)
02 [9024002e] (000/202) No match (V2 was not tested)
03 [25c80d7b] (000/201) No match (V2 was not tested)
04 [e879372c] (000/199) No match (V2 was not tested)
05 [f9d37664] (000/202) No match (V2 was not tested)
06 [060144c9] (000/202) No match (V2 was not tested)
07 [84f5e4b4] (000/203) No match (V2 was not tested)
08 [691373a7] (000/200) No match (V2 was not tested)
09 [622150d0] (000/201) No match (V2 was not tested)
10 [18a5aa12] (000/195) No match (V2 was not tested)
Offsetted by 664:
01 [a8832b67] (002/202) Accurately ripped
02 [4a0c0a92] (002/202) Accurately ripped
03 [2e021272] (002/201) Accurately ripped
04 [8718bdfe] (000/199) No match (V2 was not tested)
05 [8c00fd4d] (002/202) Accurately ripped
06 [44901d44] (002/202) Accurately ripped
07 [00a270c6] (002/203) Accurately ripped
08 [bd37c2fe] (000/200) No match (V2 was not tested)
09 [3260a9ef] (000/201) No match (V2 was not tested)
10 [e48b1121] (002/195) Accurately ripped

Track Peak [ CRC32 ] [W/O NULL] [ LOG ]
– 99,9 [4637FCE1] [470BD644]
01 99,9 [91278D24] [98E54F0A] CRC32
02 99,9 [F6B65934] [9F60F038] CRC32
03 99,9 [C137C678] [E73F32C8] CRC32
04 99,9 [D2DDB4F5] [8060470A] CRC32
05 99,9 [A083EF9F] [14F6581E] CRC32
06 99,9 [EEF979EB] [68893D5F] CRC32
07 99,9 [ACF9E74E] [4E6DE9ED] CRC32
08 99,9 [DF82F8F0] [243F5687] CRC32
09 99,9 [6E5D32C6] [9204BB4C] CRC32
10 99,9 [24C281D8] [CD3065BC] CRC32

Thanks to simple.i