Tags
Language
Tags

Joshua Redman Quartet - MoodSwing (1994) {Warner}

Posted By: tiburon
Joshua Redman Quartet - MoodSwing (1994) {Warner}

Joshua Redman Quartet - MoodSwing (1994) {Warner Bros.}
EAC 0.99pb4 | FLAC tracks level 8 | Cue+Log+M3U | Full Scans 300dpi | 413MB + 5% Recovery
MP3 CBR 320 Kbps | 161MB + 5% Recovery
Genre: Jazz
Joshua Redman Quartet - MoodSwing (1994) {Warner}

Saxophonist Joshua Redman's third album as a leader is cause for celebration, because here's a young jazzman gifted with all manner of technical gifts, yet he places a premium on feeling and communication. MOODSWING is just that, a series of changes, alternating between the cool and the hot–each arrangement depicting some aspect of Redman's wide-ranging musical personality.
Track List
01. Sweet Sorrow 8:42
02. Chill 7:43
03. Rejoice 11:12
04. Faith 4:33
05. Alone In The Morning 5:06
06. Mischief 5:47
07. Dialogue 5:45
08. The Oneness Of Two (In Three) 5:08
09. Past In The Present 4:53
10. Obsession 6:50
11. Headin Home 4:07

musicians
Joshua Redman - tenor & soprano saxophones
Brad Mehldau - piano
Christian McBride - acoustic bass
Brian Blade - drums

Produced by Matt Pierson


Exact Audio Copy V0.99 prebeta 4 from 23. January 2008

EAC extraction logfile from 5. March 2011, 8:37

Joshua Redman Quartet / MoodSwing

Used drive : HL-DT-STDVDRAM GSA-E10L Adapter: 2 ID: 0

Read mode : Secure
Utilize accurate stream : Yes
Defeat audio cache : Yes
Make use of C2 pointers : No

Read offset correction : 667
Overread into Lead-In and Lead-Out : No
Fill up missing offset samples with silence : Yes
Delete leading and trailing silent blocks : No
Null samples used in CRC calculations : Yes
Used interface : Installed external ASPI interface
Gap handling : Appended to previous track

Used output format : User Defined Encoder
Selected bitrate : 768 kBit/s
Quality : High
Add ID3 tag : No
Command line compressor : C:\Programmi\Exact Audio Copy\FLAC\FLAC.EXE
Additional command line options : -8 -V -T "ARTIST=%a" -T "TITLE=%t" -T "ALBUM=%g" -T "DATE=%y" -T "TRACKNUMBER=%n" -T "GENRE=%m" -T "COMMENT=%e" %s -o %d


TOC of the extracted CD

Track | Start | Length | Start sector | End sector
––––––––––––––––––––––––––––-
1 | 0:00.00 | 8:43.05 | 0 | 39229
2 | 8:43.05 | 7:43.05 | 39230 | 73959
3 | 16:26.10 | 11:12.30 | 73960 | 124389
4 | 27:38.40 | 4:33.17 | 124390 | 144881
5 | 32:11.57 | 5:05.65 | 144882 | 167821
6 | 37:17.47 | 5:50.48 | 167822 | 194119
7 | 43:08.20 | 5:43.42 | 194120 | 219886
8 | 48:51.62 | 5:12.68 | 219887 | 243354
9 | 54:04.55 | 4:53.60 | 243355 | 265389
10 | 58:58.40 | 6:54.37 | 265390 | 296476
11 | 65:53.02 | 4:05.18 | 296477 | 314869


Track 1

Filename C:\EACrip\01 - Joshua Redman Quartet - Sweet Sorrow.wav

Pre-gap length 0:00:02.00

Peak level 100.0 %
Track quality 100.0 %
Test CRC 53988BC9
Copy CRC 53988BC9
Accurately ripped (confidence 45) [294F45E8]
Copy OK

Track 2

Filename C:\EACrip\02 - Joshua Redman Quartet - Chill.wav

Peak level 96.1 %
Track quality 100.0 %
Test CRC 172969B1
Copy CRC 172969B1
Accurately ripped (confidence 46) [99CA196D]
Copy OK

Track 3

Filename C:\EACrip\03 - Joshua Redman Quartet - Rejoice.wav

Peak level 100.0 %
Track quality 99.9 %
Test CRC A55C3E61
Copy CRC A55C3E61
Accurately ripped (confidence 43) [9ADDCE3F]
Copy OK

Track 4

Filename C:\EACrip\04 - Joshua Redman Quartet - Faith.wav

Pre-gap length 0:00:01.97

Peak level 99.2 %
Track quality 100.0 %
Test CRC F30D42E8
Copy CRC F30D42E8
Accurately ripped (confidence 45) [5C0FDE65]
Copy OK

Track 5

Filename C:\EACrip\05 - Joshua Redman Quartet - Alone In The Morning.wav

Peak level 100.0 %
Track quality 100.0 %
Test CRC DE8A98C0
Copy CRC DE8A98C0
Accurately ripped (confidence 46) [3D5C0E78]
Copy OK

Track 6

Filename C:\EACrip\06 - Joshua Redman Quartet - Mischief.wav

Pre-gap length 0:00:00.96

Peak level 99.4 %
Track quality 99.9 %
Test CRC E3475BF1
Copy CRC E3475BF1
Accurately ripped (confidence 43) [43A18558]
Copy OK

Track 7

Filename C:\EACrip\07 - Joshua Redman Quartet - Dialogue.wav

Pre-gap length 0:00:01.90

Peak level 100.0 %
Track quality 100.0 %
Test CRC 64220297
Copy CRC 64220297
Accurately ripped (confidence 43) [830613CD]
Copy OK

Track 8

Filename C:\EACrip\08 - Joshua Redman Quartet - The Oneness Of Two (In Three).wav

Pre-gap length 0:00:01.60

Peak level 75.0 %
Track quality 100.0 %
Test CRC 18DBF13D
Copy CRC 18DBF13D
Accurately ripped (confidence 44) [CD2EF321]
Copy OK

Track 9

Filename C:\EACrip\09 - Joshua Redman Quartet - Past In The Present.wav

Pre-gap length 0:00:02.10

Peak level 100.0 %
Track quality 100.0 %
Test CRC 0C421D64
Copy CRC 0C421D64
Accurately ripped (confidence 44) [2A055DB3]
Copy OK

Track 10

Filename C:\EACrip\10 - Joshua Redman Quartet - Obsession.wav

Pre-gap length 0:00:00.50

Peak level 100.0 %
Track quality 100.0 %
Test CRC 3B23BEDC
Copy CRC 3B23BEDC
Accurately ripped (confidence 42) [70E1C360]
Copy OK

Track 11

Filename C:\EACrip\11 - Joshua Redman Quartet - Headin' Home.wav

Pre-gap length 0:00:02.46

Peak level 100.0 %
Track quality 100.0 %
Test CRC 0EB1538B
Copy CRC 0EB1538B
Accurately ripped (confidence 40) [44B13C7D]
Copy OK


All tracks accurately ripped

No errors occurred

End of status report


––––––––––––––––––––––––––––––––––––––––
Analyzed: Joshua Redman Quartet / MoodSwing
––––––––––––––––––––––––––––––––––––––––

DR Peak RMS Duration Track
––––––––––––––––––––––––––––––––––––––––
DR14 0.00 dB -17.12 dB 8:43 01-Sweet Sorrow
DR16 -0.34 dB -19.26 dB 7:43 02-Chill
DR14 0.00 dB -16.66 dB 11:12 03-Rejoice
DR13 -0.07 dB -15.64 dB 4:33 04-Faith
DR13 0.00 dB -14.77 dB 5:06 05-Alone In The Morning
DR14 -0.05 dB -16.81 dB 5:51 06-Mischief
DR12 0.00 dB -16.08 dB 5:44 07-Dialogue
DR12 -2.49 dB -17.25 dB 5:13 08-The Oneness Of Two (In Three)
DR12 0.00 dB -15.61 dB 4:54 09-Past In The Present
DR14 0.00 dB -17.07 dB 6:54 10-Obsession
DR12 0.00 dB -14.03 dB 4:05 11-Headin' Home
––––––––––––––––––––––––––––––––––––––––

Number of tracks: 11
Official DR value: DR13

Samplerate: 44100 Hz
Channels: 2
Bits per sample: 16
Bitrate: 880 kbps
Codec: FLAC
================================================================================

Joshua Redman Quartet - MoodSwing (1994) {Warner}
Joshua Redman Quartet - MoodSwing (1994) {Warner}
Joshua Redman Quartet - MoodSwing (1994) {Warner}


Thanks to the original ripper