Tags
Language
Tags

Blai Justo, Elisa Joglar, Bernard Zonderman - Juan De Ledesma: Sonatas para violin y bajo (2009)

Posted By: Designol
Blai Justo, Elisa Joglar, Bernard Zonderman - Juan De Ledesma: Sonatas para violin y bajo (2009)

Juan De Ledesma: Sonatas para violin y bajo (2009)
Blai Justo, violin; Elisa Joglar, cello; Bernard Zonderman, guitar

EAC | WV | Image (Cue&Log) ~ 337 Mb | Mp3 (CBR320) ~ 157 Mb | Scans ~ 58 Mb
Classical, Baroque | Label: Ramée | # RAM 0901 | Time: 01:08:40

The revival of Spanish music of the Baroque period continues moving forward into the Classical era with this premiere recording of sonatas for "violin y bajo" – violin and bass – by Juan de Ledesma. The sonatas were rediscovered only in the late 1980s, and they're very elegantly presented here in a package adorned by a reproduction of a marvelous French fan of the period. There isn't anything of earthshaking importance among the five sonatas on the disc, but they're attractive pieces with some challenges for the violinist, and both players of the instruments and those with collections of Spanish music will find the release of interest. The booklet notes by violinist Blai Justo (in English, French, and German, with Spanish and Catalan additionally available online) point to Corelli's influence, but also note the presence of the galant style of the period, and it is the latter sound, with its atmosphere of charm and its relaxed procession of contrasting two-measure phrases, that predominates. The players do well to avoid a harpsichord accompaniment, using either a combination of cello and guitar or one or the other instrument alone. No evidence is adduced for the authenticity of this practice, but it makes musical sense: it results in a chamber-duet feel, whereas a keyboard continuo plunking out chords would have worked at cross-purposes with the music. Each sonata is in three movements, with a few Spanish-style surprises like the Boccherini-style "Minué" third movement (track 3) of the Sonata in A major for violin and bass. Justo executes the profusion of ornaments smoothly, but he's not served well by the sound environment of the church of Notre-Dame de l'Assomption in Basse-Bodeux, Belgium; it is a chilly, cavernous space entirely inappropriate to chamber music written for convivial gatherings of well-off patrons.

Review by James Manheim, Allmusic.com

Blai Justo’s own notes to his program of “Spanish Violin Music from the Time of Ferdinand VI” make clear the position of Juan de Ledesma (c. 1713-1781), who led the viola section (in preference to playing violin) in the Spanish Chapel Royal. A pupil, during the end of his student years, of Michele Geminiani (Francesco’s brother) and therefore a musical descendant of Arcangelo Corelli, Ledesma represented the Italian tradition, though nuanced, as Justo points out, with Spanish inflections.

Ledesma’s five sonatas, rediscovered by Lothar Siemens a quarter-century ago, and so recherché as not to receive even a mention in William S. Newman’s comprehensive study of the Baroque sonata, fall into three movements bearing Italian tempo indications (except for the finale of Sonata No. 3, marked Minué ). According to Justo, the unfigured basses suggest that the harpsichord could be omitted; in its place, he substitutes guitar, which he believes doesn’t challenge the dominance of the violin and cello. Bernard Zonderman plays on a Baroque guitar in the sonatas in A Major (No. 1) and D Major and a “pre-Romantic” one in those in E-flat Major and A Major (No. 5); in the Sonata in F Major, only cello accompanies the violin.

The program opens with the First Sonata; its moderately paced first movement, in its forward looking style, sounds a great deal like the sonatas of Giovanni Battista Somis, a composer who, though Corelli’s own pupil, looked forward rather than backward as did his fellow student, Francesco Geminiani (as in Somis’s sonatas, too, the majority of Ledesma’s sonatas begin with a moderately paced introductory movement followed by an expressive slow one and a strutting finale). Justo encrusts its chunky lines with spiky ornamentation, plays the second movement with bracing energy, and imparts jaunty verve to the technically more challenging finale (adding harmonics, perhaps a personal touch, for extra buoyancy). The violin and cello toss motives back and forth in the slow movement of the Sonata in E-flat Major, providing opportunities for cogent dialogue between Justo and Joglar (the movement ends only after a brief cadenza). As in Somis’s sonatas, the composer imparts extra energy to the finale by means of running passages in triplets. Tartini’s sonatas, roughly contemporaneous, often employ basses that look so simple as to suggest that they might be omitted with little loss to the musical argument (Andrew Manze played the “Devil’s Trill” unaccompanied on Harmonia Mundi 907213, Fanfare 21:5). Justo and Joglar play Ledesma’s Second Sonata with such alertness in the dialogue, and the composer has created such full sonorities for the two instruments that listeners may hardly miss the guitar. The Fifth Sonata, at more than 15 minutes the longest, explores perhaps the most sensitive affects in its slow movement; Justo graces its finale with brilliant off-the-string ricochet-like runs, more reminiscent of the 17th-century German school than of the 18th-century Italian one (including the works of such advanced technicians as Corelli’s violinistically exhibitionistic pupil Pietro Locatelli). The duo (without the guitar) plays the Fourth Sonata’s Andantino dolce with pointed, though genial, wit.

Justo plays the program on a Baroque-style violin made by Dmitry Badiarov in 2003 (from which he draws a tone that falls closer to that produced on modern instruments than it does to the once signature whining and wheezing of Baroque ones); Elisa Joglar plays a 1758 Benoit Fleury cello, and Bernard Zonderman plays a 1996 five-course guitar modeled after a 17th-century Italian prototype and a 1995 six-string guitar modeled on guitars by an 1800 Parisian maker. The engineers have balanced these instruments (while making the guitar sound more discreet than do the two outer parts); all seem somewhat distant, re-creating the aural impression a listener might receive in a live performance. Warmly recommended generally and urgently recommended to aficionados of the Baroque era’s violin literature.

Review by Robert Maxham, Fanfare Magazine


Blai Justo, Elisa Joglar, Bernard Zonderman - Juan De Ledesma: Sonatas para violin y bajo (2009)

Blai Justo, violin
Elisa Joglar, cello
Bernard Zonderman, guitar

Date of Recording: 11/2006
Venue: Notre-Dame de l'Assomption, Basse-Bodeux

Tracklist:

Juan de Ledesma (1713-1781)

Sonata a Violin Solo e Basso No. 1 in A major
01. I. Andantino (2:07)
02. II. Allegro (4:28)
03. III. Minue (4:41)

Sinfonia a Violino Solo e Basso No. 3 in E-flat major
04. I. Allegro (5:49)
05. II. Largo dulce (4:15)
06. III. Allegro (2:59)

Sonata a Solo con Basso No. 2 in F major
07. I. Allegretto (6:10)
08. II. Andantino (5:56)
09. III. Allegro (4:15)

Sonata a Solo per il Violino e Basso No. 5 in A major
10. I. Andantino-Allegro (6:37)
11. II. Andante (3:45)
12. III. Minuet (5:50)

Sonata a Violino Solo e Basso No. 4 in D major
13. I. Allegro (4:46)
14. II. Andantino dulce (3:31)
15. III. Allegro (3:30)


Exact Audio Copy V1.0 beta 2 from 29. April 2011

EAC extraction logfile from 7. November 2013, 17:32

Blai Justo, Elisa Joglar, Bernard Zonderman / Ledesma - Sonatas para violin y bajo

Used drive : HL-DT-STDVDRAM GH20NS10 Adapter: 4 ID: 0

Read mode : Secure
Utilize accurate stream : Yes
Defeat audio cache : Yes
Make use of C2 pointers : No

Read offset correction : 667
Overread into Lead-In and Lead-Out : No
Fill up missing offset samples with silence : Yes
Delete leading and trailing silent blocks : No
Null samples used in CRC calculations : Yes
Used interface : Installed external ASPI interface

Used output format : Internal WAV Routines
Sample format : 44.100 Hz; 16 Bit; Stereo


TOC of the extracted CD

Track | Start | Length | Start sector | End sector
––––––––––––––––––––––––––––-
1 | 0:00.00 | 2:07.18 | 0 | 9542
2 | 2:07.18 | 4:27.55 | 9543 | 29622
3 | 6:34.73 | 4:40.43 | 29623 | 50665
4 | 11:15.41 | 5:49.20 | 50666 | 76860
5 | 17:04.61 | 4:15.24 | 76861 | 96009
6 | 21:20.10 | 2:59.06 | 96010 | 109440
7 | 24:19.16 | 6:09.38 | 109441 | 137153
8 | 30:28.54 | 5:56.05 | 137154 | 163858
9 | 36:24.59 | 4:15.23 | 163859 | 183006
10 | 40:40.07 | 6:37.05 | 183007 | 212786
11 | 47:17.12 | 3:45.30 | 212787 | 229691
12 | 51:02.42 | 5:50.04 | 229692 | 255945
13 | 56:52.46 | 4:46.25 | 255946 | 277420
14 | 61:38.71 | 3:31.36 | 277421 | 293281
15 | 65:10.32 | 3:29.51 | 293282 | 309007


Range status and errors

Selected range

Filename Z:\NetLab\Ledesma - Sonatas para violin y bajo (Blai Justo, Elisa Joglar, Bernard Zonderman) (2009) {Ramee, RAM 0901}\Ledesma - Sonatas para violin y bajo.wav

Peak level 94.4 %
Extraction speed 8.0 X
Range quality 99.9 %
Test CRC 5B4A308A
Copy CRC 5B4A308A
Copy OK

No errors occurred


AccurateRip summary

Track 1 accurately ripped (confidence 1) [38EF2134] (AR v1)
Track 2 accurately ripped (confidence 1) [CD4445CD] (AR v1)
Track 3 accurately ripped (confidence 1) [384460AA] (AR v1)
Track 4 accurately ripped (confidence 1) [B68AD1DB] (AR v1)
Track 5 cannot be verified as accurate (confidence 1) [ABAD682C], AccurateRip returned [B896B106] (AR v2)
Track 6 accurately ripped (confidence 1) [04CD9D31] (AR v1)
Track 7 accurately ripped (confidence 1) [46F78465] (AR v1)
Track 8 accurately ripped (confidence 1) [90E0B136] (AR v1)
Track 9 accurately ripped (confidence 1) [EA2C322F] (AR v1)
Track 10 accurately ripped (confidence 1) [B5059063] (AR v1)
Track 11 accurately ripped (confidence 1) [8DD00111] (AR v1)
Track 12 accurately ripped (confidence 1) [3C4AAD50] (AR v1)
Track 13 accurately ripped (confidence 1) [0EA07101] (AR v1)
Track 14 cannot be verified as accurate (confidence 1) [A6B3C350], AccurateRip returned [B294CB13] (AR v2)
Track 15 accurately ripped (confidence 1) [70791366] (AR v1)

13 track(s) accurately ripped
2 track(s) could not be verified as accurate

Some tracks could not be verified as accurate

End of status report

==== Log checksum 8FB68A37E47003BE4FE0340E03E81866708E27AD54AC4ECE8EB2FBEC20983D22 ====

[CUETools log; Date: 16.03.2018 0:08:48; Version: 2.1.4]
[CTDB TOCID: rfGYnMBnlI4hZE0beLVug0A4DQI-] found.
Track | CTDB Status
1 | (4/4) Accurately ripped
2 | (4/4) Accurately ripped
3 | (4/4) Accurately ripped
4 | (4/4) Accurately ripped
5 | (4/4) Accurately ripped
6 | (4/4) Accurately ripped
7 | (4/4) Accurately ripped
8 | (4/4) Accurately ripped
9 | (4/4) Accurately ripped
10 | (4/4) Accurately ripped
11 | (4/4) Accurately ripped
12 | (4/4) Accurately ripped
13 | (4/4) Accurately ripped
14 | (4/4) Accurately ripped
15 | (4/4) Accurately ripped
[AccurateRip ID: 002524fc-01aca0f8-c710180f] found.
Track [ CRC | V2 ] Status
01 [38ef2134|f3abaf31] (0+2/2) Accurately ripped
02 [cd4445cd|975fe7e0] (0+2/2) Accurately ripped
03 [384460aa|b4beaf97] (0+2/2) Accurately ripped
04 [b68ad1db|9ecb872e] (0+2/2) Accurately ripped
05 [4d057668|abad682c] (0+2/2) Accurately ripped
06 [04cd9d31|9696bbe7] (0+2/2) Accurately ripped
07 [46f78465|84155ef6] (0+2/2) Accurately ripped
08 [90e0b136|97294289] (0+2/2) Accurately ripped
09 [ea2c322f|1a730e1a] (0+2/2) Accurately ripped
10 [b5059063|dbd4e872] (0+2/2) Accurately ripped
11 [8dd00111|f361c3c5] (0+2/2) Accurately ripped
12 [3c4aad50|dea3ece2] (0+2/2) Accurately ripped
13 [0ea07101|5d6a2d7a] (0+2/2) Accurately ripped
14 [ea41ca6b|a6b3c350] (0+2/2) Accurately ripped
15 [70791366|617d6eef] (0+2/2) Accurately ripped

Track Peak [ CRC32 ] [W/O NULL] [ LOG ]
– 94,4 [5B4A308A] [52126491] CRC32
01 85,4 [29185026] [628201CE]
02 81,7 [200A77FA] [9333430E]
03 83,0 [9A1BEB3A] [E2E75AF9]
04 70,6 [8EB51C8F] [2FE9363A]
05 47,1 [C8AA2302] [8314176D]
06 61,9 [A6F4201C] [ACED2093]
07 64,8 [D946B5BD] [71CA5E78]
08 61,0 [C664C6A0] [4FB242DA]
09 69,9 [8F61682D] [C6EDD73B]
10 65,5 [5992BDF8] [700273E9]
11 42,2 [BF447E4A] [27336EE5]
12 49,5 [4764B458] [1E64F732]
13 64,5 [74183F74] [84A618A9]
14 42,5 [443ACAF1] [C3840352]
15 94,4 [DC598773] [7F4EFF39]

foobar2000 1.2 / Dynamic Range Meter 1.1.1
log date: 2018-03-15 23:39:50

––––––––––––––––––––––––––––––––––––––––
Analyzed: Blai Justo, Elisa Joglar, Bernard Zonderman / Ledesma - Sonatas para violin y bajo
––––––––––––––––––––––––––––––––––––––––

DR Peak RMS Duration Track
––––––––––––––––––––––––––––––––––––––––
DR12 -1.36 dB -20.27 dB 2:07 01-Sonata a Violin Solo e Basso No. 1 in A major; I. Andantino
DR14 -1.75 dB -20.18 dB 4:28 02-II. Allegro
DR13 -1.61 dB -19.63 dB 4:41 03-III. Minue
DR13 -3.02 dB -21.20 dB 5:49 04-Sinfonia a Violino Solo e Basso No. 3 in E-flat major; I. Allegro
DR12 -6.54 dB -22.91 dB 4:15 05-II. Largo dulce
DR14 -4.16 dB -21.97 dB 2:59 06-III. Allegro
DR14 -3.76 dB -21.22 dB 6:10 07-Sonata a Solo con Basso No. 2 in F major; I. Allegretto
DR15 -4.29 dB -23.95 dB 5:56 08-II. Andantino
DR14 -3.11 dB -21.55 dB 4:15 09-III. Allegro
DR14 -3.67 dB -22.01 dB 6:37 10-Sonata a Solo per il Violino e Basso No. 5 in A major; I. Andantino-Allegro
DR14 -7.49 dB -26.78 dB 3:45 11-II. Andante
DR13 -6.10 dB -22.84 dB 5:50 12-III. Minuet
DR13 -3.80 dB -19.71 dB 4:46 13-Sonata a Violino Solo e Basso No. 4 in D major; I. Allegro
DR13 -7.42 dB -26.45 dB 3:31 14-II. Andantino dulce
DR14 -0.50 dB -19.13 dB 3:30 15-III. Allegro
––––––––––––––––––––––––––––––––––––––––

Number of tracks: 15
Official DR value: DR14

Samplerate: 44100 Hz
Channels: 2
Bits per sample: 16
Bitrate: 686 kbps
Codec: WavPack
================================================================================

Blai Justo, Elisa Joglar, Bernard Zonderman - Juan De Ledesma: Sonatas para violin y bajo (2009)

Blai Justo, Elisa Joglar, Bernard Zonderman - Juan De Ledesma: Sonatas para violin y bajo (2009)

All thanks to original releaser - Pr3ss

More interesting music in My Blog