Tags
Language
Tags
June 2024
Su Mo Tu We Th Fr Sa
26 27 28 29 30 31 1
2 3 4 5 6 7 8
9 10 11 12 13 14 15
16 17 18 19 20 21 22
23 24 25 26 27 28 29
30 1 2 3 4 5 6

Karina Gauvin, Les Boréades de Montréal - Hyver (2005)

Posted By: tirexiss
Karina Gauvin, Les Boréades de Montréal - Hyver (2005)

Karina Gauvin, Les Boréades de Montréal - Hyver (2005)
EAC | FLAC (image+.cue, log) | Covers Included | 01:03:09 | 351 MB
Genre: Classical, Vocal | Label: ATMA Classique | Catalog: ACD22352

This new CD of Les Boréades de Montréal, features acclaimed Canadian soprano Karina Gauvin in two French Baroque Cantatas: Orphée by Nicolas Clérambault and L'Hyver by Joseph Bodin de Boismortier. The recording is completed by two instrumental pieces: the lively suite from the opera Don Quichotte chez la Duchesse by Boismortier and by Michel Corrette's Concerto comique no 25 Les Sauvages. The cantata form blossomed in France during the first third of the 18th century and quickly departed from the original model from Italy and became freer. The French cantatas written for one voice and basso continuo and few instruments resembles a short piece of tragedy in music just as much as the Italian cantata resembles a fragment of a serious opera.

Karina Gauvin, Les Boréades de Montréal - Hyver (2005)

Track List:

MICHEL CORRETTE (1709-1795)
Concerto comique Nº 25 Les Sauvages et la Fürstemberg
en sol mineur pour flûte, 2 violons, alto et basse continue 8:46
(Paris, v.1760)
1. Allegro Les Sauvages 3:14
2. Andante 2:02
3. Allegro La Fürstemberg 3:32
JOSEPH BODIN DE BOISMORTIER (1689-1755)
Cantate L’Hyver « à voix seule mêlée de symphonies » PB 194 27:18
(Les Quatre Saisons, opus 5, Paris, 1724)
4. Air (doucement) 3:43
5. Récitatif 0:53
6. Air (vivement) 2:54
7. Récitatif 1:09
8. Air (lentement) 6:32
9. Récitatif avec ritournelles 1:56
10. Air (gaiement) 3:51
11. Récitatif 0:41
12. Air (gaiement) 5:39
JOSEPH BODIN DE BOISMORTIER
Ouverture et suite de danses tirées de
Don Quichotte chez la Duchesse PB 204 8:24
(Paris, Académie royale de musique, 1743)
13. Ouverture 2:16
14. Marche 1:14
15. Air pour les pâtres 1:13
16. Marche 1:15
17. Air pour les Japonais 0:56
18. Tambourins 1:30
NICOLAS CLÉRAMBAULT (1676-1749)
Cantate Orphée « à voix seule et symphonie » C. 3 18:30
(Cantates françaises, livre I, Paris, 1710)
19. Récitatif 0:35
20. Air tendre et piqué 2:36
21. Récitatif 1:23
22. Air gai 2:51
23. Récitatif 0:33
24. Air fort lent et fort tendre 7:19
25. Récitatif 0:50
26. Air gai 2:23

Performers:
Karina Gauvin (soprano)
LES BORÉADES DE MONTRÉAL:
(sur instruments d’époque)
Francis Colpron - flûtes à bec et traversière & direction
Matthew Jennejohn - hautbois
Hélène Plouffe - violon
Chloe Meyers - violon
Margaret Little - alto et viole de gambe
Susie Napper - violoncelle et viole de gambe
Alexander Weimann - clavecin et orgue positif
Sylvain Bergeron - théorbe
Éric Lagacé - contrebasse

Exact Audio Copy V1.3 from 2. September 2016

EAC extraction logfile from 4. February 2019, 17:21

Les Boréades de Montréal / Hyver

Used drive : HL-DT-STDVDRAM GP65NW60 Adapter: 1 ID: 0

Read mode : Secure
Utilize accurate stream : Yes
Defeat audio cache : Yes
Make use of C2 pointers : No

Read offset correction : 6
Overread into Lead-In and Lead-Out : No
Fill up missing offset samples with silence : Yes
Delete leading and trailing silent blocks : No
Null samples used in CRC calculations : Yes
Used interface : Native Win32 interface for Win NT & 2000

Used output format : User Defined Encoder
Selected bitrate : 1024 kBit/s
Quality : High
Add ID3 tag : No
Command line compressor : C:\Program Files (x86)\Exact Audio Copy\FLAC\FLAC.EXE
Additional command line options : -6 -V -T "ARTIST=%artist%" -T "TITLE=%title%" -T "ALBUM=%albumtitle%" -T "DATE=%year%" -T "TRACKNUMBER=%tracknr%" -T "GENRE=%genre%" -T "COMMENT=%comment%" -T "BAND=%albuminterpret%" -T "ALBUMARTIST=%albuminterpret%" -T "COMPOSER=%composer%" %haslyrics%–tag-from-file=LYRICS="%lyricsfile%"%haslyrics% -T "DISCNUMBER=%cdnumber%" -T "TOTALDISCS=%totalcds%" -T "TOTALTRACKS=%numtracks%" %hascover%–picture="%coverfile%"%hascover% %source% -o %dest%


TOC of the extracted CD

Track | Start | Length | Start sector | End sector
––––––––––––––––––––––––––––-
1 | 0:00.00 | 3:13.33 | 0 | 14507
2 | 3:13.33 | 2:02.12 | 14508 | 23669
3 | 5:15.45 | 3:35.13 | 23670 | 39807
4 | 8:50.58 | 3:43.21 | 39808 | 56553
5 | 12:34.04 | 0:53.31 | 56554 | 60559
6 | 13:27.35 | 2:53.57 | 60560 | 73591
7 | 16:21.17 | 1:09.11 | 73592 | 78777
8 | 17:30.28 | 6:32.12 | 78778 | 108189
9 | 24:02.40 | 1:55.65 | 108190 | 116879
10 | 25:58.30 | 3:51.30 | 116880 | 134234
11 | 29:49.60 | 0:41.41 | 134235 | 137350
12 | 30:31.26 | 5:44.40 | 137351 | 163190
13 | 36:15.66 | 2:15.70 | 163191 | 173385
14 | 38:31.61 | 1:14.37 | 173386 | 178972
15 | 39:46.23 | 1:12.60 | 178973 | 184432
16 | 40:59.08 | 1:15.18 | 184433 | 190075
17 | 42:14.26 | 0:56.08 | 190076 | 194283
18 | 43:10.34 | 1:35.32 | 194284 | 201440
19 | 44:45.66 | 0:34.18 | 201441 | 204008
20 | 45:20.09 | 2:37.18 | 204009 | 215801
21 | 47:57.27 | 1:22.16 | 215802 | 221967
22 | 49:19.43 | 2:51.38 | 221968 | 234830
23 | 52:11.06 | 0:32.60 | 234831 | 237290
24 | 52:43.66 | 7:19.37 | 237291 | 270252
25 | 60:03.28 | 0:50.45 | 270253 | 274047
26 | 60:53.73 | 2:26.18 | 274048 | 285015


Range status and errors

Selected range

Filename C:\Users\Grant\Desktop\Les Boréades de Montréal - Hyver.wav

Peak level 100.0 %
Extraction speed 2.0 X
Range quality 100.0 %
Test CRC 9F23C398
Copy CRC 9F23C398
Copy OK

No errors occurred


AccurateRip summary

Track 1 accurately ripped (confidence 2) [798E1098] (AR v2)
Track 2 accurately ripped (confidence 2) [ABF3615B] (AR v2)
Track 3 accurately ripped (confidence 2) [18A8B132] (AR v2)
Track 4 accurately ripped (confidence 2) [E328A6F6] (AR v2)
Track 5 accurately ripped (confidence 2) [E18220D2] (AR v2)
Track 6 accurately ripped (confidence 2) [B57ECDFC] (AR v2)
Track 7 accurately ripped (confidence 2) [6262CA8F] (AR v2)
Track 8 accurately ripped (confidence 2) [9E169331] (AR v2)
Track 9 accurately ripped (confidence 2) [C6064BCC] (AR v2)
Track 10 accurately ripped (confidence 2) [5FBDA083] (AR v2)
Track 11 accurately ripped (confidence 2) [B277032E] (AR v2)
Track 12 accurately ripped (confidence 2) [D1EAD1C0] (AR v2)
Track 13 accurately ripped (confidence 2) [3046DD03] (AR v2)
Track 14 accurately ripped (confidence 2) [AF426B87] (AR v2)
Track 15 accurately ripped (confidence 2) [362A839C] (AR v2)
Track 16 accurately ripped (confidence 2) [3474DEBD] (AR v2)
Track 17 accurately ripped (confidence 2) [D130F427] (AR v2)
Track 18 accurately ripped (confidence 2) [E385C787] (AR v2)
Track 19 accurately ripped (confidence 1) [D41C59F0] (AR v2)
Track 20 accurately ripped (confidence 1) [B66B0BA5] (AR v2)
Track 21 accurately ripped (confidence 1) [500D3FE4] (AR v2)
Track 22 accurately ripped (confidence 1) [6AB702B4] (AR v2)
Track 23 accurately ripped (confidence 1) [EAECCBB2] (AR v2)
Track 24 accurately ripped (confidence 1) [9FEC12F0] (AR v2)
Track 25 accurately ripped (confidence 1) [6542D9E4] (AR v2)
Track 26 accurately ripped (confidence 1) [9CCA8473] (AR v2)

All tracks accurately ripped

End of status report

–– CUETools DB Plugin V2.1.6

[CTDB TOCID: c_omdv_7c_Y3ej1xPPsImyiuxFw-] found
Submit result: c_omdv_7c_Y3ej1xPPsImyiuxFw- has been confirmed
Track | CTDB Status
1 | (4/4) Accurately ripped
2 | (4/4) Accurately ripped
3 | (4/4) Accurately ripped
4 | (4/4) Accurately ripped
5 | (4/4) Accurately ripped
6 | (4/4) Accurately ripped
7 | (4/4) Accurately ripped
8 | (4/4) Accurately ripped
9 | (4/4) Accurately ripped
10 | (4/4) Accurately ripped
11 | (4/4) Accurately ripped
12 | (4/4) Accurately ripped
13 | (4/4) Accurately ripped
14 | (4/4) Accurately ripped
15 | (4/4) Accurately ripped
16 | (4/4) Accurately ripped
17 | (4/4) Accurately ripped
18 | (4/4) Accurately ripped
19 | (4/4) Accurately ripped
20 | (4/4) Accurately ripped
21 | (4/4) Accurately ripped
22 | (4/4) Accurately ripped
23 | (4/4) Accurately ripped
24 | (4/4) Accurately ripped
25 | (4/4) Accurately ripped
26 | (3/4) Accurately ripped


==== Log checksum 9D36F08C8D1B5A008AEAC761FE42021052FA836B775134213AE20180586D0D93 ====

Thanks to the Original ripper (unknown)!

Download: