Tags
Language
Tags

Katatonia - Last Fair Deal Gone Down (2001) [2CD 10th Anniversary Edition 2011]

Posted By: gribovar
Katatonia - Last Fair Deal Gone Down (2001) [2CD 10th Anniversary Edition 2011]

Katatonia - Last Fair Deal Gone Down (2001) [2CD 10th Anniversary Edition 2011]
EAC Rip | FLAC (tracks+.cue+log) - 474 MB | MP3 CBR 320 kbps (LAME 3.93) - 163 MB | Covers - 95 MB
Genre: Progressive Metal | RAR 3% Rec. | Label: Peaceville Records (CDVILED335X)

Whether or not this album's title refers to bluesman Robert Johnson's classic song of the same name, Katatonia is still singing the blues in their own way here, even if their style has nothing else to do with the blues as a genre. Continuing in the vein of their previous release, Tonight's Decision, this is depressing, heavy alternative rock with a notable Cure influence - Katatonia is not really playing metal anymore here. The production has been sharpened on this album compared to its predecessor, accentuating the quiet verse/loud chorus dynamics the band so often uses, making the loud parts hit harder and the softer parts come through with more detail. Meanwhile, frontman Jonas Renske has continued to grow as a vocalist, showing greater range while also maintaining that worried, defeated delivery. Not many singers can trot out chorus after chorus of woeful lyrics such as "Burn down my house/Stab me in the heart" ("Chrome") and "When you have no one/No one can hurt you" ("Don't Tell a Soul") and make it sound so convincing. Song-wise, there are obvious standouts - "Teargas," "Clean Today," and "Sweet Nurse" - but the album is well-paced and consistent throughout, the only real weak spot being the chorus on "We Must Bury You," where Renske reaches a little too hard for the high notes. That's a minor quibble, though; this is an excellent album on the whole: heavy, tuneful, and thick with atmosphere and melancholy.

CD 1 Tracklist:
01. Dispossession
02. Chrome
03. We Must Bury You
04. Teargas
05. I Transpire
06. Tonight's Music
07. Clean Today
08. The Future Of Speech
09. Passing Bird
10. Sweet Nurse
11. Don't Tell A Soul

Total time: 50:54

CD 2 Tracklist:
01. Sulfur
02. March 4
03. Help Me Disappear
04. O How I Enjoy the Light

Total time: 18:17

Exact Audio Copy V1.0 beta 3 from 29. August 2011

EAC extraction logfile from 15. December 2014, 19:42

Katatonia / Last Fair Deal Gone Down

Used drive : Optiarc DVD RW AD-5280S Adapter: 0 ID: 0

Read mode : Secure
Utilize accurate stream : Yes
Defeat audio cache : Yes
Make use of C2 pointers : No

Read offset correction : 48
Overread into Lead-In and Lead-Out : No
Fill up missing offset samples with silence : Yes
Delete leading and trailing silent blocks : No
Null samples used in CRC calculations : Yes
Used interface : Native Win32 interface for Win NT & 2000
Gap handling : Appended to previous track

Used output format : User Defined Encoder
Selected bitrate : 768 kBit/s
Quality : High
Add ID3 tag : No
Command line compressor : C:\Program Files (x86)\Exact Audio Copy\FLAC\FLAC.EXE
Additional command line options : -V -8 -T "Genre=%genre%" -T "Artist=%artist%" -T "Title=%title%" -T "Album=%albumtitle%" -T "Date=%year%" -T "Tracknumber=%tracknr%" -T "Comment=%comment%" %source%


TOC of the extracted CD

Track | Start | Length | Start sector | End sector
––––––––––––––––––––––––––––-
1 | 0:00.00 | 5:37.36 | 0 | 25310
2 | 5:37.36 | 5:15.22 | 25311 | 48957
3 | 10:52.58 | 2:51.67 | 48958 | 61849
4 | 13:44.50 | 3:24.11 | 61850 | 77160
5 | 17:08.61 | 5:57.37 | 77161 | 103972
6 | 23:06.23 | 4:21.54 | 103973 | 123601
7 | 27:28.02 | 4:24.37 | 123602 | 143438
8 | 31:52.39 | 5:41.60 | 143439 | 169073
9 | 37:34.24 | 3:39.17 | 169074 | 185515
10 | 41:13.41 | 3:58.07 | 185516 | 203372
11 | 45:11.48 | 5:42.72 | 203373 | 229094


Track 1

Filename G:\Last Fair Deal Gone Down\01. Dispossession.wav

Pre-gap length 0:00:02.00

Peak level 100.0 %
Extraction speed 2.5 X
Track quality 100.0 %
Test CRC 0B0556E4
Copy CRC 0B0556E4
Accurately ripped (confidence 11) [BEA0B913] (AR v2)
Copy OK

Track 2

Filename G:\Last Fair Deal Gone Down\02. Chrome.wav

Pre-gap length 0:00:01.00

Peak level 100.0 %
Extraction speed 2.8 X
Track quality 100.0 %
Test CRC 3EE34E24
Copy CRC 3EE34E24
Accurately ripped (confidence 11) [8CC52884] (AR v2)
Copy OK

Track 3

Filename G:\Last Fair Deal Gone Down\03. We Must Bury You.wav

Pre-gap length 0:00:01.00

Peak level 100.0 %
Extraction speed 2.8 X
Track quality 100.0 %
Test CRC 10298662
Copy CRC 10298662
Accurately ripped (confidence 11) [4FDF73AE] (AR v2)
Copy OK

Track 4

Filename G:\Last Fair Deal Gone Down\04. Teargas.wav

Pre-gap length 0:00:01.00

Peak level 100.0 %
Extraction speed 2.6 X
Track quality 99.9 %
Test CRC FA25622B
Copy CRC FA25622B
Accurately ripped (confidence 11) [8101CDA1] (AR v2)
Copy OK

Track 5

Filename G:\Last Fair Deal Gone Down\05. I Transpire.wav

Pre-gap length 0:00:01.00

Peak level 98.4 %
Extraction speed 3.5 X
Track quality 100.0 %
Test CRC C785755E
Copy CRC C785755E
Accurately ripped (confidence 11) [225D7682] (AR v2)
Copy OK

Track 6

Filename G:\Last Fair Deal Gone Down\06. Tonight's Music.wav

Pre-gap length 0:00:01.00

Peak level 99.6 %
Extraction speed 3.6 X
Track quality 100.0 %
Test CRC AAD877F1
Copy CRC AAD877F1
Accurately ripped (confidence 11) [B3CF0753] (AR v2)
Copy OK

Track 7

Filename G:\Last Fair Deal Gone Down\07. Clean Today.wav

Pre-gap length 0:00:01.00

Peak level 99.6 %
Extraction speed 3.8 X
Track quality 100.0 %
Test CRC 7A38ECCB
Copy CRC 7A38ECCB
Accurately ripped (confidence 11) [28CEB026] (AR v2)
Copy OK

Track 8

Filename G:\Last Fair Deal Gone Down\08. The Future Of Speech.wav

Pre-gap length 0:00:01.00

Peak level 99.6 %
Extraction speed 4.2 X
Track quality 100.0 %
Test CRC 13B0AD50
Copy CRC 13B0AD50
Accurately ripped (confidence 11) [A7FDACAE] (AR v2)
Copy OK

Track 9

Filename G:\Last Fair Deal Gone Down\09. Passing Bird.wav

Pre-gap length 0:00:01.00

Peak level 99.6 %
Extraction speed 4.1 X
Track quality 100.0 %
Test CRC B8269E79
Copy CRC B8269E79
Accurately ripped (confidence 11) [ADC6A2C6] (AR v2)
Copy OK

Track 10

Filename G:\Last Fair Deal Gone Down\10. Sweet Nurse.wav

Pre-gap length 0:00:01.00

Peak level 100.0 %
Extraction speed 4.3 X
Track quality 100.0 %
Test CRC 1A9FE6BA
Copy CRC 1A9FE6BA
Accurately ripped (confidence 11) [A4FA38FC] (AR v2)
Copy OK

Track 11

Filename G:\Last Fair Deal Gone Down\11. Don't Tell A Soul.wav

Pre-gap length 0:00:01.00

Peak level 99.6 %
Extraction speed 4.2 X
Track quality 99.9 %
Test CRC 37AF5A81
Copy CRC 37AF5A81
Accurately ripped (confidence 11) [8B0A5CA7] (AR v2)
Copy OK


All tracks accurately ripped

No errors occurred

End of status report

–– CUETools DB Plugin V2.1.3

[CTDB TOCID: WP.tWXe6a2lpKD2IoD2TF3DW0Z8-] found, Submit result: WP.tWXe6a2lpKD2IoD2TF3DW0Z8- has been confirmed
[e6bec60d] (15/15) Accurately ripped


==== Log checksum 30CE616E6DB1D1A147C54B0D8238B0D5BCBD229E61C67B55E2F7B7A6D08D24CA ====

[CUETools log; Date: 25.11.2021 20:16:55; Version: 2.1.4]
[CTDB TOCID: WP.tWXe6a2lpKD2IoD2TF3DW0Z8-] found.
Track | CTDB Status
1 | (103/103) Accurately ripped
2 | (103/103) Accurately ripped
3 | (103/103) Accurately ripped
4 | (103/103) Accurately ripped
5 | (103/103) Accurately ripped
6 | (103/103) Accurately ripped
7 | (103/103) Accurately ripped
8 | (102/103) Accurately ripped
9 | (103/103) Accurately ripped
10 | (103/103) Accurately ripped
11 | (103/103) Accurately ripped
[AccurateRip ID: 0014ecd8-00b4843f-910bee0b] found.
Track [ CRC | V2 ] Status
01 [6e6273df|bea0b913] (02+15/44) Accurately ripped
02 [4109791f|8cc52884] (02+15/44) Accurately ripped
03 [b697d262|4fdf73ae] (02+15/44) Accurately ripped
04 [abcbb098|8101cda1] (02+15/44) Accurately ripped
05 [9647a656|225d7682] (02+15/44) Accurately ripped
06 [c88e7bed|b3cf0753] (02+15/44) Accurately ripped
07 [83479c7e|28ceb026] (02+15/44) Accurately ripped
08 [4d67b780|a7fdacae] (02+15/44) Accurately ripped
09 [8bae9d42|adc6a2c6] (02+15/44) Accurately ripped
10 [aad0926a|a4fa38fc] (02+15/44) Accurately ripped
11 [28c75fe3|8b0a5ca7] (02+16/45) Accurately ripped
Offsetted by -676:
01 [9899d537] (00/44) No match (V2 was not tested)
02 [fa9c85b7] (00/44) No match (V2 was not tested)
03 [c9db4046] (00/44) No match (V2 was not tested)
04 [d61e33a8] (00/44) No match (V2 was not tested)
05 [f4d04036] (00/44) No match (V2 was not tested)
06 [3a4671c5] (00/44) No match (V2 was not tested)
07 [5ce3dc16] (00/44) No match (V2 was not tested)
08 [128f55dc] (00/44) No match (V2 was not tested)
09 [23a38c6e] (00/44) No match (V2 was not tested)
10 [de75621a] (00/44) No match (V2 was not tested)
11 [4673a157] (00/45) No match (V2 was not tested)

Track Peak [ CRC32 ] [W/O NULL] [ LOG ]
– 100,0 [B94A77C0] [F3236CB1]
01 100,0 [0B0556E4] [BF654175] CRC32
02 100,0 [3EE34E24] [F61D2EC3] CRC32
03 100,0 [10298662] [3F82CDAC] CRC32
04 100,0 [FA25622B] [9FF86819] CRC32
05 98,4 [C785755E] [6DED28C7] CRC32
06 99,6 [AAD877F1] [6BB1CDEC] CRC32
07 99,6 [7A38ECCB] [9A0781FD] CRC32
08 99,6 [13B0AD50] [81F93A1C] CRC32
09 99,6 [B8269E79] [8505D328] CRC32
10 100,0 [1A9FE6BA] [B708584B] CRC32
11 99,6 [37AF5A81] [1147B611] CRC32

Exact Audio Copy V1.0 beta 3 from 29. August 2011

EAC extraction logfile from 15. December 2014, 19:52

Katatonia / Last Fair Deal Gone Down (Bonus CD)

Used drive : Optiarc DVD RW AD-5280S Adapter: 0 ID: 0

Read mode : Secure
Utilize accurate stream : Yes
Defeat audio cache : Yes
Make use of C2 pointers : No

Read offset correction : 48
Overread into Lead-In and Lead-Out : No
Fill up missing offset samples with silence : Yes
Delete leading and trailing silent blocks : No
Null samples used in CRC calculations : Yes
Used interface : Native Win32 interface for Win NT & 2000
Gap handling : Appended to previous track

Used output format : User Defined Encoder
Selected bitrate : 768 kBit/s
Quality : High
Add ID3 tag : No
Command line compressor : C:\Program Files (x86)\Exact Audio Copy\FLAC\FLAC.EXE
Additional command line options : -V -8 -T "Genre=%genre%" -T "Artist=%artist%" -T "Title=%title%" -T "Album=%albumtitle%" -T "Date=%year%" -T "Tracknumber=%tracknr%" -T "Comment=%comment%" %source%


TOC of the extracted CD

Track | Start | Length | Start sector | End sector
––––––––––––––––––––––––––––-
1 | 0:00.00 | 6:24.41 | 0 | 28840
2 | 6:24.41 | 3:53.27 | 28841 | 46342
3 | 10:17.68 | 5:15.57 | 46343 | 70024
4 | 15:33.50 | 2:44.06 | 70025 | 82330


Track 1

Filename G:\Last Fair Deal Gone Down (Bonus CD)\01. Sulfur.wav

Pre-gap length 0:00:02.00

Peak level 100.0 %
Extraction speed 4.9 X
Track quality 100.0 %
Test CRC DF6121B2
Copy CRC DF6121B2
Accurately ripped (confidence 9) [0EBDCC6B] (AR v2)
Copy OK

Track 2

Filename G:\Last Fair Deal Gone Down (Bonus CD)\02. March 4.wav

Pre-gap length 0:00:02.00

Peak level 99.6 %
Extraction speed 3.7 X
Track quality 99.9 %
Test CRC BF7F5572
Copy CRC BF7F5572
Accurately ripped (confidence 9) [AE083DE0] (AR v2)
Copy OK

Track 3

Filename G:\Last Fair Deal Gone Down (Bonus CD)\03. Help Me Disappear.wav

Pre-gap length 0:00:02.00

Peak level 100.0 %
Extraction speed 5.8 X
Track quality 100.0 %
Test CRC EDDA74C5
Copy CRC EDDA74C5
Accurately ripped (confidence 9) [C2820609] (AR v2)
Copy OK

Track 4

Filename G:\Last Fair Deal Gone Down (Bonus CD)\04. O How I Enjoy the Light.wav

Pre-gap length 0:00:02.00

Peak level 99.1 %
Extraction speed 5.7 X
Track quality 100.0 %
Test CRC 1978D88F
Copy CRC 1978D88F
Accurately ripped (confidence 9) [E587A034] (AR v2)
Copy OK


All tracks accurately ripped

No errors occurred

End of status report

–– CUETools DB Plugin V2.1.3

[CTDB TOCID: NQYOuue52SGSgySBy09Jiy0lXmA-] found, Submit result: NQYOuue52SGSgySBy09Jiy0lXmA- has been confirmed
[fb198725] (14/14) Accurately ripped


==== Log checksum E9D3A38CE2189A32F8E13D5CB5A253D17EF2806B95BB3F145B0D8E970B361F32 ====

[CUETools log; Date: 25.11.2021 20:17:12; Version: 2.1.4]
[CTDB TOCID: NQYOuue52SGSgySBy09Jiy0lXmA-] found.
Track | CTDB Status
1 | (96/97) Accurately ripped
2 | (97/97) Accurately ripped
3 | (97/97) Accurately ripped
4 | (97/97) Accurately ripped
[AccurateRip ID: 000378d4-000d8e93-34044904] found.
Track [ CRC | V2 ] Status
01 [15c4ba25|0ebdcc6b] (02+13/40) Accurately ripped
02 [7f48bb7e|ae083de0] (03+13/41) Accurately ripped
03 [c9109bfe|c2820609] (03+13/41) Accurately ripped
04 [e688682b|e587a034] (03+14/42) Accurately ripped
Offsetted by -676:
01 [7497afc1] (00/40) No match (V2 was not tested)
02 [45a52796] (00/41) No match (V2 was not tested)
03 [b49c1812] (00/41) No match (V2 was not tested)
04 [26497567] (00/42) No match (V2 was not tested)

Track Peak [ CRC32 ] [W/O NULL] [ LOG ]
– 100,0 [EB885856] [996CDD15]
01 100,0 [DF6121B2] [34495071] CRC32
02 99,6 [BF7F5572] [CA99A089] CRC32
03 100,0 [EDDA74C5] [9117E456] CRC32
04 99,1 [1978D88F] [B19B2859] CRC32

Thanks to the original releaser

See also:
Katatonia - Viva Emptiness (2003) [10th Anniversary Edition 2013]
Katatonia - Night is the New D...10th Anniversary Edition 2019]
Katatonia - The Fall of Hearts (2016) [Japanese Edition]