Tags
Language
Tags

Katatonia - Night is the New Day (2009) [2CD 10th Anniversary Edition 2019]

Posted By: gribovar
Katatonia - Night is the New Day (2009) [2CD 10th Anniversary Edition 2019]

Katatonia - Night is the New Day (2009) [2CD 10th Anniversary Edition 2019]
EAC Rip | FLAC (image+.cue+log) - 630 MB | Covers - 81 MB
Genre: Atmospheric/Progressive Metal | RAR 3% Rec. | Label: Peaceville (EBVILE019)

This album from Katatonia, their first studio effort since 2006, is as moody and beautiful as their other latter-day work. The group's career can be marked in two stages based on the condition of singer Jonas Renske's vocal cords - basically, after the band's first two albums, he developed health problems that prevented him from performing harsh death growls, and ever since the band has moved in an increasingly melodic direction, even covering songs by Will Oldham and Jeff Buckley. It's unsurprising to learn that Opeth's Mikael Åkerfeldt helped out by performing the harsh vocals on Katatonia's Brave Murder Day album and Sounds of Decay EP in 1996 and 1997, since Night Is the New Day songs "Forsaker" and "Idle Blood" could be outtakes from that band's Damnation or Blackwater Park. Other tracks like "The Longest Year," the hilariously titled "Onward into Battle" (a song this slow and lush would only inspire soldiers to lie down for a nap), and "Liberation" are slightly more unique with their use of programmed rhythms and trip-hop keyboards beneath and behind the crunching guitars. Overall, this is a very beautiful and reflective album, though at this point Katatonia are only notionally a metal band, much more focused on moody (as in Moody Blues) beauty than vulgar displays of power.

CD 1 Tracklist:
01. Forsaker
02. The Longest Year
03. Idle Blood
04. Onward Into Battle
05. Liberation
06. The Promise Of Deceit
07. Nephilim
08. New Night
09. Inheritance
10. Day And Then The Shade
11. Departer

Total time: 48:32

CD 2 Tracklist:
01. Ashen
02. Sold Heart
03. Day And Then The Shade (Frank Default remix)
04. Idle Blood (Linje 14)
05. Forsaker (live at Summer Breeze 2012)
06. Liberation (live at Summer Breeze 2012)
07. The Promise Of Deceit (live at Koko 2011)
08. The Longest Year (live at Koko 2011)
09. Nephilim (live at Koko 2011)
10. New Night (live at Koko 2011)
11. Idle Blood (live at Union Chapel 2014)

Total time: 48:30

Exact Audio Copy V1.3 from 2. September 2016

EAC extraction logfile from 7. June 2019, 17:41

KATATONIA / Night Is The New Day - 10th Ann. Deluxe Ed. - CD1

Used drive : ASUS DRW-24D5MT Adapter: 1 ID: 0

Read mode : Secure
Utilize accurate stream : Yes
Defeat audio cache : Yes
Make use of C2 pointers : No

Read offset correction : 6
Overread into Lead-In and Lead-Out : No
Fill up missing offset samples with silence : Yes
Delete leading and trailing silent blocks : No
Null samples used in CRC calculations : Yes
Used interface : Native Win32 interface for Win NT & 2000

Used output format : User Defined Encoder
Selected bitrate : 768 kBit/s
Quality : High
Add ID3 tag : No
Command line compressor : C:\Program Files (x86)\Exact Audio Copy\FLAC\FLAC.EXE
Additional command line options : -6 -V -T "ARTIST=%artist%" -T "TITLE=%title%" -T "ALBUM=%albumtitle%" -T "DATE=%year%" -T "TRACKNUMBER=%tracknr%" -T "GENRE=%genre%" -T "COMMENT=%comment%" -T "BAND=%albuminterpret%" -T "ALBUMARTIST=%albuminterpret%" -T "COMPOSER=%composer%" %haslyrics%–tag-from-file=LYRICS="%lyricsfile%"%haslyrics% -T "DISCNUMBER=%cdnumber%" -T "TOTALDISCS=%totalcds%" -T "TOTALTRACKS=%numtracks%" %hascover%–picture="%coverfile%"%hascover% %source% -o %dest%


TOC of the extracted CD

Track | Start | Length | Start sector | End sector
––––––––––––––––––––––––––––-
1 | 0:00.00 | 4:03.44 | 0 | 18268
2 | 4:03.44 | 4:37.50 | 18269 | 39093
3 | 8:41.19 | 4:21.38 | 39094 | 58706
4 | 13:02.57 | 3:50.06 | 58707 | 75962
5 | 16:52.63 | 4:16.30 | 75963 | 95192
6 | 21:09.18 | 4:15.61 | 95193 | 114378
7 | 25:25.04 | 4:25.29 | 114379 | 134282
8 | 29:50.33 | 4:25.55 | 134283 | 154212
9 | 34:16.13 | 4:28.20 | 154213 | 174332
10 | 38:44.33 | 4:27.10 | 174333 | 194367
11 | 43:11.43 | 5:20.49 | 194368 | 218416


Range status and errors

Selected range

Filename E:\Música\EAC\Katatonia\KATATONIA - Night Is The New Day - 10th Ann. Deluxe Ed. - CD1.wav

Peak level 91.7 %
Extraction speed 1.6 X
Range quality 100.0 %
Test CRC CAD2F6C2
Copy CRC CAD2F6C2
Copy OK

No errors occurred


AccurateRip summary

Track 1 not present in database
Track 2 not present in database
Track 3 not present in database
Track 4 not present in database
Track 5 not present in database
Track 6 not present in database
Track 7 not present in database
Track 8 not present in database
Track 9 not present in database
Track 10 not present in database
Track 11 not present in database

None of the tracks are present in the AccurateRip database

End of status report

–– CUETools DB Plugin V2.1.6

[CTDB TOCID: NA1bj2jNpMeeESfuD8R35Dl7ybA-] found
Submit result: NA1bj2jNpMeeESfuD8R35Dl7ybA- has been confirmed
Track | CTDB Status
1 | (2/2) Accurately ripped
2 | (2/2) Accurately ripped
3 | (2/2) Accurately ripped
4 | (2/2) Accurately ripped
5 | (2/2) Accurately ripped
6 | (2/2) Accurately ripped
7 | (2/2) Accurately ripped
8 | (2/2) Accurately ripped
9 | (2/2) Accurately ripped
10 | (2/2) Accurately ripped
11 | (2/2) Accurately ripped


==== Log checksum 9927B6F1AFCA44C6A420FDBB02CA365666148D9FF2B3E87AC0D46D7DC993CF27 ====

[CUETools log; Date: 23.06.2019 21:00:10; Version: 2.1.4]
[CTDB TOCID: NA1bj2jNpMeeESfuD8R35Dl7ybA-] found.
Track | CTDB Status
1 | (4/4) Accurately ripped
2 | (4/4) Accurately ripped
3 | (4/4) Accurately ripped
4 | (4/4) Accurately ripped
5 | (4/4) Accurately ripped
6 | (4/4) Accurately ripped
7 | (4/4) Accurately ripped
8 | (4/4) Accurately ripped
9 | (4/4) Accurately ripped
10 | (4/4) Accurately ripped
11 | (4/4) Accurately ripped
[AccurateRip ID: 00137d23-00a97246-8c0b600b] disk not present in database.

Track Peak [ CRC32 ] [W/O NULL] [ LOG ]
– 91,7 [CAD2F6C2] [CDB83A86] CRC32
01 91,7 [5B04FA6C] [E022A1A7]
02 91,7 [5A643EC5] [8833EF1A]
03 91,7 [0C8CC246] [B834A4FA]
04 91,7 [E64A9F02] [42767472]
05 91,7 [2AACCE95] [27680C15]
06 91,7 [A79D9B52] [99D56B6B]
07 91,7 [8B76D6FA] [75CD775E]
08 91,7 [4AA6340D] [459276C2]
09 91,7 [EB21166E] [0F7383E1]
10 91,7 [D9EB6146] [28939577]
11 91,7 [753351EC] [D085413C]

Exact Audio Copy V1.3 from 2. September 2016

EAC extraction logfile from 7. June 2019, 12:03

KATATONIA / Night Is The New Day - 10th Ann. Deluxe Ed. - CD2

Used drive : ASUS DRW-24D5MT Adapter: 1 ID: 0

Read mode : Secure
Utilize accurate stream : Yes
Defeat audio cache : Yes
Make use of C2 pointers : No

Read offset correction : 6
Overread into Lead-In and Lead-Out : No
Fill up missing offset samples with silence : Yes
Delete leading and trailing silent blocks : No
Null samples used in CRC calculations : Yes
Used interface : Native Win32 interface for Win NT & 2000

Used output format : User Defined Encoder
Selected bitrate : 768 kBit/s
Quality : High
Add ID3 tag : No
Command line compressor : C:\Program Files (x86)\Exact Audio Copy\FLAC\FLAC.EXE
Additional command line options : -6 -V -T "ARTIST=%artist%" -T "TITLE=%title%" -T "ALBUM=%albumtitle%" -T "DATE=%year%" -T "TRACKNUMBER=%tracknr%" -T "GENRE=%genre%" -T "COMMENT=%comment%" -T "BAND=%albuminterpret%" -T "ALBUMARTIST=%albuminterpret%" -T "COMPOSER=%composer%" %haslyrics%–tag-from-file=LYRICS="%lyricsfile%"%haslyrics% -T "DISCNUMBER=%cdnumber%" -T "TOTALDISCS=%totalcds%" -T "TOTALTRACKS=%numtracks%" %hascover%–picture="%coverfile%"%hascover% %source% -o %dest%


TOC of the extracted CD

Track | Start | Length | Start sector | End sector
––––––––––––––––––––––––––––-
1 | 0:00.00 | 4:10.45 | 0 | 18794
2 | 4:10.45 | 4:35.32 | 18795 | 39451
3 | 8:46.02 | 5:37.35 | 39452 | 64761
4 | 14:23.37 | 3:23.22 | 64762 | 80008
5 | 17:46.59 | 4:06.43 | 80009 | 98501
6 | 21:53.27 | 4:21.69 | 98502 | 118145
7 | 26:15.21 | 4:08.33 | 118146 | 136778
8 | 30:23.54 | 4:36.49 | 136779 | 157527
9 | 35:00.28 | 4:26.22 | 157528 | 177499
10 | 39:26.50 | 4:30.27 | 177500 | 197776
11 | 43:57.02 | 4:32.69 | 197777 | 218245


Range status and errors

Selected range

Filename E:\Música\EAC\Katatonia\KATATONIA - Night Is The New Day - 10th Ann. Deluxe Ed. - CD2.wav

Peak level 90.0 %
Extraction speed 5.3 X
Range quality 99.9 %
Test CRC 78979216
Copy CRC 78979216
Copy OK

No errors occurred


AccurateRip summary

Track 1 not present in database
Track 2 not present in database
Track 3 not present in database
Track 4 not present in database
Track 5 not present in database
Track 6 not present in database
Track 7 not present in database
Track 8 not present in database
Track 9 not present in database
Track 10 not present in database
Track 11 not present in database

None of the tracks are present in the AccurateRip database

End of status report

–– CUETools DB Plugin V2.1.6

[CTDB TOCID: WLs2glDWu7PPn_TRhN4kFkcXMG0-] found
Submit result: WLs2glDWu7PPn_TRhN4kFkcXMG0- has been confirmed
Track | CTDB Status
1 | (2/2) Accurately ripped
2 | (2/2) Accurately ripped
3 | (2/2) Accurately ripped
4 | (2/2) Accurately ripped
5 | (2/2) Accurately ripped
6 | (2/2) Accurately ripped
7 | (2/2) Accurately ripped
8 | (2/2) Accurately ripped
9 | (2/2) Accurately ripped
10 | (2/2) Accurately ripped
11 | (2/2) Accurately ripped


==== Log checksum 2859CEBE9C9BECEBC7EC9CB2C6827FC65D8B4A474EED844601C57BDFE19EDB2A ====

[CUETools log; Date: 23.06.2019 21:02:07; Version: 2.1.4]
[CTDB TOCID: WLs2glDWu7PPn_TRhN4kFkcXMG0-] found.
Track | CTDB Status
1 | (4/4) Accurately ripped
2 | (4/4) Accurately ripped
3 | (4/4) Accurately ripped
4 | (4/4) Accurately ripped
5 | (4/4) Accurately ripped
6 | (4/4) Accurately ripped
7 | (4/4) Accurately ripped
8 | (4/4) Accurately ripped
9 | (4/4) Accurately ripped
10 | (4/4) Accurately ripped
11 | (4/4) Accurately ripped
[AccurateRip ID: 0013f368-00aca57d-960b5d0b] disk not present in database.

Track Peak [ CRC32 ] [W/O NULL] [ LOG ]
– 90,0 [78979216] [84C05272] CRC32
01 90,0 [1581BE06] [30AC3E14]
02 90,0 [8C522547] [E428B3F2]
03 90,0 [51A463B3] [B98517AD]
04 90,0 [05BFA795] [3FF46D4B]
05 90,0 [CD919872] [B63881A3]
06 90,0 [472FABCA] [74219DE3]
07 90,0 [67480BC7] [3967F7C8]
08 90,0 [E3B2E10C] [2A5DE381]
09 90,0 [8D0418BB] [C088DD1F]
10 90,0 [9595664C] [FF6E870B]
11 90,0 [9399B95D] [05B0AF76]