Tags
Language
Tags

Kate Bush - The Red Shoes (1993) [Japanese Edition]

Posted By: v3122
Kate Bush - The Red Shoes (1993) [Japanese Edition]

Kate Bush - The Red Shoes (1993)
EAC | Flac(Image) + Cue + Log & MP3 CBR 320Kbps
1993 | EMI/Novercia, TOCP-7947 | ~ 337 or 131 Mb | Scans(png) -> 122 Mb
Pop Rock

The album is a continuation of Bush's multi-layered and multiple musical pursuits and interests. If not her strongest work – a number of songs sound okay without being particularly stellar, especially given Bush's past heights – Red Shoes is still an enjoyable listen with a number of diversions. The guest performer list is worthy of note alone, ranging from Procol Harum pianist Gary Brooker and Eric Clapton to Prince, but this is very much a Kate Bush album straight up as opposed to a collaborative work like, say, Santana's Supernatural. Opening song "Rubberband Girl" is actually one of her strongest singles in years, a big and punchy song served well with a horn section, though slightly let down by the stiff percussion. "Eat the Music," another smart choice for a single, mixes calypso and other Caribbean musical touches with a great, classically Bush lyric mixing up sexuality, romance, and various earthy food-based metaphors. Another highlight of Bush's frank embrace of the lustier side of life is "The Song of Solomon," a celebratory piece about the Bible's openly erotic piece. Those who prefer her predominantly piano and vocal pieces will enjoy "Moments of Pleasure" with a strong string arrangement courtesy of Michael Kamen. Other standouts include "Why Should I Love You?" with Prince creating a very Prince-like arrangement and backing chorus for Bush (and doing quite well at that) and the concluding "You're the One," featuring Brooker.

by Ned Raggett, allmusic
Kate Bush - The Red Shoes (1993):

Kate Bush - The Red Shoes (1993) [Japanese Edition]

Tracklist:

01. Rubberband Girl 4:45
02. And So Is Love 4:18
03. Eat The Music 5:11
04. Moments Of Pleasure 5:17
05. The Song Of Solomon 4:28
06. Lily 3:53
07. The Red Shoes 4:02
08. Top Of The City 4:14
09. Constellation Of The Heart 4:47
10. Big Stripey Lie 3:33
11. Why Should I Love You 5:02
12. You're The One 5:52

Exact Audio Copy V1.0 beta 3 from 29. August 2011

EAC extraction logfile from 13. October 2014, 22:34

Kate Bush / The Red Shoes (TOCP-7947)

Used drive : HL-DT-STDVDRAM GE20NU11 Adapter: 0 ID: 1

Read mode : Secure
Utilize accurate stream : Yes
Defeat audio cache : Yes
Make use of C2 pointers : No

Read offset correction : 667
Overread into Lead-In and Lead-Out : No
Fill up missing offset samples with silence : Yes
Delete leading and trailing silent blocks : No
Null samples used in CRC calculations : Yes
Used interface : Native Win32 interface for Win NT & 2000

Used output format : User Defined Encoder
Selected bitrate : 896 kBit/s
Quality : High
Add ID3 tag : No
Command line compressor : C:\Program Files\EAC 3\Exact Audio Copy\Flac\flac.exe
Additional command line options : -V -8 %source%


TOC of the extracted CD

Track | Start | Length | Start sector | End sector
––––––––––––––––––––––––––––-
1 | 0:00.00 | 4:45.02 | 0 | 21376
2 | 4:45.02 | 4:18.00 | 21377 | 40726
3 | 9:03.02 | 5:11.33 | 40727 | 64084
4 | 14:14.35 | 5:17.70 | 64085 | 87929
5 | 19:32.30 | 4:28.45 | 87930 | 108074
6 | 24:01.00 | 3:53.10 | 108075 | 125559
7 | 27:54.10 | 4:02.62 | 125560 | 143771
8 | 31:56.72 | 4:14.55 | 143772 | 162876
9 | 36:11.52 | 4:47.28 | 162877 | 184429
10 | 40:59.05 | 3:33.27 | 184430 | 200431
11 | 44:32.32 | 5:02.33 | 200432 | 223114
12 | 49:34.65 | 5:52.57 | 223115 | 249571


Range status and errors

Selected range

Filename C:\OdW\Kate Bush\(1993) The Red Shoes (TOCP-7947)\Kate Bush - The Red Shoes (TOCP-7947).wav

Peak level 100.0 %
Extraction speed 2.0 X
Range quality 99.9 %
Test CRC 8DF04A96
Copy CRC 8DF04A96
Copy OK

No errors occurred


AccurateRip summary

Track 1 accurately ripped (confidence 7) [24A67DC2] (AR v2)
Track 2 accurately ripped (confidence 7) [5E53AE44] (AR v2)
Track 3 accurately ripped (confidence 7) [3D2135F9] (AR v2)
Track 4 accurately ripped (confidence 7) [6A9E526C] (AR v2)
Track 5 accurately ripped (confidence 7) [507B1362] (AR v2)
Track 6 accurately ripped (confidence 7) [24103CEB] (AR v2)
Track 7 accurately ripped (confidence 7) [B64E70AB] (AR v2)
Track 8 accurately ripped (confidence 7) [959C1202] (AR v2)
Track 9 accurately ripped (confidence 7) [DB93F008] (AR v2)
Track 10 accurately ripped (confidence 7) [ECBC9B29] (AR v2)
Track 11 accurately ripped (confidence 7) [0FC4E153] (AR v2)
Track 12 accurately ripped (confidence 7) [4A1D48D1] (AR v2)

All tracks accurately ripped

End of status report

==== Log checksum EC77A9477142155D1B9DABD422917F0975EC9FD0905C179A168D4C72E53B6D66 ====

foobar2000 1.2.9 / Dynamic Range Meter 1.1.1
log date: 2017-01-21 17:23:52

––––––––––––––––––––––––––––––––––––––––
Analyzed: Kate Bush / The Red Shoes (TOCP-7947)
––––––––––––––––––––––––––––––––––––––––

DR Peak RMS Duration Track
––––––––––––––––––––––––––––––––––––––––
DR11 -0.22 dB -12.62 dB 4:45 01-Rubberband Girl
DR13 0.00 dB -15.38 dB 4:18 02-And So Is Love
DR12 -0.09 dB -13.68 dB 5:11 03-Eat the Music
DR11 0.00 dB -16.50 dB 5:18 04-Moments of Pleasure
DR13 -1.15 dB -18.76 dB 4:29 05-The Song of Solomon
DR11 -0.50 dB -14.04 dB 3:53 06-Lily
DR12 0.00 dB -13.91 dB 4:03 07-The Red Shoes
DR12 -0.23 dB -16.28 dB 4:15 08-Top of the City
DR13 0.00 dB -16.11 dB 4:47 09-Constellation of the Heart
DR13 -0.01 dB -14.94 dB 3:33 10-Big Stripey Lie
DR13 0.00 dB -16.75 dB 5:02 11-Why Should I Love You?
DR10 -1.10 dB -13.83 dB 5:53 12-You're the One
––––––––––––––––––––––––––––––––––––––––

Number of tracks: 12
Official DR value: DR12

Samplerate: 44100 Hz
Channels: 2
Bits per sample: 16
Bitrate: 827 kbps
Codec: FLAC

[CUETools log; Date: 17.11.2014 21:19:23; Version: 2.1.4]
[CTDB TOCID: SLLVey7F.5vpbUeR5TmCA8KZ9.g-] found.
Track | CTDB Status
1 | (4/4) Accurately ripped
2 | (4/4) Accurately ripped
3 | (4/4) Accurately ripped
4 | (4/4) Accurately ripped
5 | (4/4) Accurately ripped
6 | (4/4) Accurately ripped
7 | (4/4) Accurately ripped
8 | (4/4) Accurately ripped
9 | (4/4) Accurately ripped
10 | (4/4) Accurately ripped
11 | (4/4) Accurately ripped
12 | (4/4) Accurately ripped
[AccurateRip ID: 001898b0-00e48101-b90cff0c] found.
Track [ CRC | V2 ] Status
01 [ed953a16|24a67dc2] (05+07/12) Accurately ripped
02 [e920d6ee|5e53ae44] (05+07/12) Accurately ripped
03 [7f23e5cd|3d2135f9] (05+07/12) Accurately ripped
04 [2aa88742|6a9e526c] (05+07/12) Accurately ripped
05 [0de8005c|507b1362] (05+07/12) Accurately ripped
06 [96b80091|24103ceb] (05+07/12) Accurately ripped
07 [67908b76|b64e70ab] (05+07/12) Accurately ripped
08 [508d5880|959c1202] (05+07/12) Accurately ripped
09 [103fd5d1|db93f008] (05+07/12) Accurately ripped
10 [6463834f|ecbc9b29] (05+07/12) Accurately ripped
11 [a5daec93|0fc4e153] (05+07/12) Accurately ripped
12 [86a70c82|4a1d48d1] (05+07/12) Accurately ripped

Track Peak [ CRC32 ] [W/O NULL] [ LOG ]
– 100,0 [8DF04A96] [C23C9651] CRC32
01 97,5 [0031A9B0] [E9378BF6]
02 100,0 [8724CA5C] [289348E3]
03 98,9 [7B00EA9E] [47D16F99]
04 100,0 [D1DE3440] [68EC6C68]
05 87,6 [1A1CF339] [194CF514]
06 94,3 [295A25E1] [DD181B69]
07 100,0 [254935A5] [F9C565B5]
08 97,3 [9A9DB7EC] [AE418C0E]
09 100,0 [493B16A9] [374DD0F8]
10 99,9 [70356ACA] [9745F0E8]
11 100,0 [C4A3A201] [8F9F142C]
12 88,1 [3B7C6543] [E5DDDE8D]

Kate Bush - The Red Shoes (1993) [Japanese Edition]

All thanks go to Olaf der Weisse

Download Kate Bush - The Red Shoes (1993):