Subcategories

Kate Ceberano - Merry Christmas (2009)

Posted By: socola78
Kate Ceberano - Merry Christmas (2009)

Kate Ceberano - Merry Christmas (2009)
Pop/Soul/Jazz | EAC Rip | Multi FLAC + CUE + LOG + Cover | 43 Min | 295.7 Mb
Label: Mercury | Release date: 13/11/2009

Kate has added her charms to a new level of 'Christmas album', featuring Classics with a twist including White Christmas, I Saw Mummy Kissing Santa Claus, Jingle Bell Rock and Feliz Navidad plus many more!

TrackList
01. White Christmas
02. Feliz Navidad
03. Jingle Bell Rock
04. Santa Baby
05. I Saw Mommy Kissing Santa Claus
06. Have Yourself A Merry Little Christmas
07. Santa Claus Is Coming To Town
08. Jingle Bells
09. The Christmas Song
10. Blue Christmas
11. Happy Christmas (War Is Over)
12. It's Only Christmas (duet with Ronan Keating)

Exact Audio Copy V0.99 prebeta 5 from 4. May 2009

EAC extraction logfile from 19. December 2009, 16:12

Kate Ceberano / Merry Christmas

Used drive : HL-DT-STDVDRAM GSA-4163B Adapter: 1 ID: 0

Read mode : Secure
Utilize accurate stream : Yes
Defeat audio cache : Yes
Make use of C2 pointers : No

Read offset correction : 667
Overread into Lead-In and Lead-Out : No
Fill up missing offset samples with silence : Yes
Delete leading and trailing silent blocks : No
Null samples used in CRC calculations : Yes
Used interface : Native Win32 interface for Win NT & 2000
Gap handling : Appended to previous track

Used output format : User Defined Encoder
Selected bitrate : 128 kBit/s
Quality : High
Add ID3 tag : No
Command line compressor : C:\Program Files\FLAC\flac.exe
Additional command line options : -V -8 -T "artist=%a" -T "title=%t" -T "album=%g" -T "date=%y" -T "tracknumber=%n" -T "genre=%m" %s


TOC of the extracted CD

Track | Start | Length | Start sector | End sector
––––––––––––––––––––––––––––-
1 | 0:00.00 | 3:25.71 | 0 | 15445
2 | 3:25.71 | 3:15.00 | 15446 | 30070
3 | 6:40.71 | 3:35.01 | 30071 | 46196
4 | 10:15.72 | 3:24.20 | 46197 | 61516
5 | 13:40.17 | 3:05.16 | 61517 | 75407
6 | 16:45.33 | 4:12.72 | 75408 | 94379
7 | 20:58.30 | 2:35.06 | 94380 | 106010
8 | 23:33.36 | 2:54.62 | 106011 | 119122
9 | 26:28.23 | 4:22.25 | 119123 | 138797
10 | 30:50.48 | 3:28.51 | 138798 | 154448
11 | 34:19.24 | 5:51.54 | 154449 | 180827
12 | 40:11.03 | 3:25.27 | 180828 | 196229


Track 1

Filename D:\Audio\Ripped\Merry Christmas [f]\01–White Christmas.wav

Pre-gap length 0:00:02.00

Peak level 100.0 %
Track quality 100.0 %
Test CRC B5E699EE
Copy CRC B5E699EE
Track not present in AccurateRip database
Copy OK

Track 2

Filename D:\Audio\Ripped\Merry Christmas [f]\02–Feliz Navidad.wav

Pre-gap length 0:00:01.90

Peak level 99.9 %
Track quality 100.0 %
Test CRC 33898B52
Copy CRC 33898B52
Track not present in AccurateRip database
Copy OK

Track 3

Filename D:\Audio\Ripped\Merry Christmas [f]\03–Jingle Bell Rock.wav

Pre-gap length 0:00:00.76

Peak level 97.6 %
Track quality 100.0 %
Test CRC F3574C3B
Copy CRC F3574C3B
Track not present in AccurateRip database
Copy OK

Track 4

Filename D:\Audio\Ripped\Merry Christmas [f]\04–Santa Baby.wav

Pre-gap length 0:00:02.41

Peak level 98.3 %
Track quality 100.0 %
Test CRC AC3559DB
Copy CRC AC3559DB
Track not present in AccurateRip database
Copy OK

Track 5

Filename D:\Audio\Ripped\Merry Christmas [f]\05–I Saw Mommy Kissing Santa Claus.wav

Pre-gap length 0:00:02.62

Peak level 100.0 %
Track quality 100.0 %
Test CRC 634E82A1
Copy CRC 634E82A1
Track not present in AccurateRip database
Copy OK

Track 6

Filename D:\Audio\Ripped\Merry Christmas [f]\06–Have Yourself A Merry Little Christmas.wav

Pre-gap length 0:00:01.96

Peak level 100.0 %
Track quality 100.0 %
Test CRC 0901F336
Copy CRC 0901F336
Track not present in AccurateRip database
Copy OK

Track 7

Filename D:\Audio\Ripped\Merry Christmas [f]\07–Santa Claus Is Coming To Town.wav

Pre-gap length 0:00:02.06

Peak level 100.0 %
Track quality 99.9 %
Test CRC EFE9C661
Copy CRC EFE9C661
Track not present in AccurateRip database
Copy OK

Track 8

Filename D:\Audio\Ripped\Merry Christmas [f]\08–Jingle Bells.wav

Pre-gap length 0:00:01.98

Peak level 100.0 %
Track quality 100.0 %
Test CRC 7AE33B7C
Copy CRC 7AE33B7C
Track not present in AccurateRip database
Copy OK

Track 9

Filename D:\Audio\Ripped\Merry Christmas [f]\09–The Christmas Song.wav

Pre-gap length 0:00:03.49

Peak level 100.0 %
Track quality 99.9 %
Test CRC 3F22A8D4
Copy CRC 3F22A8D4
Track not present in AccurateRip database
Copy OK

Track 10

Filename D:\Audio\Ripped\Merry Christmas [f]\10–Blue Christmas.wav

Pre-gap length 0:00:02.08

Peak level 99.7 %
Track quality 100.0 %
Test CRC BBAA3E96
Copy CRC BBAA3E96
Track not present in AccurateRip database
Copy OK

Track 11

Filename D:\Audio\Ripped\Merry Christmas [f]\11–Happy Christmas (War Is Over).wav

Pre-gap length 0:00:03.66

Peak level 100.0 %
Track quality 100.0 %
Test CRC A75050E6
Copy CRC A75050E6
Track not present in AccurateRip database
Copy OK

Track 12

Filename D:\Audio\Ripped\Merry Christmas [f]\12–It's Only Christmas (duet with Ronan Keating).wav

Pre-gap length 0:00:01.74

Peak level 100.0 %
Track quality 100.0 %
Test CRC FB1E1D8C
Copy CRC FB1E1D8C
Track not present in AccurateRip database
Copy OK


None of the tracks are present in the AccurateRip database

No errors occurred

End of status report