Tags
Language
Tags

Kathleen Battle: The Complete Sony Recordings [10CDs] (2016)

Posted By: ArlegZ
Kathleen Battle: The Complete Sony Recordings [10CDs] (2016)

Kathleen Battle: The Complete Sony Recordings [10CDs] (2016)
EAC | FLAC | Image (Cue & Log) ~ 2,77 Gb | Total time: 646 min | Scans included
Classical | Label: Sony | # 88985381362 | Recorded: 1977-2000

Sony Classical presents legendary soprano Kathleen Battle in nine of her foremost studio recordings in her ‘Complete Sony Recordings’.
In the course of a remarkable career, launched in 1973 by mentor James Levine in their shared hometown of Cincinnati, Kathleen Battle has captivated international audiences. She has taken home numerous awards – among them five Grammys and London’s Olivier Award for her 1985 Covent Garden debut as Zerbinetta in Strauss’s Ariadne auf Naxos, the first American singer to win that prestigious prize – and become one of classical music’s best-selling artists.
Described by the Washington Post as “one of the very few most beautiful in the world” she will make her first appearance at the Met in more than 20 years on 17th November 2016.

Performer:
Kathleen Battle, soprano
Jessye Norman, soprano
Renee Fleming, soprano
Frederica von Stade, mezzo-soprano
Wynton Marsalis, trumpet
Hakan Hagegard, trumpet
Jean-Pierre Rampal, flute
Christopher Parkening, guitar
Grover Washington, Jr., soprano saxophone
American Boychoir
The National Opera of Greece Choir
Wiener Philharmoniker
Orchestra of St. Luke's
The London Metropolitan Orchestra
Wynton Marsalis Septet
Chicago Symphony Orchestra
Metropolitan Opera Orchestra
Berliner Philharmoniker
Conductors: Lorin Maazel, James Levine, John Nelson, André Previn, Robert Sadin, Blake Neely, Claudio Abbado


CD1: Mahler. Symphony No. 4 (Wiener Philharmoniker, Lorin Maazel)
1-1 I Bedächtig. Nicht Eilen – Recht Gemächlich
1-2 II In Gemächlicher Bewegung. Ohne Hast
1-3 III Ruhevoll (Poco Adagio) – Allegretto subito (Nicht eilen) –
1-4 IV Sehr Behaglich: “Wir Genießen Die Himmlischen Freuden”
CD2: Baroque Duet (Wynton Marsalis [trumpet], Orchestra of St. Luke's, John Nelson)
2-1 Let The Bright Seraphim
7 Arie Con Tromba Sola
2-2 No. 1: “Si Suoni la Tromba”
2-3 No. 3: “Con Voce Festiva”
2-4 No. 4: “Rompe Sprezza”
2-5 No. 6: “Mio Tesoro, Per Te Moro”
Su Le Sponde Del Tebro
2-6 Sinfonia. Grave
2-7 Recitativo: “Su Le Sponde Del Tebro”
2-8 Ritornello – Aria: “Contentatevi, O Fidi Pensieri”
2-9 Recitativo: “Mesto, Stanco E Spirante”
2-10 Aria. Largo: “Infelici Miei Lumi”
2-11 Aria: “Dite Almeno, Astri Crudeli”
2-12 Recitativo: “All’aura, Al Cielo, Ai Venti”
2-13 Aria: “Tralascia Pur di Piangere”
2-14 Eternal Source Of Light Divine
2-15 Pace Una Volta
Sinfonia Avanti Il Barcheggio (Part I)
2-16 I Spiritosa, E Staccata
2-17 II [Allegretto – Corrente]
2-18 III Canzone
2-19 IV [Allegro]
2-20 Seufzer, Tränen, Kummer, Not
2-21 Alle Voci Del Bronzo Guerriero
Jauchzet Gott In Allen Landen Cantata Bwv 51
2-22 No. 1 Aria: “Jauchzet Gott In Allen Landen”
2-23 No. 4 Chorale: “Sei Lob Und Preis Mit Ehren” – No. 5 Aria: “Alleluja”
CD3: A Carnegie Hall Christmas (with Frederica von Stade, Wynton Marsalis, Andre Previn)
3-1 The Twelve Days Of Christmas
3-2 Mary’s Little Boy Child
3-3 Gesù Bambino
3-4 Alleluja
3-5 My Favorite Things
3-6 Winter Wonderland
3-7 We Three Kings Of Orient Are
3-8 Medley: American Songs
3-9 Medley
3-10 Silent Night
3-11 Joy To The World!
3-12 Abends Will Ich Schlafen Gehn (Evening Prayer)
3-13 Lo, How A Rose E’er Blooming
3-14 Mariä Wiegenlied Op. 76/52
3-15 Medley: Christmas Songs
CD4: In Concert (with Rampal)
4-1 Nel Dolce Dell’oblio
4-2 Sweet Bird
4-3 If Music Be The Food Of Love
4-4 There’s Not A Swain
4-5 What Can We Poor Females Do?
4-6 Music For A While
4-7 Rossignols Amoureux
4-8 La Flûte Invisible
4-9 Rossignol, Mon Mignon
4-10 Ciel, aer, et vens
4-11 La Mi Sola, Laureola
4-12 Al Amor
4-13 Del Cabello Más Sutil
4-14 Chiquitita La Novia
Sonata For Flute And Piano
4-15 I Allegro Moderato
4-16 II Adagio
4-17 III Allegro Poco Moderato
4-18 Bird-Song
4-19 Lo! Here The Gentle Lark
CD5: So Many Stars (Grover Washington, Jr. [saxophone] & ensemble)
5-1 Hush (Somebody’s Calling My Name)
5-2 Canción de Cuna
5-3 Azulão
5-4 The Little Horses
5-5 Ninghe, Ninghe
5-6 Fais Do Do
5-7 Angels Watching Over Me
5-8 Going Home
5-9 Melodia Sentimental
5-10 He’s Gone Away
5-11 Del Cabello Más Sutil
5-12 Para Niñar
5-13 So Many Stars
5-14 Interlude
5-15 Steal Away
CD6: Angels' Glory (Christopher Parkening, guitar)
6-1 Mary, Did You Know?
6-2 Carol Of The Birds
6-3 I Wonder As I Wander
6-4 Gesù Bambino
6-5 El Desembre Congelat
6-6 El Noi de la Mare
6-7 Dormi, Jesu
6-8 Quittez, Pasteurs
6-9 Infant Holy, Infant Lowly
6-10 Jubilation
6-11 Wasn’t That A Mighty Day
6-12 The Virgin Mary Had A Baby Boy
6-13 Methinks I See A Heavn’ly Host
6-14 Sweet Little Jesus Boy
6-15 Mary And Her Baby Child
6-16 Mary Had A Baby
6-17 Jesus, The Light Of The World
6-18 Suo Gân
6-19 Silent Night
CD7: Vangelis. Mythodea (with Jessye Norman, Vangelis, choir & orchestra)
7-1 Introduction
7-2 Movement 1
7-3 Movement 2
7-4 Movement 3
7-5 Movement 4
7-6 Movement 5
7-7 Movement 6
7-8 Movement 7
7-9 Movement 8
7-10 Movement 9
7-11 Movement 10
7-12 Mythodea – Special Edit
CD8: Grace (dir. Robert Sadin)
8-1 Rejoice Greatly
8-2 Schlafendes Jesuskind
8-3 Laudate Dominum
8-4 O Had I Jubal’s Lyre
8-5 Seufzer, Tränen, Kummer, Not
8-6 Schafe Können Sicher Weiden
8-7 Ave Maria
8-8 Laudamus Te
8-9 Bist Du Bei Mir Bwv 508
8-10 Mein Gläubiges Herze
8-11 Pie Jesu
8-12 Were You There When They Crucified My Lord?
8-13 Flößt, Mein Heiland
8-14 Ave Maria
CD9: A Portrait
9-1 O Mio Babbino Caro (Lauretta)*
9-2 Let The Bright Seraphim
9-3 Dormi, Jesu
9-4 Canción de Cuna
9-5 Mythodea: Movement 9
9-6 Laudate Dominum
9-7 Rejoice Greatly
9-8 Fix Me, Jesus*
9-9 Pie Jesu
9-10 El Noi de la Mare
9-11 El Desembre Congelat
9-12 Prelude To A Kiss*
9-13 Eternal Source Of Light Divine
9-14 Alleluja
9-15 Angels Watching Over Me*
9-16 Symphony No. 4 IV Sehr Behaglich: “Wir Genießen Die Himmlischen Freuden” (soprano Solo)
9-17 Jauchzet Gott In Allen Landen
9-18 Going Home
CD10: Collaborations
10-1 Juchhe! Op. 6/4
10-2 Das Mädchen Spricht Op. 107/3
10-3 Meine Liebe Ist Grün Op. 63/5
10-4 Wir Wandelten Op. 96/2
10-5 Ihr Habt Nun Traurigkeit
10-6 Der Rosenkavalier Op. 59: Act Iii: “Marie Theres’!” – “Hab’ Mir’s Gelobt"
Weichet Nur, Betrübte Schatten Bwv 202
10-7 No. 1 Aria: “Weichet Nur, Betrübte Schatten”
10-8 No. 2 Recitativo: “Die Welt Wird Wieder Neu”
10-9 No. 3 Aria: “Phoebus Eilt Mit Schnellen Pferden”
10-10 No. 4 Recitativo: “Drum Sucht Auch Amor Sein Vergnügen”
10-11 No. 5 Aria: “Wenn Die Frühlingslüfte Streichen”
10-12 No. 6 Recitativo: “Und Dieses Ist Das Glücke”
10-13 No. 7 Aria:“Sich üben Im Lieben, In Scherzen Sich Herzen”
10-14 No. 8 Recitativo: “So Sei Das Band Der Keuschen Liebe”
10-15 No. 9 Gavotte: “Sehet In Zufriedenheit Tausend Helle Wohlfahrtstage”
10-16 Lovers
Don Carlo: Act Ii, Part 2: Gran Finale
10-17 “Spuntato Ecco Il Dì D’esultanza”
10-18 “Nel Posar Sul Mio Capo la Corona”




Exact Audio Copy V1.3 from 2. September 2016

EAC extraction logfile from 13. December 2018, 4:04

Kathleen Battle, Lorin Maazel / Mahler - Symphony No. 4

Used drive : ATAPI iHAS124 F Adapter: 1 ID: 0

Read mode : Secure
Utilize accurate stream : Yes
Defeat audio cache : Yes
Make use of C2 pointers : No

Read offset correction : 6
Overread into Lead-In and Lead-Out : No
Fill up missing offset samples with silence : Yes
Delete leading and trailing silent blocks : No
Null samples used in CRC calculations : Yes
Used interface : Native Win32 interface for Win NT & 2000

Used output format : User Defined Encoder
Selected bitrate : 1024 kBit/s
Quality : High
Add ID3 tag : No
Command line compressor : C:\Program Files (x86)\Exact Audio Copy\FLAC\FLAC.EXE
Additional command line options : -6 -V -T "ARTIST=%artist%" -T "TITLE=%title%" -T "ALBUM=%albumtitle%" -T "DATE=%year%" -T "TRACKNUMBER=%tracknr%" -T "GENRE=%genre%" -T "COMMENT=%comment%" -T "BAND=%albuminterpret%" -T "ALBUMARTIST=%albuminterpret%" -T "COMPOSER=%composer%" %haslyrics%–tag-from-file=LYRICS="%lyricsfile%"%haslyrics% -T "DISCNUMBER=%cdnumber%" -T "TOTALDISCS=%totalcds%" -T "TOTALTRACKS=%numtracks%" %hascover%–picture="%coverfile%"%hascover% %source% -o %dest%


TOC of the extracted CD

Track | Start | Length | Start sector | End sector
––––––––––––––––––––––––––––-
1 | 0:00.00 | 18:08.31 | 0 | 81630
2 | 18:08.31 | 9:31.73 | 81631 | 124528
3 | 27:40.29 | 22:34.55 | 124529 | 226133
4 | 50:15.09 | 10:42.20 | 226134 | 274303


Range status and errors

Selected range

Filename C:\EACRip\Kathleen Battle - The Complete Sony Recordings (10CD, 2016)\CD1 - Mahler. Symphony No. 4\Mahler - Symphony No. 4 - Kathleen Battle, Lorin Maazel.wav

Peak level 97.7 %
Extraction speed 8.6 X
Range quality 100.0 %
Test CRC 0B2E1838
Copy CRC 0B2E1838
Copy OK

No errors occurred


AccurateRip summary

Track 1 accurately ripped (confidence 4) [E20283A1] (AR v2)
Track 2 accurately ripped (confidence 4) [A63CA33B] (AR v2)
Track 3 accurately ripped (confidence 4) [21D1B9F0] (AR v2)
Track 4 accurately ripped (confidence 4) [83157F8E] (AR v2)

All tracks accurately ripped

End of status report

–– CUETools DB Plugin V2.1.6

[CTDB TOCID: MbM37f9b7PC0qWE6UhwSlqYJJ.A-] found
Submit result: MbM37f9b7PC0qWE6UhwSlqYJJ.A- has been confirmed
Track | CTDB Status
1 | (11/11) Accurately ripped
2 | (11/11) Accurately ripped
3 | (11/11) Accurately ripped
4 | (11/11) Accurately ripped


==== Log checksum C282348F7C8F3C92EEA51D16F67CAC603FFB4AC56EE8269E031A56461B24C442 ====


Exact Audio Copy V1.3 from 2. September 2016

EAC extraction logfile from 13. December 2018, 12:01

Kathleen Battle, Wynton Marsalis; John Nelson / Baroque Duet

Used drive : ATAPI iHAS124 F Adapter: 1 ID: 0

Read mode : Secure
Utilize accurate stream : Yes
Defeat audio cache : Yes
Make use of C2 pointers : No

Read offset correction : 6
Overread into Lead-In and Lead-Out : No
Fill up missing offset samples with silence : Yes
Delete leading and trailing silent blocks : No
Null samples used in CRC calculations : Yes
Used interface : Native Win32 interface for Win NT & 2000

Used output format : User Defined Encoder
Selected bitrate : 1024 kBit/s
Quality : High
Add ID3 tag : No
Command line compressor : C:\Program Files (x86)\Exact Audio Copy\FLAC\FLAC.EXE
Additional command line options : -6 -V -T "ARTIST=%artist%" -T "TITLE=%title%" -T "ALBUM=%albumtitle%" -T "DATE=%year%" -T "TRACKNUMBER=%tracknr%" -T "GENRE=%genre%" -T "COMMENT=%comment%" -T "BAND=%albuminterpret%" -T "ALBUMARTIST=%albuminterpret%" -T "COMPOSER=%composer%" %haslyrics%–tag-from-file=LYRICS="%lyricsfile%"%haslyrics% -T "DISCNUMBER=%cdnumber%" -T "TOTALDISCS=%totalcds%" -T "TOTALTRACKS=%numtracks%" %hascover%–picture="%coverfile%"%hascover% %source% -o %dest%


TOC of the extracted CD

Track | Start | Length | Start sector | End sector
––––––––––––––––––––––––––––-
1 | 0:00.00 | 5:32.02 | 0 | 24901
2 | 5:32.02 | 3:37.55 | 24902 | 41231
3 | 9:09.57 | 1:29.13 | 41232 | 47919
4 | 10:38.70 | 1:18.42 | 47920 | 53811
5 | 11:57.37 | 4:46.68 | 53812 | 75329
6 | 16:44.30 | 1:41.15 | 75330 | 82919
7 | 18:25.45 | 0:58.42 | 82920 | 87311
8 | 19:24.12 | 2:53.05 | 87312 | 100291
9 | 22:17.17 | 0:40.53 | 100292 | 103344
10 | 22:57.70 | 2:09.40 | 103345 | 113059
11 | 25:07.35 | 2:39.02 | 113060 | 124986
12 | 27:46.37 | 1:04.33 | 124987 | 129819
13 | 28:50.70 | 2:52.02 | 129820 | 142721
14 | 31:42.72 | 2:53.08 | 142722 | 155704
15 | 34:36.05 | 6:11.72 | 155705 | 183601
16 | 40:48.02 | 1:08.58 | 183602 | 188759
17 | 41:56.60 | 1:33.17 | 188760 | 195751
18 | 43:30.02 | 1:40.23 | 195752 | 203274
19 | 45:10.25 | 1:36.25 | 203275 | 210499
20 | 46:46.50 | 4:14.40 | 210500 | 229589
21 | 51:01.15 | 3:34.57 | 229590 | 245696
22 | 54:35.72 | 4:31.53 | 245697 | 266074
23 | 59:07.50 | 5:56.15 | 266075 | 292789


Range status and errors

Selected range

Filename C:\EACRip\Kathleen Battle - The Complete Sony Recordings (10CD, 2016)\CD2 - Baroque Duet\Baroque Duet - Kathleen Battle, Wynton Marsalis, John Nelson.wav

Peak level 96.6 %
Extraction speed 3.2 X
Range quality 100.0 %
Test CRC 877AC8D4
Copy CRC 877AC8D4
Copy OK

No errors occurred


AccurateRip summary

Track 1 accurately ripped (confidence 4) [7B838637] (AR v2)
Track 2 accurately ripped (confidence 4) [F0768329] (AR v2)
Track 3 accurately ripped (confidence 4) [ABD9C6A9] (AR v2)
Track 4 accurately ripped (confidence 4) [7923484F] (AR v2)
Track 5 accurately ripped (confidence 4) [447B099C] (AR v2)
Track 6 accurately ripped (confidence 4) [390289A1] (AR v2)
Track 7 accurately ripped (confidence 4) [1B873BB4] (AR v2)
Track 8 accurately ripped (confidence 4) [F4A7A518] (AR v2)
Track 9 accurately ripped (confidence 4) [24873421] (AR v2)
Track 10 accurately ripped (confidence 4) [B7318980] (AR v2)
Track 11 accurately ripped (confidence 4) [35058E5B] (AR v2)
Track 12 accurately ripped (confidence 4) [0AEEA57C] (AR v2)
Track 13 accurately ripped (confidence 4) [F1FA38BF] (AR v2)
Track 14 accurately ripped (confidence 4) [83B40BDD] (AR v2)
Track 15 accurately ripped (confidence 4) [0173327E] (AR v2)
Track 16 accurately ripped (confidence 4) [1EA926A7] (AR v2)
Track 17 accurately ripped (confidence 4) [ED0760BF] (AR v2)
Track 18 accurately ripped (confidence 4) [54FB83B0] (AR v2)
Track 19 accurately ripped (confidence 4) [DCAC54F4] (AR v2)
Track 20 accurately ripped (confidence 4) [F4F412C9] (AR v2)
Track 21 accurately ripped (confidence 4) [4DE95E68] (AR v2)
Track 22 accurately ripped (confidence 4) [61F55269] (AR v2)
Track 23 accurately ripped (confidence 4) [5408EA42] (AR v2)

All tracks accurately ripped

End of status report

–– CUETools DB Plugin V2.1.6

[CTDB TOCID: QnPwF9H0jYyD_pL7BiYcsYY6gTs-] found
Submit result: QnPwF9H0jYyD_pL7BiYcsYY6gTs- has been confirmed
Track | CTDB Status
1 | (10/89) Accurately ripped
2 | (10/89) Accurately ripped
3 | (10/89) Accurately ripped
4 | (10/89) Accurately ripped
5 | (10/89) Accurately ripped
6 | (10/89) Accurately ripped
7 | (10/89) Accurately ripped
8 | (10/89) Accurately ripped
9 | (10/89) Accurately ripped
10 | (10/89) Accurately ripped
11 | (10/89) Accurately ripped
12 | (10/89) Accurately ripped
13 | (10/89) Accurately ripped
14 | (10/89) Accurately ripped
15 | (10/89) Accurately ripped
16 | (10/89) Accurately ripped
17 | (10/89) Accurately ripped
18 | (10/89) Accurately ripped
19 | (10/89) Accurately ripped
20 | (10/89) Accurately ripped
21 | (10/89) Accurately ripped
22 | (10/89) Accurately ripped
23 | (10/89) Accurately ripped


==== Log checksum DE159704B737656E80D886F14004D8F78B502F5B8A24220A3F5EBFC4AB6276A5 ====


Exact Audio Copy V1.3 from 2. September 2016

EAC extraction logfile from 13. December 2018, 12:51

Kathleen Battle, Frederica von Stade, Wynton Marsalis; Andre Previn / A Carnegie Hall Christmas Concert

Used drive : ATAPI iHAS124 F Adapter: 1 ID: 0

Read mode : Secure
Utilize accurate stream : Yes
Defeat audio cache : Yes
Make use of C2 pointers : No

Read offset correction : 6
Overread into Lead-In and Lead-Out : No
Fill up missing offset samples with silence : Yes
Delete leading and trailing silent blocks : No
Null samples used in CRC calculations : Yes
Used interface : Native Win32 interface for Win NT & 2000

Used output format : User Defined Encoder
Selected bitrate : 1024 kBit/s
Quality : High
Add ID3 tag : No
Command line compressor : C:\Program Files (x86)\Exact Audio Copy\FLAC\FLAC.EXE
Additional command line options : -6 -V -T "ARTIST=%artist%" -T "TITLE=%title%" -T "ALBUM=%albumtitle%" -T "DATE=%year%" -T "TRACKNUMBER=%tracknr%" -T "GENRE=%genre%" -T "COMMENT=%comment%" -T "BAND=%albuminterpret%" -T "ALBUMARTIST=%albuminterpret%" -T "COMPOSER=%composer%" %haslyrics%–tag-from-file=LYRICS="%lyricsfile%"%haslyrics% -T "DISCNUMBER=%cdnumber%" -T "TOTALDISCS=%totalcds%" -T "TOTALTRACKS=%numtracks%" %hascover%–picture="%coverfile%"%hascover% %source% -o %dest%


TOC of the extracted CD

Track | Start | Length | Start sector | End sector
––––––––––––––––––––––––––––-
1 | 0:00.00 | 5:32.60 | 0 | 24959
2 | 5:32.60 | 4:15.72 | 24960 | 44156
3 | 9:48.57 | 3:50.70 | 44157 | 61476
4 | 13:39.52 | 2:41.40 | 61477 | 73591
5 | 16:21.17 | 2:29.68 | 73592 | 84834
6 | 18:51.10 | 2:46.07 | 84835 | 97291
7 | 21:37.17 | 5:08.63 | 97292 | 120454
8 | 26:46.05 | 16:19.10 | 120455 | 193889
9 | 43:05.15 | 4:45.32 | 193890 | 215296
10 | 47:50.47 | 5:00.00 | 215297 | 237796
11 | 52:50.47 | 2:43.50 | 237797 | 250071
12 | 55:34.22 | 3:41.18 | 250072 | 266664
13 | 59:15.40 | 4:03.60 | 266665 | 284949
14 | 63:19.25 | 2:02.62 | 284950 | 294161
15 | 65:22.12 | 10:56.55 | 294162 | 343416


Range status and errors

Selected range

Filename C:\EACRip\Kathleen Battle - The Complete Sony Recordings (10CD, 2016)\CD3 - A Carnegie Hall Christmas\A Carnegie Hall Christmas Concert - Kathleen Battle, Frederica von Stade, Wynton Marsalis; Andre Previn.wav

Peak level 97.7 %
Extraction speed 8.1 X
Range quality 100.0 %
Test CRC 0B6B94A2
Copy CRC 0B6B94A2
Copy OK

No errors occurred


AccurateRip summary

Track 1 accurately ripped (confidence 6) [56D5014F] (AR v2)
Track 2 accurately ripped (confidence 6) [335C221D] (AR v2)
Track 3 accurately ripped (confidence 6) [990FA8DC] (AR v2)
Track 4 accurately ripped (confidence 6) [6D4EC38F] (AR v2)
Track 5 accurately ripped (confidence 6) [D22B7EAE] (AR v2)
Track 6 accurately ripped (confidence 6) [8D3ADE53] (AR v2)
Track 7 accurately ripped (confidence 6) [BF9FE5FC] (AR v2)
Track 8 accurately ripped (confidence 6) [2CBA90D4] (AR v2)
Track 9 accurately ripped (confidence 6) [D74AF93F] (AR v2)
Track 10 accurately ripped (confidence 6) [F65FA8D0] (AR v2)
Track 11 accurately ripped (confidence 6) [C43338B5] (AR v2)
Track 12 accurately ripped (confidence 6) [297008FE] (AR v2)
Track 13 accurately ripped (confidence 6) [815628EE] (AR v2)
Track 14 accurately ripped (confidence 6) [520825F7] (AR v2)
Track 15 accurately ripped (confidence 6) [FB4183D5] (AR v2)

All tracks accurately ripped

End of status report

–– CUETools DB Plugin V2.1.6

[CTDB TOCID: x.AsULmK4ul8j_xKvvwKreK4pjc-] found
Submit result: x.AsULmK4ul8j_xKvvwKreK4pjc- has been confirmed
Track | CTDB Status
1 | (17/17) Accurately ripped
2 | (17/17) Accurately ripped
3 | (17/17) Accurately ripped
4 | (17/17) Accurately ripped
5 | (17/17) Accurately ripped
6 | (17/17) Accurately ripped
7 | (17/17) Accurately ripped
8 | (17/17) Accurately ripped
9 | (17/17) Accurately ripped
10 | (17/17) Accurately ripped
11 | (17/17) Accurately ripped
12 | (17/17) Accurately ripped
13 | (17/17) Accurately ripped
14 | (17/17) Accurately ripped
15 | (16/17) Accurately ripped


==== Log checksum B83E33CE454E3E2F34E0B1F1BCD6B4158DCAE0C047413793C83E401A36501247 ====


Exact Audio Copy V1.3 from 2. September 2016

EAC extraction logfile from 13. December 2018, 13:22

Kathleen Battle, Jean-Pierre Rampal / In Concert

Used drive : ATAPI iHAS124 F Adapter: 1 ID: 0

Read mode : Secure
Utilize accurate stream : Yes
Defeat audio cache : Yes
Make use of C2 pointers : No

Read offset correction : 6
Overread into Lead-In and Lead-Out : No
Fill up missing offset samples with silence : Yes
Delete leading and trailing silent blocks : No
Null samples used in CRC calculations : Yes
Used interface : Native Win32 interface for Win NT & 2000

Used output format : User Defined Encoder
Selected bitrate : 1024 kBit/s
Quality : High
Add ID3 tag : No
Command line compressor : C:\Program Files (x86)\Exact Audio Copy\FLAC\FLAC.EXE
Additional command line options : -6 -V -T "ARTIST=%artist%" -T "TITLE=%title%" -T "ALBUM=%albumtitle%" -T "DATE=%year%" -T "TRACKNUMBER=%tracknr%" -T "GENRE=%genre%" -T "COMMENT=%comment%" -T "BAND=%albuminterpret%" -T "ALBUMARTIST=%albuminterpret%" -T "COMPOSER=%composer%" %haslyrics%–tag-from-file=LYRICS="%lyricsfile%"%haslyrics% -T "DISCNUMBER=%cdnumber%" -T "TOTALDISCS=%totalcds%" -T "TOTALTRACKS=%numtracks%" %hascover%–picture="%coverfile%"%hascover% %source% -o %dest%


TOC of the extracted CD

Track | Start | Length | Start sector | End sector
––––––––––––––––––––––––––––-
1 | 0:00.00 | 7:05.60 | 0 | 31934
2 | 7:05.60 | 10:40.33 | 31935 | 79967
3 | 17:46.18 | 2:13.64 | 79968 | 90006
4 | 20:00.07 | 0:57.35 | 90007 | 94316
5 | 20:57.42 | 1:29.27 | 94317 | 101018
6 | 22:26.69 | 3:47.07 | 101019 | 118050
7 | 26:14.01 | 5:03.63 | 118051 | 140838
8 | 31:17.64 | 3:16.50 | 140839 | 155588
9 | 34:34.39 | 3:35.40 | 155589 | 171753
10 | 38:10.04 | 2:52.66 | 171754 | 184719
11 | 41:02.70 | 2:55.13 | 184720 | 197857
12 | 43:58.08 | 1:01.68 | 197858 | 202500
13 | 45:00.01 | 1:43.60 | 202501 | 210285
14 | 46:43.61 | 2:35.55 | 210286 | 221965
15 | 49:19.41 | 6:33.72 | 221966 | 251512
16 | 55:53.38 | 5:45.47 | 251513 | 277434
17 | 61:39.10 | 5:05.34 | 277435 | 300343
18 | 66:44.44 | 5:10.59 | 300344 | 323652
19 | 71:55.28 | 4:42.14 | 323653 | 344816


Range status and errors

Selected range

Filename C:\EACRip\Kathleen Battle - The Complete Sony Recordings (10CD, 2016)\CD4 - In Concert (with Rampal)\In Concert - Kathleen Battle, Jean-Pierre Rampal.wav

Peak level 96.6 %
Extraction speed 9.3 X
Range quality 99.9 %
Test CRC D79EC297
Copy CRC D79EC297
Copy OK

No errors occurred


AccurateRip summary

Track 1 accurately ripped (confidence 3) [56400449] (AR v2)
Track 2 accurately ripped (confidence 3) [CA56AAB7] (AR v2)
Track 3 accurately ripped (confidence 3) [7F0B51D6] (AR v2)
Track 4 accurately ripped (confidence 3) [882B05F0] (AR v2)
Track 5 accurately ripped (confidence 3) [2E9B6D60] (AR v2)
Track 6 accurately ripped (confidence 3) [4BFDB7F8] (AR v2)
Track 7 accurately ripped (confidence 3) [06C2AFDB] (AR v2)
Track 8 accurately ripped (confidence 3) [2C666309] (AR v2)
Track 9 accurately ripped (confidence 3) [C779BC8F] (AR v2)
Track 10 accurately ripped (confidence 3) [7ABF56B3] (AR v2)
Track 11 accurately ripped (confidence 3) [4463F6C7] (AR v2)
Track 12 accurately ripped (confidence 3) [3B4147D3] (AR v2)
Track 13 accurately ripped (confidence 3) [A324F647] (AR v2)
Track 14 accurately ripped (confidence 3) [9AC9D449] (AR v2)
Track 15 accurately ripped (confidence 3) [13F286EF] (AR v2)
Track 16 accurately ripped (confidence 3) [6180B8A6] (AR v2)
Track 17 accurately ripped (confidence 3) [F54D7F67] (AR v2)
Track 18 accurately ripped (confidence 3) [099FA96D] (AR v2)
Track 19 accurately ripped (confidence 3) [FBF17EE9] (AR v2)

All tracks accurately ripped

End of status report

–– CUETools DB Plugin V2.1.6

[CTDB TOCID: x5Yfnxou0M4YzsLW3ttqspEg57k-] found
Submit result: x5Yfnxou0M4YzsLW3ttqspEg57k- has been confirmed
Track | CTDB Status
1 | (10/10) Accurately ripped
2 | (10/10) Accurately ripped
3 | (10/10) Accurately ripped
4 | (10/10) Accurately ripped
5 | (10/10) Accurately ripped
6 | (10/10) Accurately ripped
7 | (10/10) Accurately ripped
8 | (10/10) Accurately ripped
9 | (10/10) Accurately ripped
10 | (10/10) Accurately ripped
11 | (10/10) Accurately ripped
12 | (10/10) Accurately ripped
13 | (10/10) Accurately ripped
14 | (10/10) Accurately ripped
15 | (10/10) Accurately ripped
16 | (10/10) Accurately ripped
17 | ( 9/10) Accurately ripped
18 | (10/10) Accurately ripped
19 | (10/10) Accurately ripped


==== Log checksum DD8391AB0ADB1BA39D8135D63306AE7521D691203EBBCB44A2B2BCB0D8406FE9 ====


Exact Audio Copy V1.3 from 2. September 2016

EAC extraction logfile from 13. December 2018, 13:47

Kathleen Battle / So Many Stars

Used drive : ATAPI iHAS124 F Adapter: 1 ID: 0

Read mode : Secure
Utilize accurate stream : Yes
Defeat audio cache : Yes
Make use of C2 pointers : No

Read offset correction : 6
Overread into Lead-In and Lead-Out : No
Fill up missing offset samples with silence : Yes
Delete leading and trailing silent blocks : No
Null samples used in CRC calculations : Yes
Used interface : Native Win32 interface for Win NT & 2000

Used output format : User Defined Encoder
Selected bitrate : 1024 kBit/s
Quality : High
Add ID3 tag : No
Command line compressor : C:\Program Files (x86)\Exact Audio Copy\FLAC\FLAC.EXE
Additional command line options : -6 -V -T "ARTIST=%artist%" -T "TITLE=%title%" -T "ALBUM=%albumtitle%" -T "DATE=%year%" -T "TRACKNUMBER=%tracknr%" -T "GENRE=%genre%" -T "COMMENT=%comment%" -T "BAND=%albuminterpret%" -T "ALBUMARTIST=%albuminterpret%" -T "COMPOSER=%composer%" %haslyrics%–tag-from-file=LYRICS="%lyricsfile%"%haslyrics% -T "DISCNUMBER=%cdnumber%" -T "TOTALDISCS=%totalcds%" -T "TOTALTRACKS=%numtracks%" %hascover%–picture="%coverfile%"%hascover% %source% -o %dest%


TOC of the extracted CD

Track | Start | Length | Start sector | End sector
––––––––––––––––––––––––––––-
1 | 0:00.00 | 3:10.20 | 0 | 14269
2 | 3:10.20 | 2:42.08 | 14270 | 26427
3 | 5:52.28 | 3:24.20 | 26428 | 41747
4 | 9:16.48 | 3:39.40 | 41748 | 58212
5 | 12:56.13 | 3:23.30 | 58213 | 73467
6 | 16:19.43 | 4:43.32 | 73468 | 94724
7 | 21:03.00 | 0:57.23 | 94725 | 99022
8 | 22:00.23 | 4:13.22 | 99023 | 118019
9 | 26:13.45 | 3:37.73 | 118020 | 134367
10 | 29:51.43 | 3:44.52 | 134368 | 151219
11 | 33:36.20 | 3:06.23 | 151220 | 165192
12 | 36:42.43 | 3:25.47 | 165193 | 180614
13 | 40:08.15 | 5:38.30 | 180615 | 205994
14 | 45:46.45 | 0:52.35 | 205995 | 209929
15 | 46:39.05 | 6:58.50 | 209930 | 241329


Range status and errors

Selected range

Filename C:\EACRip\Kathleen Battle - The Complete Sony Recordings (10CD, 2016)\CD5 - So Many Stars\So Many Stars - Kathleen Battle.wav

Peak level 99.3 %
Extraction speed 8.2 X
Range quality 99.9 %
Test CRC E57FA634
Copy CRC E57FA634
Copy OK

No errors occurred


AccurateRip summary

Track 1 accurately ripped (confidence 3) [15ABDEA5] (AR v2)
Track 2 accurately ripped (confidence 3) [2FB2CF35] (AR v2)
Track 3 accurately ripped (confidence 3) [811B9BEB] (AR v2)
Track 4 accurately ripped (confidence 3) [A56E16FB] (AR v2)
Track 5 accurately ripped (confidence 3) [8FF675C6] (AR v2)
Track 6 accurately ripped (confidence 3) [1B806BCC] (AR v2)
Track 7 accurately ripped (confidence 3) [947C577D] (AR v2)
Track 8 accurately ripped (confidence 3) [23417351] (AR v2)
Track 9 accurately ripped (confidence 3) [0E55E4CC] (AR v2)
Track 10 accurately ripped (confidence 3) [320ED4A7] (AR v2)
Track 11 accurately ripped (confidence 3) [F98EDA7B] (AR v2)
Track 12 accurately ripped (confidence 3) [29636404] (AR v2)
Track 13 accurately ripped (confidence 3) [6F962DEB] (AR v2)
Track 14 accurately ripped (confidence 3) [98E77B10] (AR v2)
Track 15 accurately ripped (confidence 3) [2CEDF436] (AR v2)

All tracks accurately ripped

End of status report

–– CUETools DB Plugin V2.1.6

[CTDB TOCID: V4zUU75kcQdP2xsJbiD.d7kaOuU-] found
Submit result: V4zUU75kcQdP2xsJbiD.d7kaOuU- has been confirmed
Track | CTDB Status
1 | (9/9) Accurately ripped
2 | (9/9) Accurately ripped
3 | (9/9) Accurately ripped
4 | (9/9) Accurately ripped
5 | (9/9) Accurately ripped
6 | (9/9) Accurately ripped
7 | (9/9) Accurately ripped
8 | (9/9) Accurately ripped
9 | (9/9) Accurately ripped
10 | (9/9) Accurately ripped
11 | (9/9) Accurately ripped
12 | (9/9) Accurately ripped
13 | (9/9) Accurately ripped
14 | (9/9) Accurately ripped
15 | (7/9) Accurately ripped


==== Log checksum CD1239C114E5F231C4A01767FF0A86C58DB7D7290A10DA7ADDE63C1B69C01BA3 ====


Exact Audio Copy V1.3 from 2. September 2016

EAC extraction logfile from 13. December 2018, 14:15

Kathleen Battle, Christopher Parkening / Angels' Glory

Used drive : ATAPI iHAS124 F Adapter: 1 ID: 0

Read mode : Secure
Utilize accurate stream : Yes
Defeat audio cache : Yes
Make use of C2 pointers : No

Read offset correction : 6
Overread into Lead-In and Lead-Out : No
Fill up missing offset samples with silence : Yes
Delete leading and trailing silent blocks : No
Null samples used in CRC calculations : Yes
Used interface : Native Win32 interface for Win NT & 2000

Used output format : User Defined Encoder
Selected bitrate : 1024 kBit/s
Quality : High
Add ID3 tag : No
Command line compressor : C:\Program Files (x86)\Exact Audio Copy\FLAC\FLAC.EXE
Additional command line options : -6 -V -T "ARTIST=%artist%" -T "TITLE=%title%" -T "ALBUM=%albumtitle%" -T "DATE=%year%" -T "TRACKNUMBER=%tracknr%" -T "GENRE=%genre%" -T "COMMENT=%comment%" -T "BAND=%albuminterpret%" -T "ALBUMARTIST=%albuminterpret%" -T "COMPOSER=%composer%" %haslyrics%–tag-from-file=LYRICS="%lyricsfile%"%haslyrics% -T "DISCNUMBER=%cdnumber%" -T "TOTALDISCS=%totalcds%" -T "TOTALTRACKS=%numtracks%" %hascover%–picture="%coverfile%"%hascover% %source% -o %dest%


TOC of the extracted CD

Track | Start | Length | Start sector | End sector
––––––––––––––––––––––––––––-
1 | 0:00.00 | 3:03.47 | 0 | 13771
2 | 3:03.47 | 1:57.48 | 13772 | 22594
3 | 5:01.20 | 3:20.02 | 22595 | 37596
4 | 8:21.22 | 3:45.65 | 37597 | 54536
5 | 12:07.12 | 1:35.48 | 54537 | 61709
6 | 13:42.60 | 2:40.07 | 61710 | 73716
7 | 16:22.67 | 2:19.20 | 73717 | 84161
8 | 18:42.12 | 1:57.55 | 84162 | 92991
9 | 20:39.67 | 3:18.63 | 92992 | 107904
10 | 23:58.55 | 4:47.72 | 107905 | 129501
11 | 28:46.52 | 3:21.45 | 129502 | 144621
12 | 32:08.22 | 2:54.18 | 144622 | 157689
13 | 35:02.40 | 2:02.12 | 157690 | 166851
14 | 37:04.52 | 3:20.25 | 166852 | 181876
15 | 40:25.02 | 3:49.50 | 181877 | 199101
16 | 44:14.52 | 2:46.00 | 199102 | 211551
17 | 47:00.52 | 2:34.03 | 211552 | 223104
18 | 49:34.55 | 3:15.22 | 223105 | 237751
19 | 52:50.02 | 3:18.07 | 237752 | 252608


Range status and errors

Selected range

Filename C:\EACRip\Kathleen Battle - The Complete Sony Recordings (10CD, 2016)\CD6 - Angels' Glory\Angels' Glory - Kathleen Battle, Christopher Parkening.wav

Peak level 95.9 %
Extraction speed 8.3 X
Range quality 99.9 %
Test CRC A3402014
Copy CRC A3402014
Copy OK

No errors occurred


AccurateRip summary

Track 1 accurately ripped (confidence 3) [97EC86CF] (AR v2)
Track 2 accurately ripped (confidence 3) [5EAF79FF] (AR v2)
Track 3 accurately ripped (confidence 3) [C0E73DCB] (AR v2)
Track 4 accurately ripped (confidence 3) [40AD113C] (AR v2)
Track 5 accurately ripped (confidence 3) [C195ACEE] (AR v2)
Track 6 accurately ripped (confidence 3) [2210F2A2] (AR v2)
Track 7 accurately ripped (confidence 3) [68BB0E53] (AR v2)
Track 8 accurately ripped (confidence 3) [F334C386] (AR v2)
Track 9 accurately ripped (confidence 3) [667D89F7] (AR v2)
Track 10 accurately ripped (confidence 3) [159C5D75] (AR v2)
Track 11 accurately ripped (confidence 3) [0436F907] (AR v2)
Track 12 accurately ripped (confidence 3) [8DB83050] (AR v2)
Track 13 accurately ripped (confidence 3) [B0C62987] (AR v2)
Track 14 accurately ripped (confidence 3) [089F54A2] (AR v2)
Track 15 accurately ripped (confidence 3) [D22B4886] (AR v2)
Track 16 accurately ripped (confidence 3) [A9207304] (AR v2)
Track 17 accurately ripped (confidence 3) [494D95B9] (AR v2)
Track 18 accurately ripped (confidence 3) [B2DDF37C] (AR v2)
Track 19 accurately ripped (confidence 3) [947309AE] (AR v2)

All tracks accurately ripped

End of status report

–– CUETools DB Plugin V2.1.6

[CTDB TOCID: r9uZPAPLLQ8K5vTO9cPnqPpNCLM-] found
Submit result: r9uZPAPLLQ8K5vTO9cPnqPpNCLM- has been confirmed
Track | CTDB Status
1 | (9/9) Accurately ripped
2 | (9/9) Accurately ripped
3 | (9/9) Accurately ripped
4 | (9/9) Accurately ripped
5 | (9/9) Accurately ripped
6 | (9/9) Accurately ripped
7 | (9/9) Accurately ripped
8 | (9/9) Accurately ripped
9 | (9/9) Accurately ripped
10 | (9/9) Accurately ripped
11 | (9/9) Accurately ripped
12 | (9/9) Accurately ripped
13 | (9/9) Accurately ripped
14 | (9/9) Accurately ripped
15 | (9/9) Accurately ripped
16 | (9/9) Accurately ripped
17 | (9/9) Accurately ripped
18 | (9/9) Accurately ripped
19 | (9/9) Accurately ripped


==== Log checksum 716EDB5513CA3D1681E6A42CE793F40070D5CD7DDB981CCE05F760BC9383EC30 ====


Exact Audio Copy V1.3 from 2. September 2016

EAC extraction logfile from 13. December 2018, 16:09

Vangelis, Kathleen Battle, Jessye Norman; Blake Neely / Vangelis - Mythodea. Music for the NASA Mission - 2001 Mars Odyssey

Used drive : ATAPI iHAS124 F Adapter: 1 ID: 0

Read mode : Secure
Utilize accurate stream : Yes
Defeat audio cache : Yes
Make use of C2 pointers : No

Read offset correction : 6
Overread into Lead-In and Lead-Out : No
Fill up missing offset samples with silence : Yes
Delete leading and trailing silent blocks : No
Null samples used in CRC calculations : Yes
Used interface : Native Win32 interface for Win NT & 2000

Used output format : User Defined Encoder
Selected bitrate : 1024 kBit/s
Quality : High
Add ID3 tag : No
Command line compressor : C:\Program Files (x86)\Exact Audio Copy\FLAC\FLAC.EXE
Additional command line options : -6 -V -T "ARTIST=%artist%" -T "TITLE=%title%" -T "ALBUM=%albumtitle%" -T "DATE=%year%" -T "TRACKNUMBER=%tracknr%" -T "GENRE=%genre%" -T "COMMENT=%comment%" -T "BAND=%albuminterpret%" -T "ALBUMARTIST=%albuminterpret%" -T "COMPOSER=%composer%" %haslyrics%–tag-from-file=LYRICS="%lyricsfile%"%haslyrics% -T "DISCNUMBER=%cdnumber%" -T "TOTALDISCS=%totalcds%" -T "TOTALTRACKS=%numtracks%" %hascover%–picture="%coverfile%"%hascover% %source% -o %dest%


TOC of the extracted CD

Track | Start | Length | Start sector | End sector
––––––––––––––––––––––––––––-
1 | 0:00.00 | 2:43.38 | 0 | 12262
2 | 2:43.38 | 5:41.20 | 12263 | 37857
3 | 8:24.58 | 5:39.68 | 37858 | 63350
4 | 14:04.51 | 5:51.44 | 63351 | 89719
5 | 19:56.20 | 13:42.15 | 89720 | 151384
6 | 33:38.35 | 6:35.38 | 151385 | 181047
7 | 40:13.73 | 6:26.45 | 181048 | 210042
8 | 46:40.43 | 4:57.57 | 210043 | 232374
9 | 51:38.25 | 3:07.20 | 232375 | 246419
10 | 54:45.45 | 5:00.20 | 246420 | 268939
11 | 59:45.65 | 3:10.48 | 268940 | 283237
12 | 62:56.38 | 4:05.46 | 283238 | 301658


Range status and errors

Selected range

Filename C:\EACRip\Kathleen Battle - The Complete Sony Recordings (10CD, 2016)\CD7 - Vangelis. Mythodea\Vangelis - Mythodea - Kathleen Battle, Jessye Norman, Blake Neely.wav

Peak level 98.7 %
Extraction speed 4.5 X
Range quality 100.0 %
Test CRC 9898C148
Copy CRC 9898C148
Copy OK

No errors occurred


AccurateRip summary

Track 1 accurately ripped (confidence 5) [6549C954] (AR v2)
Track 2 accurately ripped (confidence 5) [BA8A9A1E] (AR v2)
Track 3 accurately ripped (confidence 5) [62399DFF] (AR v2)
Track 4 accurately ripped (confidence 5) [0A50B3C3] (AR v2)
Track 5 accurately ripped (confidence 5) [72B37D84] (AR v2)
Track 6 accurately ripped (confidence 5) [C9A24E02] (AR v2)
Track 7 accurately ripped (confidence 5) [28973AE5] (AR v2)
Track 8 accurately ripped (confidence 5) [77528E32] (AR v2)
Track 9 accurately ripped (confidence 5) [A5801643] (AR v2)
Track 10 accurately ripped (confidence 5) [73C84A11] (AR v2)
Track 11 accurately ripped (confidence 5) [49C9D86E] (AR v2)
Track 12 accurately ripped (confidence 5) [9E120968] (AR v2)

All tracks accurately ripped

End of status report

–– CUETools DB Plugin V2.1.6

[CTDB TOCID: RNqAYTN2rCtgexeTjXEKqOkkUSQ-] found
Submit result: RNqAYTN2rCtgexeTjXEKqOkkUSQ- has been confirmed
Track | CTDB Status
1 | (10/10) Accurately ripped
2 | (10/10) Accurately ripped
3 | (10/10) Accurately ripped
4 | (10/10) Accurately ripped
5 | (10/10) Accurately ripped
6 | (10/10) Accurately ripped
7 | (10/10) Accurately ripped
8 | (10/10) Accurately ripped
9 | (10/10) Accurately ripped
10 | (10/10) Accurately ripped
11 | (10/10) Accurately ripped
12 | ( 9/10) Accurately ripped


==== Log checksum 6309D2338684818513A6AE299CB1FF668B59843FC58F874FD00796070ED37F94 ====


Exact Audio Copy V1.3 from 2. September 2016

EAC extraction logfile from 13. December 2018, 22:26

Kathleen Battle / Grace

Used drive : ATAPI iHAS124 F Adapter: 1 ID: 0

Read mode : Secure
Utilize accurate stream : Yes
Defeat audio cache : Yes
Make use of C2 pointers : No

Read offset correction : 6
Overread into Lead-In and Lead-Out : No
Fill up missing offset samples with silence : Yes
Delete leading and trailing silent blocks : No
Null samples used in CRC calculations : Yes
Used interface : Native Win32 interface for Win NT & 2000

Used output format : User Defined Encoder
Selected bitrate : 1024 kBit/s
Quality : High
Add ID3 tag : No
Command line compressor : C:\Program Files (x86)\Exact Audio Copy\FLAC\FLAC.EXE
Additional command line options : -6 -V -T "ARTIST=%artist%" -T "TITLE=%title%" -T "ALBUM=%albumtitle%" -T "DATE=%year%" -T "TRACKNUMBER=%tracknr%" -T "GENRE=%genre%" -T "COMMENT=%comment%" -T "BAND=%albuminterpret%" -T "ALBUMARTIST=%albuminterpret%" -T "COMPOSER=%composer%" %haslyrics%–tag-from-file=LYRICS="%lyricsfile%"%haslyrics% -T "DISCNUMBER=%cdnumber%" -T "TOTALDISCS=%totalcds%" -T "TOTALTRACKS=%numtracks%" %hascover%–picture="%coverfile%"%hascover% %source% -o %dest%


TOC of the extracted CD

Track | Start | Length | Start sector | End sector
––––––––––––––––––––––––––––-
1 | 0:00.00 | 4:22.03 | 0 | 19652
2 | 4:22.03 | 3:03.60 | 19653 | 33437
3 | 7:25.63 | 3:18.08 | 33438 | 48295
4 | 10:43.71 | 2:36.65 | 48296 | 60060
5 | 13:20.61 | 3:58.45 | 60061 | 77955
6 | 17:19.31 | 4:10.00 | 77956 | 96705
7 | 21:29.31 | 3:13.07 | 96706 | 111187
8 | 24:42.38 | 6:42.55 | 111188 | 141392
9 | 31:25.18 | 2:23.65 | 141393 | 152182
10 | 33:49.08 | 4:00.03 | 152183 | 170185
11 | 37:49.11 | 3:14.37 | 170186 | 184772
12 | 41:03.48 | 2:46.55 | 184773 | 197277
13 | 43:50.28 | 5:11.68 | 197278 | 220670
14 | 49:02.21 | 2:22.45 | 220671 | 231365


Range status and errors

Selected range

Filename C:\EACRip\Kathleen Battle - The Complete Sony Recordings (10CD, 2016)\CD8 - Grace\Grace - Kathleen Battle.wav

Peak level 96.6 %
Extraction speed 3.0 X
Range quality 100.0 %
Test CRC 10EABD54
Copy CRC 10EABD54
Copy OK

No errors occurred


AccurateRip summary

Track 1 accurately ripped (confidence 3) [CC85781B] (AR v2)
Track 2 accurately ripped (confidence 3) [450DB851] (AR v2)
Track 3 accurately ripped (confidence 3) [0FCB6EDA] (AR v2)
Track 4 accurately ripped (confidence 3) [5BC35553] (AR v2)
Track 5 accurately ripped (confidence 3) [FEE42F9F] (AR v2)
Track 6 accurately ripped (confidence 3) [144C4BAD] (AR v2)
Track 7 accurately ripped (confidence 3) [C14FEC7C] (AR v2)
Track 8 accurately ripped (confidence 3) [169199D1] (AR v2)
Track 9 accurately ripped (confidence 3) [45F7A87A] (AR v2)
Track 10 accurately ripped (confidence 3) [D69E531A] (AR v2)
Track 11 accurately ripped (confidence 3) [21A119AD] (AR v2)
Track 12 accurately ripped (confidence 3) [F9367C91] (AR v2)
Track 13 accurately ripped (confidence 3) [8D22789C] (AR v2)
Track 14 accurately ripped (confidence 3) [F4DC801D] (AR v2)

All tracks accurately ripped

End of status report

–– CUETools DB Plugin V2.1.6

[CTDB TOCID: _X.emgicRZNAAhTo1Yhdzs05zHo-] found
Submit result: _X.emgicRZNAAhTo1Yhdzs05zHo- has been confirmed
Track | CTDB Status
1 | (8/8) Accurately ripped
2 | (8/8) Accurately ripped
3 | (8/8) Accurately ripped
4 | (8/8) Accurately ripped
5 | (8/8) Accurately ripped
6 | (8/8) Accurately ripped
7 | (8/8) Accurately ripped
8 | (8/8) Accurately ripped
9 | (8/8) Accurately ripped
10 | (8/8) Accurately ripped
11 | (8/8) Accurately ripped
12 | (8/8) Accurately ripped
13 | (8/8) Accurately ripped
14 | (8/8) Accurately ripped


==== Log checksum 72A63D4F03F4F9AA028F3DD54A79D3E1F48CCFEEFE65C3734B9546169EB7723E ====


Exact Audio Copy V1.3 from 2. September 2016

EAC extraction logfile from 13. December 2018, 23:07

Kathleen Battle / Classic Kathleen Battle a Portrait

Used drive : ATAPI iHAS124 F Adapter: 1 ID: 0

Read mode : Secure
Utilize accurate stream : Yes
Defeat audio cache : Yes
Make use of C2 pointers : No

Read offset correction : 6
Overread into Lead-In and Lead-Out : No
Fill up missing offset samples with silence : Yes
Delete leading and trailing silent blocks : No
Null samples used in CRC calculations : Yes
Used interface : Native Win32 interface for Win NT & 2000

Used output format : User Defined Encoder
Selected bitrate : 1024 kBit/s
Quality : High
Add ID3 tag : No
Command line compressor : C:\Program Files (x86)\Exact Audio Copy\FLAC\FLAC.EXE
Additional command line options : -6 -V -T "ARTIST=%artist%" -T "TITLE=%title%" -T "ALBUM=%albumtitle%" -T "DATE=%year%" -T "TRACKNUMBER=%tracknr%" -T "GENRE=%genre%" -T "COMMENT=%comment%" -T "BAND=%albuminterpret%" -T "ALBUMARTIST=%albuminterpret%" -T "COMPOSER=%composer%" %haslyrics%–tag-from-file=LYRICS="%lyricsfile%"%haslyrics% -T "DISCNUMBER=%cdnumber%" -T "TOTALDISCS=%totalcds%" -T "TOTALTRACKS=%numtracks%" %hascover%–picture="%coverfile%"%hascover% %source% -o %dest%


TOC of the extracted CD

Track | Start | Length | Start sector | End sector
––––––––––––––––––––––––––––-
1 | 0:00.00 | 2:31.10 | 0 | 11334
2 | 2:31.10 | 5:33.40 | 11335 | 36349
3 | 8:04.50 | 2:20.42 | 36350 | 46891
4 | 10:25.17 | 2:45.50 | 46892 | 59316
5 | 13:10.67 | 5:06.05 | 59317 | 82271
6 | 18:16.72 | 3:18.13 | 82272 | 97134
7 | 21:35.10 | 4:19.67 | 97135 | 116626
8 | 25:55.02 | 3:11.55 | 116627 | 131006
9 | 29:06.57 | 3:14.68 | 131007 | 145624
10 | 32:21.50 | 2:40.15 | 145625 | 157639
11 | 35:01.65 | 1:36.57 | 157640 | 164896
12 | 36:38.47 | 5:12.53 | 164897 | 188349
13 | 41:51.25 | 2:56.72 | 188350 | 201621
14 | 44:48.22 | 2:41.50 | 201622 | 213746
15 | 47:29.72 | 1:15.55 | 213747 | 219426
16 | 48:45.52 | 10:48.70 | 219427 | 268096
17 | 59:34.47 | 4:37.43 | 268097 | 288914
18 | 64:12.15 | 4:12.52 | 288915 | 307866


Range status and errors

Selected range

Filename C:\EACRip\Kathleen Battle - The Complete Sony Recordings (10CD, 2016)\CD9 - A Portrait\Classic Kathleen Battle - a Portrait.wav

Peak level 99.0 %
Extraction speed 8.6 X
Range quality 100.0 %
Test CRC 35A2A491
Copy CRC 35A2A491
Copy OK

No errors occurred


AccurateRip summary

Track 1 accurately ripped (confidence 3) [5267AF56] (AR v2)
Track 2 accurately ripped (confidence 3) [2DAD6858] (AR v2)
Track 3 accurately ripped (confidence 3) [FD4E5667] (AR v2)
Track 4 accurately ripped (confidence 3) [48C54383] (AR v2)
Track 5 accurately ripped (confidence 3) [75A09D15] (AR v2)
Track 6 accurately ripped (confidence 3) [7DFF2F04] (AR v2)
Track 7 accurately ripped (confidence 3) [EA3DBC75] (AR v2)
Track 8 accurately ripped (confidence 3) [9C77355A] (AR v2)
Track 9 accurately ripped (confidence 3) [8C9F366E] (AR v2)
Track 10 accurately ripped (confidence 3) [5EF55EDE] (AR v2)
Track 11 accurately ripped (confidence 3) [6C8FE145] (AR v2)
Track 12 accurately ripped (confidence 3) [894534FD] (AR v2)
Track 13 accurately ripped (confidence 3) [B04F1ED3] (AR v2)
Track 14 accurately ripped (confidence 3) [50455980] (AR v2)
Track 15 accurately ripped (confidence 3) [0FA596D6] (AR v2)
Track 16 accurately ripped (confidence 3) [28EE3F9A] (AR v2)
Track 17 accurately ripped (confidence 3) [0F74386D] (AR v2)
Track 18 accurately ripped (confidence 3) [A24660F0] (AR v2)

All tracks accurately ripped

End of status report

–– CUETools DB Plugin V2.1.6

[CTDB TOCID: 8gb0T_0.ei_FpUEtMMRA0YQu4Rk-] found
Submit result: 8gb0T_0.ei_FpUEtMMRA0YQu4Rk- has been confirmed
Track | CTDB Status
1 | (8/8) Accurately ripped
2 | (8/8) Accurately ripped
3 | (8/8) Accurately ripped
4 | (8/8) Accurately ripped
5 | (8/8) Accurately ripped
6 | (8/8) Accurately ripped
7 | (8/8) Accurately ripped
8 | (8/8) Accurately ripped
9 | (8/8) Accurately ripped
10 | (8/8) Accurately ripped
11 | (8/8) Accurately ripped
12 | (8/8) Accurately ripped
13 | (8/8) Accurately ripped
14 | (8/8) Accurately ripped
15 | (8/8) Accurately ripped
16 | (8/8) Accurately ripped
17 | (8/8) Accurately ripped
18 | (8/8) Accurately ripped


==== Log checksum 2C598A26000430610F690155819718970631D1F826EECDABE611BF5A1B143AEB ====


Exact Audio Copy V1.3 from 2. September 2016

EAC extraction logfile from 14. December 2018, 0:15

Kathleen Battle / Collaborations

Used drive : ATAPI iHAS124 F Adapter: 1 ID: 0

Read mode : Secure
Utilize accurate stream : Yes
Defeat audio cache : Yes
Make use of C2 pointers : No

Read offset correction : 6
Overread into Lead-In and Lead-Out : No
Fill up missing offset samples with silence : Yes
Delete leading and trailing silent blocks : No
Null samples used in CRC calculations : Yes
Used interface : Native Win32 interface for Win NT & 2000

Used output format : User Defined Encoder
Selected bitrate : 1024 kBit/s
Quality : High
Add ID3 tag : No
Command line compressor : C:\Program Files (x86)\Exact Audio Copy\FLAC\FLAC.EXE
Additional command line options : -6 -V -T "ARTIST=%artist%" -T "TITLE=%title%" -T "ALBUM=%albumtitle%" -T "DATE=%year%" -T "TRACKNUMBER=%tracknr%" -T "GENRE=%genre%" -T "COMMENT=%comment%" -T "BAND=%albuminterpret%" -T "ALBUMARTIST=%albuminterpret%" -T "COMPOSER=%composer%" %haslyrics%–tag-from-file=LYRICS="%lyricsfile%"%haslyrics% -T "DISCNUMBER=%cdnumber%" -T "TOTALDISCS=%totalcds%" -T "TOTALTRACKS=%numtracks%" %hascover%–picture="%coverfile%"%hascover% %source% -o %dest%


TOC of the extracted CD

Track | Start | Length | Start sector | End sector
––––––––––––––––––––––––––––-
1 | 0:00.00 | 1:56.37 | 0 | 8736
2 | 1:56.37 | 1:14.72 | 8737 | 14358
3 | 3:11.34 | 1:21.42 | 14359 | 20475
4 | 4:33.01 | 4:09.24 | 20476 | 39174
5 | 8:42.25 | 6:57.67 | 39175 | 70516
6 | 15:40.17 | 12:47.07 | 70517 | 128048
7 | 28:27.24 | 6:46.46 | 128049 | 158544
8 | 35:13.70 | 0:32.66 | 158545 | 161010
9 | 35:46.61 | 3:43.47 | 161011 | 177782
10 | 39:30.33 | 0:51.01 | 177783 | 181608
11 | 40:21.34 | 3:10.18 | 181609 | 195876
12 | 43:31.52 | 0:51.23 | 195877 | 199724
13 | 44:23.00 | 4:52.14 | 199725 | 221638
14 | 49:15.14 | 0:29.74 | 221639 | 223887
15 | 49:45.13 | 1:52.65 | 223888 | 232352
16 | 51:38.03 | 4:13.11 | 232353 | 251338
17 | 55:51.14 | 9:00.08 | 251339 | 291846
18 | 64:51.22 | 10:19.56 | 291847 | 338327


Range status and errors

Selected range

Filename C:\EACRip\Kathleen Battle - The Complete Sony Recordings (10CD, 2016)\CD10 - Collaborations\Collaborations - Kathleen Battle.wav

Peak level 96.7 %
Extraction speed 9.4 X
Range quality 100.0 %
Test CRC BD5C53BE
Copy CRC BD5C53BE
Copy OK

No errors occurred


AccurateRip summary

Track 1 accurately ripped (confidence 3) [35CE7A9D] (AR v2)
Track 2 accurately ripped (confidence 3) [B33F4568] (AR v2)
Track 3 accurately ripped (confidence 3) [A475D77B] (AR v2)
Track 4 accurately ripped (confidence 3) [2F3450F4] (AR v2)
Track 5 accurately ripped (confidence 3) [2E802F13] (AR v2)
Track 6 accurately ripped (confidence 3) [D2680C38] (AR v2)
Track 7 accurately ripped (confidence 3) [C87D75F0] (AR v2)
Track 8 accurately ripped (confidence 3) [28F4168A] (AR v2)
Track 9 accurately ripped (confidence 3) [84A13132] (AR v2)
Track 10 accurately ripped (confidence 3) [C18187ED] (AR v2)
Track 11 accurately ripped (confidence 3) [7C44CB5C] (AR v2)
Track 12 accurately ripped (confidence 3) [D8826D0C] (AR v2)
Track 13 accurately ripped (confidence 3) [2545353D] (AR v2)
Track 14 accurately ripped (confidence 3) [54E81BA7] (AR v2)
Track 15 accurately ripped (confidence 3) [CF72A458] (AR v2)
Track 16 accurately ripped (confidence 3) [6BEC7CD4] (AR v2)
Track 17 accurately ripped (confidence 3) [8265EC66] (AR v2)
Track 18 accurately ripped (confidence 3) [0C82C256] (AR v2)

All tracks accurately ripped

End of status report

–– CUETools DB Plugin V2.1.6

[CTDB TOCID: INhmMBd0BA974owK5uxaDomCxDc-] found
Submit result: INhmMBd0BA974owK5uxaDomCxDc- has been confirmed
Track | CTDB Status
1 | (6/6) Accurately ripped
2 | (6/6) Accurately ripped
3 | (6/6) Accurately ripped
4 | (6/6) Accurately ripped
5 | (6/6) Accurately ripped
6 | (6/6) Accurately ripped
7 | (6/6) Accurately ripped
8 | (6/6) Accurately ripped
9 | (6/6) Accurately ripped
10 | (6/6) Accurately ripped
11 | (6/6) Accurately ripped
12 | (6/6) Accurately ripped
13 | (6/6) Accurately ripped
14 | (6/6) Accurately ripped
15 | (6/6) Accurately ripped
16 | (6/6) Accurately ripped
17 | (6/6) Accurately ripped
18 | (6/6) Accurately ripped


==== Log checksum 2FA80E68898A2AA2D1E78CAB1827C819AED30B835208992A26D392FDFC511FFA ====


Kathleen Battle: The Complete Sony Recordings [10CDs] (2016)