Tags
Language
Tags

Katie Melua - Piece By Piece (2005)

Posted By: popsakov
Katie Melua - Piece By Piece (2005)

Katie Melua - Piece By Piece (2005)
EAC Rip | FLAC (Img) + Cue + Log ~ 250 Mb | MP3 CBR320 ~ 107 Mb
Full Scans ~ 61 Mb | RAR 5% Recovery
Jazz, Pop, Blues | Dramatico Records #DRAMCD0007

Piece by Piece is the second studio album by British-Georgian jazz and blues singer Katie Melua. It was released on 26 September 2005 by Dramatico Records. In the United Kingdom, the album debuted at #1 with 120,459 copies sold in its first week and to date has gone platinum four times.

Georgia-born (as in the country, not the state) singer/songwriter Katie Melua found herself atop the British charts in 2003 with her breezy debut, Call Off the Search, which sold over three million copies in Europe alone. Her laid-back blend of blues, jazz, and pop with a kiss of worldbeat drew comparisons to Norah Jones, and rightfully so. She sticks to the formula on her lush, ultimately safe follow-up, Piece by Piece. This is Coldplay for the Diana Krall crowd, a perfectly rendered slice of adult contemporary pie for a lazy summer day delivered by an artist whose beautiful voice is almost striking in how unremarkable it is. Her longtime collaborator, producer/songwriter Mike Batt, provides the catchiest number, an odd and endearing little confection called "Nine Million Bicycles." It's both silly and sweet, two things that work in Melua's favor. Sure, she can vamp it up with the best of them on bluesy asides like "Shy Boy" and the dreadful "Blues in the Night," but there's a whole lot of innocence in that voice that just shrivels in the midst of all that bravado. Only in her early twenties, Melua's got plenty of time to decide on a persona, and Piece by Piece has enough quality material on it to placate fans until she does, but there's some tension here, and it doesn't sound intentional. Besides, anyone who covers Canned Heat and the Cure on the same record is still trying to figure it all out.

~ James Christopher Monger, All Music
Katie Melua - Piece By Piece (2005)


***************

Katie Melua - Piece By Piece (2005)

Katie Melua - Piece By Piece (2005)

Track List:

01. Shy Boy [0:03:28.41]
02. Nine Million Bicycles [0:03:15.34]
03. Piece By Piece [0:03:24.28]
04. Halfway Up the Hindu Kush [0:03:06.58]
05. Blues in the Night [0:04:12.60]
06. Spider's Web [0:03:58.00]
07. Blue Shoes [0:04:39.30]
08. On the Road Again [0:04:38.56]
09. Thankyou, Stars [0:03:39.35]
10. Just Like Heaven [0:03:35.30]
11. I Cried For You [0:03:38.07]
12. I Do Believe in Love [0:03:00.73]

Personnel:
Vocals: Katie Melua
Guitars: Katie Melua, Chris Spedding, Jim Cregan
Piano: Mike Batt (Katie Melua on "I Do Believe in Love")
Bass: Tim Harries
Drums: Henry Spinetti
Solo Trumpet: Dominic Glover
Solo violin: Mike Darcy
Percussion: Martin Ditchman, Chris Karan
Harmonica: Paul Jones ("Blues in the Night")
Ethnic flutes: Adrian Brett ("Nine Million Bicycles")
Mandolin: Peter Knight ("Thankyou, Stars")
Sitar: Craig Pruess ("Halfway up the Hindu Kush")
Orchestra: The Irish Film Orchestra - Conductor: Mike Batt

Exact Audio Copy V1.0 beta 3 from 29. August 2011

EAC extraction logfile from 22. April 2015, 20:58

Katie Melua / Piece By Piece

Used drive : ATAPI iHAS124 D Adapter: 0 ID: 2

Read mode : Secure
Utilize accurate stream : Yes
Defeat audio cache : Yes
Make use of C2 pointers : No

Read offset correction : 6
Overread into Lead-In and Lead-Out : No
Fill up missing offset samples with silence : Yes
Delete leading and trailing silent blocks : No
Null samples used in CRC calculations : Yes
Used interface : Installed external ASPI interface

Used output format : User Defined Encoder
Selected bitrate : 1024 kBit/s
Quality : High
Add ID3 tag : No
Command line compressor : C:\Program Files (x86)\Exact Audio Copy\Flac\flac.exe
Additional command line options : -6 -V -T "ARTIST=%artist%" -T "TITLE=%title%" -T "ALBUM=%albumtitle%" -T "DATE=%year%" -T "TRACKNUMBER=%tracknr%" -T "GENRE=%genre%" -T "COMMENT=%comment%" -T "BAND=%albuminterpret%" -T "COMPOSER=%composer%" %haslyrics%–tag-from-file=LYRICS="%lyricsfile%"%haslyrics% -T "DISCNUMBER=%cdnumber%" -T "TOTALDISCS=%totalcds%" -T "TOTALTRACKS=%numtracks%" %hascover%–picture="%coverfile%"%hascover% %source% -o %dest%


TOC of the extracted CD

Track | Start | Length | Start sector | End sector
––––––––––––––––––––––––––––-
1 | 0:00.01 | 3:28.41 | 1 | 15641
2 | 3:28.42 | 3:15.34 | 15642 | 30300
3 | 6:44.01 | 3:24.28 | 30301 | 45628
4 | 10:08.29 | 3:06.58 | 45629 | 59636
5 | 13:15.12 | 4:12.60 | 59637 | 78596
6 | 17:27.72 | 3:58.00 | 78597 | 96446
7 | 21:25.72 | 4:39.30 | 96447 | 117401
8 | 26:05.27 | 4:38.56 | 117402 | 138307
9 | 30:44.08 | 3:39.35 | 138308 | 154767
10 | 34:23.43 | 3:35.30 | 154768 | 170922
11 | 37:58.73 | 3:38.07 | 170923 | 187279
12 | 41:37.05 | 3:00.73 | 187280 | 200852


Range status and errors

Selected range

Filename C:\mm\Katie Melua\2005 - Piece By Piece [DRAMCD0007]\Katie Melua - Piece By Piece.wav

Peak level 98.8 %
Extraction speed 8.4 X
Range quality 100.0 %
Test CRC A97DE81F
Copy CRC A97DE81F
Copy OK

No errors occurred


AccurateRip summary

Track 1 accurately ripped (confidence 160) [F08D637E] (AR v2)
Track 2 accurately ripped (confidence 159) [8BE485E3] (AR v2)
Track 3 accurately ripped (confidence 159) [7F1518D0] (AR v2)
Track 4 accurately ripped (confidence 160) [551AEC5F] (AR v2)
Track 5 accurately ripped (confidence 160) [B02EB068] (AR v2)
Track 6 accurately ripped (confidence 160) [EAC1D7A6] (AR v2)
Track 7 accurately ripped (confidence 157) [17FAB687] (AR v2)
Track 8 accurately ripped (confidence 160) [15D4B3C2] (AR v2)
Track 9 accurately ripped (confidence 158) [36BF06E1] (AR v2)
Track 10 accurately ripped (confidence 159) [DC6281FA] (AR v2)
Track 11 accurately ripped (confidence 160) [795D16D2] (AR v2)
Track 12 accurately ripped (confidence 160) [4E18AB23] (AR v2)

All tracks accurately ripped

End of status report

[CUETools log; Date: 17.01.2017 8:32:58; Version: 2.1.5]
Pregap length 00:00:01.
[CTDB TOCID: AhHGJ6QqEXWKnTcKwMT3mujCmSw-] found.
Track | CTDB Status
1 | (1388/1493) Accurately ripped
2 | (1473/1493) Accurately ripped
3 | (1474/1493) Accurately ripped
4 | (1478/1493) Accurately ripped
5 | (1476/1493) Accurately ripped
6 | (1477/1493) Accurately ripped
7 | (1473/1493) Accurately ripped
8 | (1473/1493) Accurately ripped
9 | (1473/1493) Accurately ripped
10 | (1471/1493) Accurately ripped
11 | (1466/1493) Accurately ripped
12 | (1472/1493) Accurately ripped
[AccurateRip ID: 0013c5ac-00ba75de-a40a760c] found.
Track [ CRC | V2 ] Status
01 [17dfe2bc|f08d637e] (200+200/1966) Accurately ripped
02 [25ae8928|8be485e3] (200+200/1977) Accurately ripped
03 [f2ec2ac0|7f1518d0] (200+200/1975) Accurately ripped
04 [085efeee|551aec5f] (200+200/1977) Accurately ripped
05 [9fd604b4|b02eb068] (200+200/1974) Accurately ripped
06 [8cd92842|eac1d7a6] (200+200/1969) Accurately ripped
07 [4d285012|17fab687] (200+200/1974) Accurately ripped
08 [0e793701|15d4b3c2] (200+200/1967) Accurately ripped
09 [09031c57|36bf06e1] (200+200/1977) Accurately ripped
10 [5aa0f122|dc6281fa] (200+200/1965) Accurately ripped
11 [73c6c5d5|795d16d2] (200+200/1967) Accurately ripped
12 [499ab58d|4e18ab23] (200+200/1974) Accurately ripped
Offsetted by -748:
01 [cb1e8ace] (005/1966) Accurately ripped
02 [f15af9d2] (004/1977) Accurately ripped
03 [ab7e5854] (004/1975) Accurately ripped
04 [a3367ae7] (004/1977) Accurately ripped
05 [df0bce8c] (004/1974) Accurately ripped
06 [a0492273] (004/1969) Accurately ripped
07 [1f7608ef] (003/1974) Accurately ripped
08 [f1e638f1] (004/1967) Accurately ripped
09 [876991d8] (004/1977) Accurately ripped
10 [767f18a3] (004/1965) Accurately ripped
11 [e596f8f4] (004/1967) Accurately ripped
12 [0496f416] (004/1974) Accurately ripped
Offsetted by -736:
01 [3c170e1d] (002/1966) Accurately ripped
02 [bbe4f4d9] (002/1977) Accurately ripped
03 [777c3c42] (002/1975) Accurately ripped
04 [1be9a3cb] (002/1977) Accurately ripped
05 [7940e0fa] (002/1974) Accurately ripped
06 [1016a300] (002/1969) Accurately ripped
07 [198f425c] (002/1974) Accurately ripped
08 [c01d28fc] (002/1967) Accurately ripped
09 [e7f3f3a5] (002/1977) Accurately ripped
10 [30ea231d] (002/1965) Accurately ripped
11 [c2f050c5] (002/1967) Accurately ripped
12 [56dd189f] (002/1974) Accurately ripped
Offsetted by -664:
01 [5a4d6c84] (082/1966) Accurately ripped
02 [878193c6] (086/1977) Accurately ripped
03 [608cc572] (084/1975) Accurately ripped
04 [716aec9a] (083/1977) Accurately ripped
05 [fd1669dd] (083/1974) Accurately ripped
06 [d067e91e] (083/1969) Accurately ripped
07 [269179f9] (083/1974) Accurately ripped
08 [27f7a48b] (083/1967) Accurately ripped
09 [26866d3b] (085/1977) Accurately ripped
10 [0c63c4f8] (084/1965) Accurately ripped
11 [9e1f38e8] (084/1967) Accurately ripped
12 [4792f21b] (083/1974) Accurately ripped
Offsetted by -646:
01 [0bc9ef67] (011/1966) Accurately ripped
02 [27758908] (009/1977) Accurately ripped
03 [bc859edd] (011/1975) Accurately ripped
04 [e3007e23] (011/1977) Accurately ripped
05 [ff64a0e5] (010/1974) Accurately ripped
06 [478d36c1] (009/1969) Accurately ripped
07 [30084eb8] (010/1974) Accurately ripped
08 [f158686b] (010/1967) Accurately ripped
09 [5ca9916d] (011/1977) Accurately ripped
10 [c7924034] (010/1965) Accurately ripped
11 [6803829e] (008/1967) Accurately ripped
12 [44e927e5] (009/1974) Accurately ripped
Offsetted by -634:
01 [1df73cc3] (148/1966) Accurately ripped
02 [e7df0074] (150/1977) Accurately ripped
03 [d2bdeb99] (150/1975) Accurately ripped
04 [fd02a517] (151/1977) Accurately ripped
05 [4343ceeb] (151/1974) Accurately ripped
06 [431f920b] (150/1969) Accurately ripped
07 [2de78224] (150/1974) Accurately ripped
08 [e2c4a139] (150/1967) Accurately ripped
09 [ca70fed5] (151/1977) Accurately ripped
10 [64c266f8] (151/1965) Accurately ripped
11 [c321207d] (150/1967) Accurately ripped
12 [98b14baa] (149/1974) Accurately ripped
Offsetted by -616:
01 [f0c7a65f] (200/1966) Accurately ripped
02 [8a4f7d68] (200/1977) Accurately ripped
03 [2d0d30e3] (200/1975) Accurately ripped
04 [2565c237] (200/1977) Accurately ripped
05 [7fac21b4] (200/1974) Accurately ripped
06 [2e636b06] (200/1969) Accurately ripped
07 [370656bc] (200/1974) Accurately ripped
08 [61144082] (200/1967) Accurately ripped
09 [5c4fc5d1] (200/1977) Accurately ripped
10 [1f7ef00a] (200/1965) Accurately ripped
11 [d197e663] (200/1967) Accurately ripped
12 [96d18136] (200/1974) Accurately ripped
Offsetted by -114:
01 [aabf00d5] (003/1966) Accurately ripped
02 [4fed0408] (003/1977) Accurately ripped
03 [a5bd6a8e] (003/1975) Accurately ripped
04 [a00ee5d7] (003/1977) Accurately ripped
05 [68beeee9] (003/1974) Accurately ripped
06 [ce2e45ce] (003/1969) Accurately ripped
07 [4ffcd0ed] (003/1974) Accurately ripped
08 [2d6414f7] (003/1967) Accurately ripped
09 [a2896003] (003/1977) Accurately ripped
10 [2e458e74] (003/1965) Accurately ripped
11 [dc36444b] (003/1967) Accurately ripped
12 [66839518] (003/1974) Accurately ripped
Offsetted by -86:
01 [0764b95e] (055/1966) Accurately ripped
02 [c623bf07] (057/1977) Accurately ripped
03 [591edad3] (057/1975) Accurately ripped
04 [8caecb12] (057/1977) Accurately ripped
05 [7b3b3e08] (057/1974) Accurately ripped
06 [29a3f6eb] (057/1969) Accurately ripped
07 [4ee4ffd9] (057/1974) Accurately ripped
08 [ca828e95] (057/1967) Accurately ripped
09 [3997ac81] (057/1977) Accurately ripped
10 [ee81313b] (056/1965) Accurately ripped
11 [6b747de8] (057/1967) Accurately ripped
12 [3a518752] (057/1974) Accurately ripped
Offsetted by -60:
01 [6213ce30] (002/1966) Accurately ripped
02 [2348ae70] (002/1977) Accurately ripped
03 [cc0ca02a] (002/1975) Accurately ripped
04 [edee6f5d] (002/1977) Accurately ripped
05 [51a5d7ed] (002/1974) Accurately ripped
06 [22800d57] (002/1969) Accurately ripped
07 [55c9441f] (002/1974) Accurately ripped
08 [fb47f299] (002/1967) Accurately ripped
09 [8f1fc006] (002/1977) Accurately ripped
10 [5f5963f3] (002/1965) Accurately ripped
11 [2edd7090] (002/1967) Accurately ripped
12 [7faa1edd] (002/1974) Accurately ripped
Offsetted by 18:
01 [321781f9] (200/1966) Accurately ripped
02 [6d92234f] (200/1977) Accurately ripped
03 [5b1ded11] (200/1975) Accurately ripped
04 [c7e3feff] (200/1977) Accurately ripped
05 [2863e2ef] (200/1974) Accurately ripped
06 [dc294f40] (200/1969) Accurately ripped
07 [49ae1a11] (200/1974) Accurately ripped
08 [6a184403] (200/1967) Accurately ripped
09 [3c643483] (200/1977) Accurately ripped
10 [b3418954] (200/1965) Accurately ripped
11 [358fccd8] (200/1967) Accurately ripped
12 [53c9e23c] (200/1974) Accurately ripped
Offsetted by 30:
01 [e5259261] (013/1966) Accurately ripped
02 [40213136] (013/1977) Accurately ripped
03 [bf32c0cb] (014/1975) Accurately ripped
04 [c009b06a] (014/1977) Accurately ripped
05 [f5cc483e] (014/1974) Accurately ripped
06 [728434e1] (014/1969) Accurately ripped
07 [492b5783] (014/1974) Accurately ripped
08 [831aa20c] (014/1967) Accurately ripped
09 [9c349608] (014/1977) Accurately ripped
10 [61706ac2] (014/1965) Accurately ripped
11 [4bf36cfd] (014/1967) Accurately ripped
12 [b011ffd4] (014/1974) Accurately ripped
Offsetted by 171:
01 [d57a8941] (045/1966) Accurately ripped
02 [ced30237] (046/1977) Accurately ripped
03 [f3d001e7] (046/1975) Accurately ripped
04 [7e88bb42] (045/1977) Accurately ripped
05 [f5334375] (045/1974) Accurately ripped
06 [12e426ee] (045/1969) Accurately ripped
07 [42006fd6] (046/1974) Accurately ripped
08 [ba8a0079] (042/1967) Accurately ripped
09 [cfeb60ae] (046/1977) Accurately ripped
10 [990204d7] (045/1965) Accurately ripped
11 [6a040211] (044/1967) Accurately ripped
12 [b530531c] (044/1974) Accurately ripped
Offsetted by 596:
01 [30f9cfda] (009/1966) Accurately ripped
02 [b532b418] (009/1977) Accurately ripped
03 [f72b8817] (009/1975) Accurately ripped
04 [26ba65d9] (009/1977) Accurately ripped
05 [6e32020e] (009/1974) Accurately ripped
06 [d91fade3] (010/1969) Accurately ripped
07 [5310bdeb] (010/1974) Accurately ripped
08 [02f25307] (010/1967) Accurately ripped
09 [687b8f15] (010/1977) Accurately ripped
10 [8c45887c] (009/1965) Accurately ripped
11 [b957c0db] (010/1967) Accurately ripped
12 [d5f85369] (010/1974) Accurately ripped
Offsetted by -1352:
01 [09bc5f53] (000/1966) No match
02 [24ba3fc8] (000/1977) No match (V2 was not tested)
03 [5314bedb] (000/1975) No match (V2 was not tested)
04 [dbfbee4f] (000/1977) No match
05 [bd6b446d] (000/1974) No match
06 [c9955853] (000/1969) No match
07 [c6055fcd] (000/1974) No match
08 [76890c74] (000/1967) No match
09 [85cfc09c] (000/1977) No match
10 [f2ca17ec] (000/1965) No match
11 [40e9a69a] (000/1967) No match
12 [8fb98948] (000/1974) No match
Offsetted by -1331:
01 [4b107920] (000/1966) No match (V2 was not tested)
02 [7bc125c7] (000/1977) No match (V2 was not tested)
03 [606f2b35] (000/1975) No match (V2 was not tested)
04 [3cb393d8] (000/1977) No match (V2 was not tested)
05 [e11e5ff5] (000/1974) No match (V2 was not tested)
06 [dbba60c7] (000/1969) No match (V2 was not tested)
07 [c8ae7649] (000/1974) No match (V2 was not tested)
08 [94664a92] (000/1967) No match (V2 was not tested)
09 [88164d40] (000/1977) No match (V2 was not tested)
10 [a51423c2] (000/1965) No match (V2 was not tested)
11 [d785bf43] (000/1967) No match (V2 was not tested)
12 [d363d2d0] (000/1974) No match (V2 was not tested)
Offsetted by -1328:
01 [6d393100] (000/1966) No match (V2 was not tested)
02 [6faeed5f] (002/1977) Accurately ripped
03 [7279f188] (002/1975) Accurately ripped
04 [e037ab72] (002/1977) Accurately ripped
05 [03de437b] (000/1974) No match (V2 was not tested)
06 [cb5d946b] (002/1969) Accurately ripped
07 [cc60c3f4] (002/1974) Accurately ripped
08 [a45c7d73] (002/1967) Accurately ripped
09 [f15c4bab] (002/1977) Accurately ripped
10 [3a1d62a6] (002/1965) Accurately ripped
11 [b25f98c1] (002/1967) Accurately ripped
12 [263ddd49] (002/1974) Accurately ripped
Offsetted by -1298:
01 [e00260ac] (000/1966) No match (V2 was not tested)
02 [73ea7aa2] (000/1977) No match (V2 was not tested)
03 [99cf971d] (000/1975) No match (V2 was not tested)
04 [44d150cb] (000/1977) No match (V2 was not tested)
05 [f9b341e9] (000/1974) No match (V2 was not tested)
06 [a8f1738d] (000/1969) No match (V2 was not tested)
07 [cdf4b7d2] (000/1974) No match (V2 was not tested)
08 [81c209c3] (000/1967) No match (V2 was not tested)
09 [ea318210] (000/1977) No match (V2 was not tested)
10 [57ee1db4] (000/1965) No match (V2 was not tested)
11 [4cccb9d1] (000/1967) No match (V2 was not tested)
12 [636045c2] (000/1974) No match (V2 was not tested)
Offsetted by -796:
01 [bd20b77e] (000/1966) No match (V2 was not tested)
02 [d57cb909] (000/1977) No match (V2 was not tested)
03 [e35a88e8] (000/1975) No match (V2 was not tested)
04 [a3757b5f] (000/1977) No match (V2 was not tested)
05 [62ef3248] (000/1974) No match (V2 was not tested)
06 [d8fe6ebd] (000/1969) No match (V2 was not tested)
07 [13993da9] (000/1974) No match (V2 was not tested)
08 [23a353f4] (000/1967) No match (V2 was not tested)
09 [0a4ddc0c] (000/1977) No match (V2 was not tested)
10 [19f4b754] (000/1965) No match (V2 was not tested)
11 [cb3e4c55] (000/1967) No match (V2 was not tested)
12 [bcbe608a] (000/1974) No match (V2 was not tested)
Offsetted by -712:
01 [ddad2ab1] (000/1966) No match (V2 was not tested)
02 [b1674db8] (002/1977) Accurately ripped
03 [4482059c] (002/1975) Accurately ripped
04 [51d650da] (002/1977) Accurately ripped
05 [5920cc14] (002/1974) Accurately ripped
06 [8905923b] (002/1969) Accurately ripped
07 [1f17b243] (002/1974) Accurately ripped
08 [14b19b8a] (002/1967) Accurately ripped
09 [4d0d1463] (002/1977) Accurately ripped
10 [4ead7e22] (002/1965) Accurately ripped
11 [af15ca42] (002/1967) Accurately ripped
12 [fbc1616f] (002/1974) Accurately ripped
Offsetted by -682:
01 [0a699319] (000/1966) No match (V2 was not tested)
02 [6f8fab2f] (000/1977) No match (V2 was not tested)
03 [8948582f] (000/1975) No match (V2 was not tested)
04 [f3cfac72] (000/1977) No match (V2 was not tested)
05 [6bca6c0f] (000/1974) No match (V2 was not tested)
06 [938f9bfe] (000/1969) No match (V2 was not tested)
07 [22a2b149] (000/1974) No match (V2 was not tested)
08 [8497732f] (000/1967) No match (V2 was not tested)
09 [93acf78a] (000/1977) No match (V2 was not tested)
10 [893049ce] (000/1965) No match (V2 was not tested)
11 [11892d61] (000/1967) No match (V2 was not tested)
12 [4ab7bc0e] (000/1974) No match (V2 was not tested)
Offsetted by -670:
01 [d1282043] (002/1966) Accurately ripped
02 [22b92165] (002/1977) Accurately ripped
03 [9e1711e1] (002/1975) Accurately ripped
04 [f62781e5] (002/1977) Accurately ripped
05 [3e97610b] (002/1974) Accurately ripped
06 [674cf692] (002/1969) Accurately ripped
07 [204ce1bb] (000/1974) No match (V2 was not tested)
08 [e6d48837] (002/1967) Accurately ripped
09 [4764650a] (002/1977) Accurately ripped
10 [42dc6289] (002/1965) Accurately ripped
11 [75538d09] (002/1967) Accurately ripped
12 [9de4e01e] (002/1974) Accurately ripped
Offsetted by -658:
01 [99e90e06] (000/1966) No match (V2 was not tested)
02 [5bc4120c] (000/1977) No match (V2 was not tested)
03 [994551f6] (000/1975) No match (V2 was not tested)
04 [49fc5752] (000/1977) No match (V2 was not tested)
05 [f5ae8f69] (000/1974) No match (V2 was not tested)
06 [d71002f0] (000/1969) No match (V2 was not tested)
07 [2a7f153a] (000/1974) No match (V2 was not tested)
08 [b53b784a] (000/1967) No match (V2 was not tested)
09 [a9a5d289] (000/1977) No match (V2 was not tested)
10 [fec3435f] (000/1965) No match (V2 was not tested)
11 [0e0268c8] (000/1967) No match (V2 was not tested)
12 [f14d040e] (000/1974) No match (V2 was not tested)
Offsetted by -102:
01 [a8776bbb] (000/1966) No match (V2 was not tested)
02 [9b720e38] (000/1977) No match (V2 was not tested)
03 [ae2084d5] (000/1975) No match (V2 was not tested)
04 [98165317] (000/1977) No match (V2 was not tested)
05 [339d520b] (000/1974) No match (V2 was not tested)
06 [dbed53d3] (000/1969) No match (V2 was not tested)
07 [4f610e66] (000/1974) No match (V2 was not tested)
08 [b501052f] (000/1967) No match (V2 was not tested)
09 [4913cd45] (000/1977) No match (V2 was not tested)
10 [e823b5a1] (000/1965) No match (V2 was not tested)
11 [f3616823] (000/1967) No match (V2 was not tested)
12 [c12ab3c6] (000/1974) No match (V2 was not tested)
Offsetted by -66:
01 [2dc29f5a] (000/1966) No match (V2 was not tested)
02 [b98d22d4] (000/1977) No match (V2 was not tested)
03 [ce62e796] (000/1975) No match (V2 was not tested)
04 [c5971271] (000/1977) No match (V2 was not tested)
05 [d1397c58] (000/1974) No match (V2 was not tested)
06 [f2f5a47c] (000/1969) No match (V2 was not tested)
07 [4f3fa866] (000/1974) No match (V2 was not tested)
08 [9454d622] (000/1967) No match (V2 was not tested)
09 [00d75ad3] (000/1977) No match (V2 was not tested)
10 [5f1dd755] (000/1965) No match (V2 was not tested)
11 [44fa4797] (000/1967) No match (V2 was not tested)
12 [d2130fa0] (000/1974) No match (V2 was not tested)
Offsetted by -48:
01 [b49d42b0] (002/1966) Accurately ripped
02 [7cbbc5e2] (003/1977) Accurately ripped
03 [4579bfd3] (003/1975) Accurately ripped
04 [8e09caed] (002/1977) Accurately ripped
05 [1bd2023d] (002/1974) Accurately ripped
06 [ba431adc] (000/1969) No match (V2 was not tested)
07 [53cc7b8c] (003/1974) Accurately ripped
08 [a7c6e2f8] (000/1967) No match (V2 was not tested)
09 [e2e0218d] (000/1977) No match (V2 was not tested)
10 [fdf67d42] (000/1965) No match (V2 was not tested)
11 [04ecca7f] (000/1967) No match (V2 was not tested)
12 [daed3d38] (002/1974) Accurately ripped
Offsetted by -6:
01 [e15cfe94] (000/1966) No match (V2 was not tested)
02 [a3f076d1] (000/1977) No match (V2 was not tested)
03 [d628cef6] (000/1975) No match
04 [3f83f678] (000/1977) No match
05 [55833577] (000/1974) No match (V2 was not tested)
06 [adf5355c] (000/1969) No match
07 [4c90b467] (000/1974) No match
08 [39658806] (000/1967) No match
09 [29af65b4] (000/1977) No match (V2 was not tested)
10 [6810725d] (000/1965) No match
11 [c723dae3] (000/1967) No match
12 [9b9ea693] (000/1974) No match
Offsetted by 12:
01 [5d86ff27] (000/1966) No match (V2 was not tested)
02 [03d4969d] (000/1977) No match (V2 was not tested)
03 [b641838c] (000/1975) No match (V2 was not tested)
04 [011a0330] (000/1977) No match (V2 was not tested)
05 [a5b44d11] (000/1974) No match (V2 was not tested)
06 [71be0df9] (000/1969) No match (V2 was not tested)
07 [448c846a] (000/1974) No match (V2 was not tested)
08 [7187b9f1] (000/1967) No match (V2 was not tested)
09 [69582c75] (000/1977) No match (V2 was not tested)
10 [dc251897] (000/1965) No match (V2 was not tested)
11 [87b55dcf] (000/1967) No match (V2 was not tested)
12 [a5b1d363] (000/1974) No match (V2 was not tested)
Offsetted by 24:
01 [bbd659cd] (002/1966) Accurately ripped
02 [bfc2b01a] (002/1977) Accurately ripped
03 [928d49d0] (000/1975) No match
04 [9adfa932] (000/1977) No match
05 [abca9594] (000/1974) No match
06 [b9b6f3a1] (000/1969) No match
07 [436fb2c2] (000/1974) No match
08 [f756857e] (000/1967) No match
09 [bf2c99b0] (000/1977) No match
10 [89c90807] (000/1965) No match
11 [21743bea] (000/1967) No match
12 [01e8f10c] (000/1974) No match
Offsetted by 177:
01 [a71f12d6] (000/1966) No match (V2 was not tested)
02 [cc16928f] (000/1977) No match
03 [4fc04f07] (000/1975) No match
04 [a0a411f2] (000/1977) No match
05 [41ed12f0] (000/1974) No match
06 [ca6a4141] (000/1969) No match
07 [4abe087e] (000/1974) No match
08 [47f3424d] (000/1967) No match
09 [017e742a] (000/1977) No match
10 [6ff28370] (000/1965) No match
11 [16daed67] (000/1967) No match
12 [6428614f] (000/1974) No match

Track Peak [ CRC32 ] [W/O NULL] [ LOG ]
– 98,8 [A97DE81F] [CE230E74] CRC32
01 98,8 [245B42AE] [9A645FD0]
02 98,8 [ACF8D2F5] [E853FB7B]
03 98,8 [A1C966A4] [5687814D]
04 98,8 [97840D7B] [B32CE277]
05 98,8 [5CD3CFEF] [2DFA132C]
06 98,8 [A86DC582] [C19F5202]
07 98,8 [B34585D4] [E63C41CD]
08 98,8 [DD7EBE05] [CA516D52]
09 98,8 [DF9D8317] [D7CC51D0]
10 98,8 [D7A9B506] [F9CC7FFC]
11 98,8 [1A125D8A] [D47211A8]
12 98,8 [C6F517DE] [E21F55CA]

Katie Melua - Piece By Piece (2005)


All thanks go to sergych

>>> Katie Melua in my Blog <<<

Download: